osu file format v12

[General]
AudioFilename: Preserved Roses TV Size.mp3
AudioLeadIn: 938
PreviewTime: 58262
Countdown: 1
SampleSet: None
StackLeniency: 0.7
Mode: 0
LetterboxInBreaks: 1

[Editor]
DistanceSpacing: 1
BeatDivisor: 4
GridSize: 4

[Metadata]
Title:Preserved Roses (TV Size)
TitleUnicode:Preserved Roses (TV Size)
Artist:T.M.Revolution x Nana Mizuki
ArtistUnicode:T.M.Revolution x Nana Mizuki
Creator:xSiRix
Version:Insane
Source:Kakumeiki Valvrave
Tags:
BeatmapID:259329
BeatmapSetID:96833

[Difficulty]
HPDrainRate:7
CircleSize:5
OverallDifficulty:7
ApproachRate:9
SliderMultiplier:1.9
SliderTickRate:1

[Events]
//Background and Video events
0,0,"BG.png",0,0
Video,0,"tt.avi"
//Break Periods
//Storyboard Layer 0 (Background)
//Storyboard Layer 1 (Fail)
//Storyboard Layer 2 (Pass)
//Storyboard Layer 3 (Foreground)
//Storyboard Sound Samples
//Background Colour Transformations
3,100,163,162,255

[TimingPoints]
-1199,359.281437125748,4,1,0,100,1,0
5268,-200,4,1,0,100,0,0
5627,-100,4,1,0,100,0,0
59160,-100,4,1,0,100,0,1
86465,-100,4,1,0,100,0,0

[HitObjects]
344,344,238,1,0,0:0:0:0:
284,312,417,1,0,0:0:0:0:
316,248,597,1,0,0:0:0:0:
252,224,777,1,0,0:0:0:0:
252,224,866,1,0,0:0:0:0:
252,224,956,2,0,B|208:192|208:192|160:188,2,95
384,96,1495,5,0,0:0:0:0:
384,96,1585,1,0,0:0:0:0:
384,96,1675,2,0,B|428:56|428:56|472:48,2,95
320,52,2214,1,0,0:0:0:0:
192,52,2393,2,0,B|136:72|136:72|92:60,1,95
224,176,2753,2,0,B|184:224|184:224|116:240,1,95
180,116,3112,5,0,0:0:0:0:
332,136,3292,1,0,0:0:0:0:
180,188,3471,1,0,0:0:0:0:
256,160,3651,1,0,0:0:0:0:
256,236,3830,1,0,0:0:0:0:
336,188,4010,6,0,L|404:188,2,47.5
336,188,4369,1,0,0:0:0:0:
256,32,5268,6,0,L|256:144,1,95
80,152,5986,6,0,B|124:208|124:208|184:184|216:200,1,142.5
216,176,6345,1,0,0:0:0:0:
256,276,6525,2,0,B|312:292|352:276|352:276|404:344,1,142.5
408,312,6884,1,0,0:0:0:0:
408,196,7064,2,0,P|356:176|320:128,1,95
352,80,7423,6,0,P|404:92|436:120,1,95
392,264,7783,2,0,P|320:256|188:168,1,190
212,100,8321,1,0,0:0:0:0:
116,128,8501,1,0,0:0:0:0:
24,96,8681,1,0,0:0:0:0:
24,96,8771,1,0,0:0:0:0:
24,96,8860,6,0,P|44:144|48:228,1,95
212,100,9220,1,0,0:3:0:0:
212,100,9399,2,0,P|156:60|128:16,1,95
220,68,9759,2,0,P|288:92|344:96,1,95
352,276,10118,2,0,P|276:272|184:296,1,142.5
200,308,10477,1,0,0:0:0:0:
72,184,10657,6,0,P|120:252|164:272,1,95
160,172,11016,2,0,P|136:112|100:84,1,95
256,44,11375,1,0,0:0:0:0:
280,60,11465,1,0,0:0:0:0:
304,72,11555,1,0,0:0:0:0:
332,80,11645,1,0,0:0:0:0:
364,80,11735,6,0,P|416:112|428:152,1,95
240,192,12094,1,0,0:0:0:0:
448,56,12274,2,0,P|424:136|440:164,1,95
288,240,12633,1,0,0:0:0:0:
476,168,12812,2,0,P|456:220|412:252,1,95
324,156,13171,5,0,0:0:0:0:
276,296,13351,1,0,0:0:0:0:
248,144,13531,2,0,P|216:188|104:176,1,142.5
108,220,13890,1,0,0:0:0:0:
248,240,14070,2,0,P|228:160|196:132,1,95
292,68,14429,1,0,0:0:0:0:
192,96,14609,5,0,0:0:0:0:
336,192,14968,1,0,0:0:0:0:
144,308,15327,1,0,0:0:0:0:
108,220,15507,1,0,0:0:0:0:
184,152,15687,1,0,0:0:0:0:
268,208,15866,1,0,0:0:0:0:
244,304,16046,1,0,0:0:0:0:
420,88,16944,6,0,P|480:56|496:28,2,95
304,16,17483,1,0,0:0:0:0:
32,96,17842,1,0,0:0:0:0:
256,368,18202,1,0,0:0:0:0:
384,256,18471,1,0,0:0:0:0:
256,136,18741,1,0,0:0:0:0:
188,192,18920,6,0,P|144:152|132:48,1,142.5
104,56,19280,1,0,0:0:0:0:
256,84,19459,2,0,P|212:136|144:144,1,95
324,140,19818,1,0,0:0:0:0:
148,276,19998,5,0,0:0:0:0:
176,276,20088,1,0,0:0:0:0:
204,276,20178,1,0,0:0:0:0:
232,276,20268,1,0,0:0:0:0:
260,276,20357,2,0,L|372:276,1,95
408,192,20717,2,0,L|300:192,1,95
104,192,21076,2,0,L|212:192,1,95
256,28,21435,2,0,L|276:80,1,47.5
316,176,21615,2,0,L|296:120,1,47.5
204,132,21795,6,0,P|140:136|96:104,1,95
160,48,22154,1,0,0:0:0:0:
256,252,22333,2,0,P|228:308|176:336,1,95
188,240,22693,1,0,0:0:0:0:
256,156,22872,2,0,L|344:212,1,95
376,116,23232,6,0,P|368:188|336:216,1,95
452,64,23591,1,0,0:0:0:0:
304,120,23771,2,0,P|312:164|384:204,1,95
408,144,24130,1,0,0:0:0:0:
332,272,24309,1,0,0:0:0:0:
340,96,24489,1,0,0:0:0:0:
208,256,24669,6,0,P|152:232|136:188,1,95
216,116,25028,1,0,0:0:0:0:
320,148,25208,2,0,P|288:228|252:244,1,95
216,116,25567,1,0,0:0:0:0:
132,160,25747,1,0,0:0:0:0:
176,48,25926,1,0,0:0:0:0:
324,152,26106,6,0,B|352:168|352:168|380:164|444:176,1,95
256,108,26465,1,0,0:0:0:0:
256,284,26645,2,0,B|232:264|232:264|196:264|144:232,1,95
328,196,27004,1,0,0:0:0:0:
328,196,27184,2,0,L|384:196,3,47.5
328,196,27543,6,0,B|276:196|276:196|220:156,1,95
312,88,27902,1,0,0:0:0:0:
400,152,28082,2,0,B|420:196|408:252|360:272|360:272|340:332,1,190
256,252,28621,1,0,0:0:0:0:
167,318,28800,6,0,B|152:272|152:272|104:252|92:196|112:152,1,190
204,128,29339,1,0,0:0:0:0:
292,192,29519,2,0,B|348:192|348:192|376:152|412:116|484:140,1,190
300,80,30058,1,0,0:0:0:0:
300,80,30238,2,0,L|192:80,1,95
208,276,30597,5,0,0:0:0:0:
208,276,30687,1,0,0:0:0:0:
208,276,30777,2,0,L|260:184,1,95
188,136,31136,1,0,0:0:0:0:
288,280,31315,6,0,P|276:192|336:104,2,190
360,236,32214,1,0,0:0:0:0:
336,144,32393,1,0,0:0:0:0:
256,104,32573,1,0,0:0:0:0:
176,144,32753,2,0,B|176:160|176:160|160:180|160:180|172:208|172:208|136:240,1,95
216,72,33112,5,0,0:0:0:0:
216,72,33202,1,0,0:0:0:0:
216,72,33292,2,0,P|288:52|344:72,1,95
360,160,33651,2,0,P|420:120|436:76,1,95
260,144,34010,2,0,P|224:192|224:248,1,95
148,152,34369,1,0,0:0:0:0:
304,236,34549,6,0,P|276:292|168:332,1,142.5
184,320,34908,1,0,0:0:0:0:
112,232,35088,1,0,0:0:0:0:
208,236,35268,2,0,P|236:292|360:324,1,190
400,232,35806,1,0,0:0:0:0:
300,160,35986,2,0,P|248:144|192:192,1,95
160,108,36345,5,0,0:0:0:0:
352,108,36525,1,0,0:0:0:0:
284,244,36705,2,0,B|256:204|256:204|256:96|256:96|232:60,1,190
160,108,37244,1,0,0:0:0:0:
160,20,37423,1,0,0:0:0:0:
160,196,37783,2,0,L|160:300,1,95
292,276,38142,2,0,L|252:184,1,95
288,68,38501,2,0,L|332:176,1,95
276,36,38860,1,0,0:0:0:0:
208,136,39040,6,0,P|168:108|108:116,1,95
232,264,39399,2,0,P|216:312|152:352,1,95
332,192,39759,2,0,P|384:192|444:236,1,95
256,192,40118,1,0,0:0:0:0:
144,192,40298,1,0,0:0:0:0:
224,316,40477,6,0,B|268:304|268:304|308:256,2,95
256,192,41016,2,0,P|352:248|476:164,1,190
436,132,41555,1,0,0:0:0:0:
424,232,41735,1,0,0:0:0:0:
356,320,41914,6,0,P|288:288|240:296,1,95
192,212,42274,2,0,P|152:240|132:296,1,95
20,276,42633,2,0,P|40:340|80:360,1,95
208,300,42992,2,0,P|196:244|156:228,1,95
80,192,43351,1,0,0:0:0:0:
184,144,43531,1,0,0:0:0:0:
292,268,43711,1,0,0:0:0:0:
340,160,43890,1,0,0:0:0:0:
256,76,44070,1,0,0:0:0:0:
384,92,44250,2,0,B|420:152|420:152|396:256|464:292,1,190
312,192,44789,6,0,P|336:136|308:96,1,95
200,192,45148,2,0,P|176:248|204:288,1,95
232,99,45507,2,0,P|130:82|120:88,1,95
280,284,45866,2,0,P|352:308|368:304,1,95
248,304,46226,6,0,P|192:280|140:176,1,142.5
116,208,46585,1,0,0:0:0:0:
96,320,46765,2,0,P|184:280|220:160,1,190
196,96,47303,1,0,0:0:0:0:
256,160,47483,1,0,0:0:0:0:
320,96,47663,6,0,P|360:128|416:128,1,95
440,48,48022,2,0,P|480:128|432:216,1,190
376,152,48561,1,0,0:0:0:0:
320,96,48741,1,0,0:0:0:0:
264,40,48920,2,0,P|208:96|248:216,1,190
75,214,49459,2,0,P|104:200|128:144,1,95
272,144,49818,2,0,P|296:200|344:216,1,95
376,144,50178,1,0,0:0:0:0:
312,296,50357,1,0,0:0:0:0:
424,168,50537,6,0,P|480:104|472:56,2,95
360,88,51076,1,0,0:0:0:0:
344,208,51256,1,0,0:0:0:0:
320,72,51435,2,0,B|288:64|248:80|248:80|192:56,1,95
304,128,51795,2,0,P|352:160|352:304,1,190
296,320,52333,5,0,0:0:0:0:
232,280,52513,1,0,0:0:0:0:
168,240,52693,1,0,0:0:0:0:
208,176,52872,1,0,0:0:0:0:
80,104,53052,5,0,0:0:0:0:
328,56,53232,1,0,0:0:0:0:
408,88,53411,2,0,P|448:144|448:208,1,95
424,288,53771,2,0,P|384:232|384:168,1,95
256,96,54130,2,0,P|296:152|296:216,1,95
313,316,54489,2,0,P|334:251|385:212,1,95
366,67,54848,2,0,P|345:132|294:171,1,95
256,168,55208,5,0,0:0:0:0:
184,192,55387,1,0,0:0:0:0:
312,232,55567,1,0,0:0:0:0:
384,248,55747,1,0,0:0:0:0:
256,288,55926,1,0,0:0:0:0:
184,312,56106,1,0,0:0:0:0:
88,264,56286,6,0,P|80:208|88:160,1,95
424,120,56645,2,0,P|432:176|424:224,1,95
256,288,57004,2,0,B|256:208|256:208|248:200|248:200|264:200|264:200|256:192|256:192|256:96,1,190
256,48,57543,1,0,0:0:0:0:
256,192,57723,12,0,58980,0:0:0:0:
192,40,59160,6,0,P|208:80|216:184,1,142.5
240,208,59519,1,0,0:0:0:0:
368,192,59699,2,0,P|320:136|296:80,1,95
224,256,60058,1,0,0:0:0:0:
120,128,60238,1,0,0:0:0:0:
184,272,60417,1,0,0:0:0:0:
56,240,60597,6,0,P|72:184|72:128,1,95
256,120,60956,2,0,P|256:200|272:248,1,95
256,120,61315,2,0,P|280:64|312:24,1,95
352,104,61675,1,0,0:0:0:0:
168,40,61854,1,0,0:0:0:0:
168,40,61944,1,0,0:0:0:0:
168,40,62034,2,0,P|224:80|256:128,1,95
152,176,62393,1,0,0:0:0:0:
152,176,62573,2,0,P|152:120|176:72,2,95
256,128,63112,1,0,0:0:0:0:
352,176,63292,6,0,P|360:232|320:288,1,95
144,240,63651,2,0,P|128:176|168:120,1,95
336,88,64010,2,0,P|384:72|432:96,1,95
216,112,64369,1,0,0:0:0:0:
328,256,64549,1,0,0:0:0:0:
232,40,64729,1,0,0:0:0:0:
256,240,64908,6,0,P|208:272|184:336,1,95
88,192,65268,1,0,0:0:0:0:
256,144,65447,2,0,P|304:112|328:48,1,95
392,296,65806,1,0,0:0:0:0:
392,296,65986,2,0,P|312:328|280:368,1,95
184,288,66345,5,0,0:0:0:0:
152,288,66435,1,0,0:0:0:0:
120,288,66525,1,0,0:0:0:0:
192,192,66705,1,0,0:0:0:0:
224,192,66795,1,0,0:0:0:0:
256,192,66885,1,0,0:0:0:0:
288,192,66974,1,0,0:0:0:0:
320,192,67064,1,0,0:0:0:0:
336,64,67244,1,0,0:0:0:0:
384,192,67423,1,0,0:0:0:0:
416,24,67603,5,0,0:0:0:0:
416,24,67693,1,0,0:0:0:0:
416,24,67783,2,0,P|448:72|504:96,1,95
384,192,68142,1,0,0:0:0:0:
384,192,68321,2,0,P|376:136|392:88,1,95
328,296,68681,2,0,P|296:240|288:176,1,95
368,136,69040,1,0,0:0:0:0:
176,64,69220,6,0,P|152:112|104:144,1,95
336,192,69579,2,0,L|448:192,1,95
104,304,69938,2,0,P|48:328|16:376,1,95
64,120,70298,1,0,0:0:0:0:
256,320,70477,1,0,0:0:0:0:
256,320,70567,1,0,0:0:0:0:
256,320,70657,6,0,B|288:272|288:272|336:240|328:168|264:136,1,190
192,192,71196,1,0,0:0:0:0:
280,48,71375,1,0,0:0:0:0:
304,184,71555,1,0,0:0:0:0:
344,16,71735,1,0,0:0:0:0:
248,216,71914,1,0,0:0:0:0:
216,48,72094,6,0,L|284:184,1,142.5
280,176,72453,2,0,B|292:220|292:220|260:240|252:284,1,95
200,156,72812,2,0,P|240:104|256:32,1,95
372,80,73172,1,0,0:0:0:0:
136,132,73351,5,0,0:0:0:0:
136,132,73441,1,0,0:0:0:0:
136,132,73531,2,0,P|152:200|136:264,1,95
356,240,73890,1,0,0:0:0:0:
356,240,74070,2,0,P|316:168|316:112,1,95
432,100,74429,2,0,P|436:132|452:152,2,47.5
316,52,74789,1,0,0:0:0:0:
192,84,74968,6,0,P|172:152|80:200,1,142.5
116,193,75327,2,0,P|168:236|256:228,1,142.5
241,235,75687,2,0,P|268:296|220:332,1,95
344,276,76046,1,0,0:0:0:0:
168,280,76226,1,0,0:0:0:0:
152,104,76405,6,0,P|168:192|152:284,1,142.5
168,280,76765,1,0,0:0:0:0:
268,136,76944,2,0,P|223:213|152:273,1,142.5
167,281,77304,1,0,0:0:0:0:
336,228,77483,1,0,0:0:0:0:
440,348,77663,1,0,0:0:0:0:
420,192,77842,2,0,P|416:140|432:84,1,95
92,192,78202,2,0,P|96:140|80:84,1,95
260,64,78561,5,0,0:0:0:0:
272,92,78651,1,0,0:0:0:0:
276,120,78741,1,0,0:0:0:0:
268,148,78830,1,0,0:0:0:0:
248,172,78920,1,0,0:0:0:0:
232,196,79010,1,0,0:0:0:0:
224,224,79100,1,0,0:0:0:0:
228,252,79190,1,0,0:0:0:0:
248,280,79280,2,0,P|292:308|316:364,1,95
304,192,79639,6,0,P|268:124|288:72,1,95
392,208,79998,2,0,P|315:199|283:154,1,95
164,92,80357,1,0,0:0:0:0:
228,252,80537,1,0,0:0:0:0:
260,92,80717,2,0,P|304:56|360:56,1,95
184,180,81076,2,0,P|128:228|80:220,1,95
200,80,81435,1,0,0:0:0:0:
240,192,81615,1,0,0:0:0:0:
164,124,81795,1,0,0:0:0:0:
280,144,81974,1,0,0:0:0:0:
404,168,82154,5,0,0:0:0:0:
108,168,82513,1,0,0:0:0:0:
256,344,82872,1,0,0:0:0:0:
28,192,83142,1,0,0:0:0:0:
356,28,83411,1,0,0:0:0:0:
380,128,83591,2,0,L|396:232,1,95
332,348,83950,2,0,L|312:224,1,95
216,140,84309,2,0,L|236:260,1,95
144,200,84669,1,0,0:0:0:0:
208,104,84848,1,0,0:0:0:0:
256,24,85028,5,0,0:0:0:0:
372,160,85208,1,0,0:0:0:0:
256,24,85387,1,0,0:0:0:0:
344,224,85567,1,0,0:0:0:0:
256,24,85747,1,0,0:0:0:0:
312,280,85926,1,0,0:0:0:0:
256,24,86106,2,0,L|228:108,1,47.5
196,168,86286,2,0,L|224:104,1,47.5
256,192,86465,12,0,89339,0:0:0:0:
