osu file format v5

[General]
AudioFilename: 01 resonance.mp3
AudioLeadIn: 0
PreviewTime: -1
Countdown: 1
SampleSet: Normal
StackLeniency: 0.7
Mode: 0
EditorBookmarks: 86509,97781,144690,157600

[Metadata]
Title:Resonance -Soul Eater-
Artist:T.M.Revolution
Creator:Mega
Version:Hard

[Difficulty]
HPDrainRate:8
CircleSize:5
OverallDifficulty:5
SliderMultiplier:1.4
SliderTickRate:2

[Events]
//Background and Video events
0,0,"Soul Eater 3.jpg"
//Break Periods
2,28132,38733
2,86375,96975
2,132981,156612
//Storyboard Layer 0 (Background)
//Storyboard Layer 1 (Failing)
//Storyboard Layer 2 (Passing)
//Storyboard Layer 3 (Foreground)
//Storyboard Sound Samples
//Background Colour Transformations
3,100,163,162,255

[TimingPoints]
600,363.636363636364,4,1,0,100

[Colours]
Combo1 : 255,255,47
Combo2 : 4,221,4
Combo3 : 70,70,251
Combo4 : 255,66,160

[HitObjects]
320,256,16600,1,4
256,256,16963,1,4
192,256,17327,1,4
128,256,17690,1,4
128,128,18115,5,0
192,64,18296,1,0
256,128,18478,1,0
320,64,18660,1,0
384,127,18842,1,0
447,64,19024,1,4
448,320,19448,5,0
448,320,19630,1,0
352,320,19993,1,0
256,320,20175,1,0
160,320,20478,1,0
64,320,20660,1,0
64,224,21084,2,2,B|256:32,1,256.666666666667
320,64,21933,5,0
320,64,22115,1,0
320,64,22296,1,0
384,128,22478,2,4,B|448:192,1,70
416,256,22842,2,0,B|416:348,1,70
320,352,23206,2,4,B|227:354,1,70
224,288,23569,2,4,B|224:198,1,70
224,128,23872,5,0
224,61,24115,1,0
158,60,24296,1,0
224,62,24478,1,0
158,60,24660,1,0
159,128,24842,1,4
0,64,25145,6,2,B|5:103|21:135|55:154|85:159,1,116.666666666667
61,222,25751,5,0
128,224,25933,1,0
160,288,26296,1,0
94,291,26478,1,0
128,352,26842,2,2,B|233:364|298:344|384:303|436:245|448:128,1,420
59,54,39933,5,4
128,64,40236,2,0,B|192:64,2,46.6666666666667
126,141,40781,1,0
126,141,40963,1,0
96,224,41206,1,0
32,192,41387,1,0
96,224,41751,1,0
32,192,41933,1,0
96,320,42236,5,4
160,288,42357,2,0,B|210:288,2,46.6666666666667
191,221,42842,1,4
248,187,43206,1,0
248,187,43387,1,0
181,152,43751,1,0
180,152,43933,1,0
176,77,44296,1,0
236,35,44660,1,0
236,35,44842,2,4,B|295:42|341:66|393:94|417:183,1,233.333333333333
469,211,45751,5,0
406,245,45933,1,0
464,288,46115,1,0
391,319,46296,1,4
338,271,46600,5,0
292,326,46781,1,0
246,268,46963,1,0
195,319,47206,1,0
152,264,47387,1,0
103,326,47630,2,4,B|58:326,2,23.3333333333333
74,260,48115,5,4
109,190,48296,1,4
42,187,48478,1,4
80,109,48660,2,2,B|359:34,1,280
416,33,49569,1,4
416,33,49751,1,4
457,87,50054,2,2,B|457:136|436:179|412:217|383:254|351:286|315:318|267:328|217:333|168:338|131:342|131:342|131:342,1,443.333333333333
78,343,51630,5,4
36,292,51872,1,4
96,258,52054,1,4
45,214,52236,1,4
102,160,53084,5,0
101,161,53266,1,0
44,114,53569,1,0
44,115,53751,1,0
87,55,53993,1,0
176,52,54539,2,2,B|228:84|241:127|244:175|249:241|258:277|291:301|336:302|364:280|388:235|407:171|414:117|425:68|454:48|483:47,1,560
463,186,56660,5,4
462,186,57084,1,4
459,338,57448,5,4
459,338,57630,2,6,B|225:338,1,210
42,332,58903,1,4
42,333,59024,1,4
41,248,59448,1,4
41,247,59569,1,4
40,157,59933,1,4
38,77,60296,6,0,B|87:77,2,46.6666666666667
145,79,60781,6,0,B|193:79,2,46.6666666666667
266,81,61327,6,0,B|314:81,2,46.6666666666667
313,149,63206,5,0
367,102,63509,1,0
420,57,63933,1,0
477,98,64296,1,4
437,152,64660,5,0
373,190,64842,1,0
439,225,65024,1,0
373,191,65206,1,0
436,150,65387,1,0
439,225,65569,1,0
376,275,65993,5,0
376,275,66175,1,0
311,331,66539,1,0
260,273,66660,1,0
222,338,67024,1,0
222,339,67145,1,0
166,279,67509,2,2,B|113:356|49:355|-13:288|28:225|44:204|70:162|70:152|70:139|69:136,1,303.333333333333
96,32,68478,5,4
160,64,68660,1,4
192,128,68842,1,4
256,96,69024,2,0,B|314:56|317:54,1,70
384,64,69387,2,0,B|434:127,1,70
480,192,69751,2,0,B|481:264,1,70
448,320,70115,2,0,B|374:320|373:320,1,70
288,320,70478,5,0
224,320,70660,1,0
256,256,70842,1,0
289,320,71024,1,0
226,320,71206,1,0
160,320,71387,1,0
124,259,71751,5,4
123,260,71933,1,4
80,206,72296,1,4
79,206,72478,1,4
36,150,72842,1,4
35,150,73024,1,4
30,77,73327,2,2,B|104:70|165:83|203:99|249:131|283:161|316:198|333:244|343:291|346:336|346:336|346:336,1,443.333333333333
408,346,74781,6,4,B|481:346,4,70
408,278,75812,1,0
408,277,75933,1,0
406,212,76296,1,0
404,148,76600,1,0
404,81,77024,1,0
404,81,77206,1,0
330,111,77569,5,0
330,110,77751,1,0
270,61,78115,1,0
269,60,78296,1,0
192,32,78660,1,0
192,32,78842,1,4
192,32,79206,2,2,B|135:39|109:55|89:69|71:106|70:139|82:173|82:197|81:232|78:281|78:281|79:282|79:282,1,303.333333333333
128,352,80175,5,0
128,352,80296,1,0
128,352,80478,1,0
160,288,80660,1,0
192,352,81024,1,0
224,288,81387,1,0
288,352,81751,1,0
352,320,81993,2,2,B|384:321|409:315|434:301|456:258|456:251,1,116.666666666667
448,192,82478,1,0
384,160,82660,1,0
320,128,82842,1,0
288,64,83024,1,4
223,67,83327,6,0,B|173:67,2,46.6666666666667
106,66,83872,6,0,B|57:66,2,46.6666666666667
129,167,84478,5,0
129,167,84660,1,0
129,167,84903,2,2,B|125:219|147:259|173:286|210:296|245:300|287:290|319:271|339:246|352:212|358:176|351:146|334:104|299:82|254:79|226:85|225:84|225:84|226:86,1,490
24,333,98175,5,0
96,308,98478,1,0
96,308,98660,1,0
167,276,99024,1,0
223,230,99206,1,0
271,173,99448,2,0,B|315:173,2,23.3333333333333
191,171,99933,1,0
126,171,100115,1,0
65,134,100418,5,0
17,80,100600,1,0
75,40,100781,1,0
124,94,100963,1,0
173,44,101145,1,0
240,45,101327,2,0,B|306:45,2,46.6666666666667
226,114,101933,1,0
293,116,102115,1,0
349,82,102478,1,0
402,48,102781,1,0
402,49,103024,2,2,B|439:78|453:111|463:158|485:185|476:256|382:223|425:253|416:246|416:246,1,210
410,307,103872,5,0
354,343,104054,1,0
294,307,104236,1,0
233,344,104418,1,0
171,306,104842,1,0
170,306,105024,1,0
112,339,105266,2,2,B|64:337|41:314|29:251,1,116.666666666667
64,192,105751,1,0
64,192,105933,1,0
26,134,106357,5,0
27,135,106478,1,0
27,134,106600,1,0
32,64,106842,1,0
96,32,107024,1,0
160,64,107206,1,0
192,128,107387,1,0
131,162,107812,1,0
131,163,107933,1,0
131,163,108296,2,2,B|63:165|35:165|15:195|8:230|9:275|50:300|102:299|260:242|302:228,1,443.333333333333
298,163,109812,5,0
373,102,110054,1,0
438,32,110296,1,0
445,166,110478,1,0
373,102,111266,1,0
300,34,111509,1,0
372,102,111690,1,0
445,166,111872,1,0
374,168,112296,1,0
374,168,112539,2,2,B|374:208|378:223|398:236|422:240|439:254|448:282|424:329|388:348|338:351|258:356|214:346|159:341|95:338|57:336|79:153,1,606.666666666667
129,136,114721,5,0
182,102,115084,1,0
130,62,115448,1,0
129,136,115872,1,0
130,62,116054,1,0
183,102,116236,1,0
227,57,117084,1,0
227,57,117206,1,0
299,57,117630,1,0
300,57,117751,1,0
371,58,118054,2,0,B|400:75|421:98|420:97|421:96|421:95,1,46.6666666666667
465,124,118478,6,0,B|465:177|465:177,2,46.6666666666667
396,175,119084,6,0,B|339:174|339:174,2,46.6666666666667
432,249,119630,6,0,B|432:298|432:298,2,46.6666666666667
393,294,121448,5,0
322,338,121751,1,0
252,291,122115,1,0
177,333,122478,1,0
112,283,122842,1,0
67,229,123024,1,0
125,179,123206,1,0
68,229,123387,1,0
125,179,123569,1,0
50,148,123751,1,0
112,106,124115,5,0
112,106,124296,1,0
164,54,124660,1,0
164,54,124842,1,0
219,106,125206,1,0
219,106,125387,1,0
277,60,125690,2,2,B|306:45|331:36|354:40|368:44|388:47|413:64|421:79|423:96|428:115|429:128|429:139|423:156|420:164|415:188|413:206|414:216|402:233|395:240|379:249|376:251|376:246,1,326.666666666667
397,315,126660,6,0,B|397:361,3,23.3333333333333
330,349,127024,2,0,B|257:348,1,70
209,299,127387,2,0,B|140:349,1,70
89,302,127751,2,0,B|28:252,1,70
67,196,128115,2,0,B|127:130,1,70
192,160,128660,5,0
256,160,128842,1,0
224,96,129024,1,0
192,160,129206,1,0
256,160,129387,1,0
224,96,129569,1,0
290,84,129933,1,0
290,84,130115,1,0
361,84,130478,2,0,B|428:84,2,46.6666666666667
376,167,131024,1,0
376,168,131206,1,0
376,166,131509,2,2,B|399:262|378:327|318:334|281:369|224:331|191:318|175:290|180:272|184:230|210:195|253:185|264:167|261:150|246:129|227:135|219:132|218:133|221:137|219:133|218:134|218:134|217:136,1,466.666666666667
32,64,157812,5,0
96,96,157993,1,0
128,32,158175,1,0
160,96,158357,1,0
224,32,158721,5,0
256,96,158903,1,0
288,32,159084,1,0
320,96,159448,5,0
352,32,159630,1,0
384,96,159812,1,0
448,128,159993,1,0
384,160,160175,1,0
448,192,160357,1,0
416,256,160539,1,0
384,320,160721,5,0
320,320,160903,1,0
256,320,161084,1,0
288,256,161266,1,0
272,185,161630,5,0
330,143,161812,1,0
261,112,161993,1,0
246,39,162357,5,0
191,94,162539,1,0
147,32,162721,1,0
115,101,162903,1,0
40,124,163084,1,0
103,171,163266,1,0
40,194,163448,1,0
85,247,163630,5,0
36,296,163812,1,0
84,344,163993,1,0
131,285,164175,1,0
177,342,164539,5,0
218,283,164721,1,0
259,343,164903,1,0
308,279,165206,5,0
337,343,165387,1,0
421,343,165569,1,0
438,263,165751,1,0
375,217,165933,1,0
436,167,166115,1,0
437,92,166478,5,0
364,117,166660,1,0
360,38,166842,1,0
359,38,167024,1,0
285,36,167387,5,0
245,104,167569,1,0
199,38,167751,1,0
149,97,168054,2,2,B|125:109|95:113|66:126|53:148|42:164|16:221|31:262|52:300|91:336|178:341,1,373.333333333333
244,310,169327,6,0,B|295:270|301:265,1,70
344,303,169690,2,0,B|404:351,1,70
436,294,170054,2,0,B|436:217,1,70
389,185,170418,2,0,B|328:136,1,70
321,69,170781,1,0
255,111,170963,1,0
212,58,171145,1,0
176,119,171327,1,0
212,58,171509,1,0
176,118,171690,1,0
104,118,172115,6,0,B|48:118,2,46.6666666666667
104,118,172660,1,0
104,118,172842,1,0
58,167,173145,1,0
58,167,173327,1,0
58,167,173690,2,2,B|64:253|129:293|169:268|232:178|275:155|299:161|324:216|323:216|323:216|323:216|324:217,1,326.666666666667
277,263,174660,5,0
220,307,174842,1,0
280,345,175024,1,0
332,305,175206,2,0,B|383:272,1,46.6666666666667
421,239,175569,2,0,B|421:177,1,46.6666666666667
429,126,175872,2,0,B|386:89,1,46.6666666666667
343,60,176175,2,0,B|274:60|275:60,1,46.6666666666667
254,112,176600,5,0
254,176,176781,1,0
254,242,176963,1,0
254,175,177145,1,0
324,176,177327,1,0
189,176,177569,1,0
185,250,177933,6,0,B|185:306,2,46.6666666666667
112,245,178418,1,0
113,311,178600,1,0
49,340,179024,1,0
40,275,179206,1,0
41,204,179569,2,2,B|32:153|32:134|40:111|18:91|33:76|70:58|101:48|120:36|147:28|153:24|175:9|191:34|240:81|281:179|281:179,1,443.333333333333
306,265,181024,5,0
339,318,181206,1,0
379,266,181387,1,0
338,318,181569,1,0
379,267,181751,1,0
369,199,182054,2,0,B|436:199,3,46.6666666666667
415,199,182781,1,0
465,148,183266,1,0
416,99,183387,1,0
377,41,183812,5,0
308,40,183933,1,0
308,115,184296,5,0
241,116,184478,1,0
236,40,184842,5,0
173,51,185024,1,0
173,51,185387,2,2,B|129:55|106:63|82:87|76:111|77:141|168:197|188:204|192:232|244:255|244:253|243:253|243:253|244:253|243:253|244:256,1,303.333333333333
173,287,186296,5,0
100,286,186478,1,0
134,348,186660,1,0
219,339,186842,2,0,B|301:351,1,70
349,313,187206,2,0,B|405:262,1,70
415,198,187569,2,0,B|431:109,1,70
368,98,187933,2,0,B|301:58,1,70
256,123,188236,5,0
256,192,188357,1,0
255,259,188478,1,0
186,191,188660,1,0
329,192,188842,1,0
186,191,189024,1,0
329,192,189206,1,0
256,192,189509,12,0,192418
