osu file format v14

[General]
AudioFilename: T.M.Revolution - RAIMEI (Thunderbolt Fantasy ver.)~1.mp3
AudioLeadIn: 0
PreviewTime: 54844
Countdown: 0
SampleSet: Normal
StackLeniency: 0.3
Mode: 0
LetterboxInBreaks: 0
WidescreenStoryboard: 0

[Editor]
DistanceSpacing: 1
BeatDivisor: 4
GridSize: 4
TimelineZoom: 1

[Metadata]
Title:RAIMEI (Thunderbolt Fantasy Tourikenyuuki OP ver.)
TitleUnicode:RAIMEI (Thunderbolt Fantasy 東離劍遊紀 OP ver.)
Artist:T.M.Revolution
ArtistUnicode:T.M.Revolution
Creator:Frey
Version:Normal
Source:Thunderbolt Fantasy 東離劍遊紀
Tags:サンダーボルトファンタジー トウリケンユウキ 西川 貴教 Takanori Nishikawa 霹靂布袋劇 opening Regraz Kibbleru
BeatmapID:1285122
BeatmapSetID:607392

[Difficulty]
HPDrainRate:5
CircleSize:3
OverallDifficulty:5
ApproachRate:5
SliderMultiplier:1
SliderTickRate:1

[Events]
//Background and Video events
0,0,"58291453_p1.jpg",0,0
//Break Periods
//Storyboard Layer 0 (Background)
//Storyboard Layer 1 (Fail)
//Storyboard Layer 2 (Pass)
//Storyboard Layer 3 (Foreground)
//Storyboard Sound Samples

[TimingPoints]
345,333.333333333333,4,1,1,70,1,0
55011,-100,4,1,1,70,0,1
84344,-100,4,1,1,70,0,0
89011,-100,4,2,0,20,0,0

[Colours]
Combo1 : 17,254,176
Combo2 : 173,255,95
Combo3 : 255,88,100
Combo4 : 255,94,55

[HitObjects]
16,204,1678,6,0,P|88:204|168:180,1,150,4|4,0:2|0:2,0:0:0:0:
256,64,2678,1,4,0:2:0:0:
349,182,3178,2,0,P|421:203|496:204,1,150,4|2,0:2|0:2,0:0:0:0:
476,252,3844,1,2,0:2:0:0:
452,296,4011,1,2,0:2:0:0:
368,348,4344,6,0,L|220:328,2,150,4|4|4,0:2|0:2|0:2,0:0:0:0:
364,248,5678,1,4,0:0:0:0:
148,136,6678,1,0,0:0:0:0:
148,136,7011,2,0,P|76:164|112:352,1,300,0|0,0:0|0:0,0:0:0:0:
200,372,8344,6,0,P|256:364|312:360,1,100,4|8,0:0|0:0,0:0:0:0:
372,292,9011,1,0,0:0:0:0:
464,334,9344,2,0,L|477:286,1,50,8|0,0:0|0:0,0:0:0:0:
460,240,9678,2,0,P|432:172|424:136,1,100,0|8,0:0|0:0,0:0:0:0:
416,48,10344,1,0,0:0:0:0:
332,104,10678,1,8,0:0:0:0:
232,116,11011,6,0,P|180:108|128:88,1,100,0|8,0:0|0:0,0:0:0:0:
44,52,11678,2,0,P|36:104|16:156,1,100,0|8,0:0|0:0,0:0:0:0:
32,196,12178,1,0,0:0:0:0:
44,244,12344,1,2,0:2:0:0:
116,176,12678,1,10,0:2:0:0:
140,272,13011,2,0,L|244:260,1,100,2|8,0:2|0:0,0:0:0:0:
272,356,13678,6,0,L|371:367,1,100,4|8,0:0|0:0,0:0:0:0:
472,336,14344,2,0,P|462:287|464:237,1,100,0|8,0:0|0:0,0:0:0:0:
480,188,14844,1,0,0:0:0:0:
496,140,15011,1,0,0:0:0:0:
427,67,15344,2,0,P|377:64|331:84,1,100,8|0,0:0|0:0,0:0:0:0:
396,160,16011,1,8,0:0:0:0:
320,224,16344,5,2,0:2:0:0:
256,148,16678,1,10,0:2:0:0:
192,224,17011,2,0,P|159:187|154:138,1,100,2|8,0:2|0:0,0:0:0:0:
211,55,17678,2,0,P|160:36|96:52,1,100,0|8,0:0|0:0,0:0:0:0:
76,72,18178,1,0,0:0:0:0:
36,104,18344,2,0,P|40:172|48:220,1,100,0|8,0:0|0:0,0:0:0:0:
104,284,19011,6,0,P|164:268|252:320,1,150,4|0,0:0|0:0,0:0:0:0:
262,349,19678,1,0,0:0:0:0:
360,324,20011,1,8,0:0:0:0:
456,300,20344,2,0,B|440:220|440:220|452:184|452:184|444:140,1,150,0|0,0:0|0:0,0:0:0:0:
437,104,21011,1,0,0:0:0:0:
416,8,21344,1,8,0:0:0:0:
340,72,21678,6,0,P|280:64|232:44,1,100,0|8,0:0|0:0,0:0:0:0:
208,144,22344,2,0,P|148:152|100:172,1,100,0|8,0:0|0:0,0:0:0:0:
32,224,23011,1,0,0:0:0:0:
20,124,23344,1,8,0:0:0:0:
48,28,23678,2,0,P|112:52|164:56,1,100,0|8,0:0|0:0,0:0:0:0:
192,52,24178,1,0,0:0:0:0:
243,49,24344,6,0,P|292:92|300:176,1,150,4|0,0:0|0:0,0:0:0:0:
275,215,25011,1,0,0:0:0:0:
208,288,25344,1,8,0:0:0:0:
108,308,25678,2,0,P|92:228|84:140,1,150,4|0,0:0|0:0,0:0:0:0:
81,110,26344,1,0,0:0:0:0:
144,32,26678,1,8,0:0:0:0:
404,308,28344,6,0,P|416:248|428:148,2,150,4|4|4,0:2|0:2|0:2,0:0:0:0:
320,364,29678,6,0,P|268:352|236:308,1,100,4|8,0:0|0:0,0:0:0:0:
252,220,30344,1,0,0:0:0:0:
176,156,30678,1,8,0:0:0:0:
80,184,31011,2,0,P|84:248|92:300,1,100,0|8,0:0|0:0,0:0:0:0:
164,352,31678,2,0,P|228:348|280:340,1,100,0|8,0:0|0:0,0:0:0:0:
364,328,32344,6,0,P|392:264|384:216,1,100,0|8,0:0|0:0,0:0:0:0:
320,164,33011,2,0,P|295:120|293:71,1,100,0|8,0:0|0:0,0:0:0:0:
392,92,33678,2,0,P|456:92|508:20,2,150,4|4|4,0:2|0:2|0:2,0:0:0:0:
320,164,35011,6,0,P|252:152|204:148,1,100,4|8,0:0|0:0,0:0:0:0:
140,92,35678,1,0,0:0:0:0:
184,4,36011,1,8,0:0:0:0:
268,60,36344,1,0,0:0:0:0:
221,149,36678,2,0,P|200:188|176:244,1,100,8|0,0:0|0:0,0:0:0:0:
80,260,37344,1,8,0:0:0:0:
8,188,37678,6,0,P|0:136|16:88,1,100,0|8,0:0|0:0,0:0:0:0:
80,16,38344,2,0,L|184:28,1,100,0|8,0:0|0:0,0:0:0:0:
232,112,39011,2,0,L|380:93,2,150,4|4|4,0:2|0:2|0:2,0:0:0:0:
152,175,40344,6,0,P|132:221|138:270,1,100,4|8,0:2|0:0,0:0:0:0:
232,236,41011,2,0,P|280:240|336:264,1,100,0|8,0:0|0:0,0:0:0:0:
355,356,41678,2,0,P|428:293|411:199,1,200,0|0,0:0|0:0,0:0:0:0:
352,120,42678,1,8,0:0:0:0:
252,124,43011,6,0,B|176:128|176:128|132:156|132:156|40:164,1,200,0|0,0:0|0:0,0:0:0:0:
4,244,44011,1,8,0:0:0:0:
104,254,44344,2,0,B|176:248|176:248|220:220|220:220|296:216,1,200,0|0,0:0|0:0,0:0:0:0:
384,260,45344,1,8,0:0:0:0:
392,360,45678,6,0,P|348:344|288:344,1,100,4|8,0:2|0:0,0:0:0:0:
248,256,46344,2,0,P|264:212|264:152,1,100,0|8,0:0|0:0,0:0:0:0:
244,60,47011,2,0,P|172:80|176:192,1,200,0|0,0:0|0:0,0:0:0:0:
248,256,48011,1,8,0:0:0:0:
340,208,48344,6,0,P|348:280|364:364,1,150,4|4,0:2|0:2,0:0:0:0:
468,244,49344,1,4,0:2:0:0:
484,96,49844,2,0,P|410:109|335:118,1,150,4|2,0:2|0:2,0:0:0:0:
296,84,50511,1,2,0:2:0:0:
256,52,50678,1,2,0:2:0:0:
176,118,51011,6,0,P|101:109|28:96,2,150,4|4|4,0:2|0:2|0:2,0:0:0:0:
256,180,52344,1,4,0:0:0:0:
108,364,53344,1,0,0:0:0:0:
108,364,53678,6,0,P|44:272|180:160,1,300
256,180,55011,6,0,P|248:232|236:296,1,100,4|8,0:0|0:0,0:0:0:0:
324,332,55678,2,0,P|332:280|344:216,1,100,0|8,0:0|0:0,0:0:0:0:
384,260,56178,1,0,0:0:0:0:
428,284,56344,2,0,P|476:232|480:184,1,100,0|8,0:0|0:0,0:0:0:0:
456,108,57011,1,0,0:0:0:0:
360,132,57344,1,8,0:0:0:0:
340,233,57678,6,0,P|248:248|224:248,1,100,0|8,0:0|0:0,0:0:0:0:
176,172,58344,2,0,P|126:167|77:156,1,100,0|8,0:0|0:0,0:0:0:0:
44,120,58844,1,0,0:2:0:0:
16,76,59011,1,2,0:2:0:0:
100,20,59344,1,2,0:2:0:0:
200,36,59678,2,0,P|248:46|298:51,1,100,2|8,0:2|0:0,0:0:0:0:
348,140,60344,6,0,P|360:192|356:256,1,100,4|8,0:0|0:0,0:0:0:0:
308,324,61011,1,0,0:0:0:0:
208,336,61344,2,0,L|164:288,1,50,8|0,0:0|0:0,0:0:0:0:
140,264,61678,2,0,P|128:212|132:148,1,100,0|8,0:0|0:0,0:0:0:0:
176,152,62178,1,0,0:0:0:0:
224,140,62344,2,0,P|236:192|232:256,1,100,0|8,0:0|0:0,0:0:0:0:
208,336,63011,5,2,0:2:0:0:
112,360,63344,1,2,0:2:0:0:
44,284,63678,2,0,L|20:164,1,100,2|8,0:2|0:0,0:0:0:0:
68,96,64344,2,0,P|120:88|164:112,1,100,0|8,0:0|0:0,0:0:0:0:
192,148,64844,1,0,0:0:0:0:
224,184,65011,2,0,P|276:192|320:168,1,100,0|8,0:0|0:0,0:0:0:0:
376,92,65678,6,0,L|484:104,1,100,4|8,0:0|0:0,0:0:0:0:
512,196,66344,1,0,0:0:0:0:
419,233,66678,1,8,0:0:0:0:
376,208,66844,1,0,0:0:0:0:
332,184,67011,2,0,P|282:190|241:218,1,100,0|8,0:0|0:0,0:0:0:0:
184,300,67678,2,0,P|124:312|68:320,1,100,0|8,0:0|0:0,0:0:0:0:
20,244,68344,6,0,P|8:184|0:128,1,100,0|8,0:0|0:0,0:0:0:0:
100,124,69011,2,0,P|112:184|120:240,1,100,0|8,0:0|0:0,0:0:0:0:
128,272,69511,1,0,0:0:0:0:
136,320,69678,1,2,0:2:0:0:
232,344,70011,1,2,0:2:0:0:
236,244,70344,2,0,P|276:216|328:210,1,100,2|2,0:2|0:2,0:0:0:0:
388,288,71011,6,0,P|437:281|477:253,1,100,4|8,0:0|0:0,0:0:0:0:
512,160,71678,1,0,0:0:0:0:
484,64,72011,2,0,L|412:52,1,50,8|0,0:0|0:0,0:0:0:0:
388,44,72344,2,0,P|372:128|368:164,1,100,0|8,0:0|0:0,0:0:0:0:
340,184,72844,1,0,0:0:0:0:
312,225,73011,1,0,0:0:0:0:
216,204,73344,1,8,0:0:0:0:
192,108,73678,5,2,0:2:0:0:
104,152,74011,1,2,0:2:0:0:
112,52,74344,2,0,P|60:47|8:40,1,100,2|8,0:2|0:0,0:0:0:0:
4,140,75011,2,0,P|20:196|28:248,1,100,0|8,0:0|0:0,0:0:0:0:
76,228,75511,1,0,0:0:0:0:
124,216,75678,1,0,0:0:0:0:
188,296,76011,1,8,0:0:0:0:
286,317,76344,6,0,P|348:248|336:180,1,150,4|0,0:0|0:0,0:0:0:0:
321,150,77011,1,0,0:0:0:0:
224,128,77344,1,8,0:0:0:0:
156,200,77678,2,0,P|68:184|40:120,1,150,0|0,0:0|0:0,0:0:0:0:
39,84,78344,1,0,0:0:0:0:
104,8,78678,1,8,0:0:0:0:
200,32,79011,5,0,0:0:0:0:
224,128,79344,1,8,0:0:0:0:
324,112,79678,2,0,P|380:100|440:84,1,100,0|8,0:0|0:0,0:0:0:0:
504,30,80344,2,0,P|518:78|511:127,1,100,0|8,0:0|0:0,0:0:0:0:
432,188,81011,2,0,P|444:264|452:304,1,100,0|8,0:0|0:0,0:0:0:0:
412,324,81511,1,0,0:0:0:0:
376,360,81678,6,0,P|328:303|248:304,1,150,4|0,0:0|0:0,0:0:0:0:
212,324,82344,1,0,0:0:0:0:
140,256,82678,1,8,0:0:0:0:
168,160,83011,2,0,P|260:160|304:104,1,150,4|0,0:0|0:0,0:0:0:0:
308,72,83678,1,0,0:0:0:0:
228,12,84011,1,8,0:0:0:0:
284,372,86011,5,4,0:0:0:0:
256,192,87011,12,0,89011,0:0:0:0:
