osu file format v14

[General]
AudioFilename: T.M.Revolution - RAIMEI (Thunderbolt Fantasy ver.)~1.mp3
AudioLeadIn: 0
PreviewTime: 54844
Countdown: 0
SampleSet: Normal
StackLeniency: 0.3
Mode: 0
LetterboxInBreaks: 0
WidescreenStoryboard: 0

[Editor]
DistanceSpacing: 1.8
BeatDivisor: 4
GridSize: 4
TimelineZoom: 1

[Metadata]
Title:RAIMEI (Thunderbolt Fantasy Tourikenyuuki OP ver.)
TitleUnicode:RAIMEI (Thunderbolt Fantasy 東離劍遊紀 OP ver.)
Artist:T.M.Revolution
ArtistUnicode:T.M.Revolution
Creator:Frey
Version:Insane
Source:Thunderbolt Fantasy 東離劍遊紀
Tags:サンダーボルトファンタジー トウリケンユウキ 西川 貴教 Takanori Nishikawa 霹靂布袋劇 opening Regraz Kibbleru
BeatmapID:1282915
BeatmapSetID:607392

[Difficulty]
HPDrainRate:7
CircleSize:4
OverallDifficulty:7
ApproachRate:9
SliderMultiplier:1.8
SliderTickRate:1

[Events]
//Background and Video events
0,0,"58291453_p1.jpg",0,0
//Break Periods
//Storyboard Layer 0 (Background)
//Storyboard Layer 1 (Fail)
//Storyboard Layer 2 (Pass)
//Storyboard Layer 3 (Foreground)
//Storyboard Sound Samples

[TimingPoints]
345,333.333333333333,4,1,1,70,1,0
7011,-100,4,1,1,55,0,0
7678,-100,4,1,1,65,0,0
8344,-100,4,1,1,70,0,0
27011,-100,4,2,0,65,0,0
28344,-100,4,1,1,70,0,0
53511,-100,4,1,1,50,0,0
53678,-100,4,1,1,55,0,0
54344,-100,4,1,1,65,0,0
55011,-100,4,1,1,70,0,1
84344,-100,4,2,0,65,0,0
85844,-100,4,1,0,65,0,0
89011,-100,4,2,0,20,0,0

[Colours]
Combo1 : 17,254,176
Combo2 : 173,255,95
Combo3 : 255,88,100
Combo4 : 255,94,55

[HitObjects]
96,104,178,6,0,L|80:32,2,45
64,192,1678,6,0,L|152:177,1,90,4|0,0:2|0:0,0:0:0:0:
96,104,2011,1,0,0:0:0:0:
256,276,2178,2,0,L|344:291,1,90,4|0,0:2|0:0,0:0:0:0:
312,203,2511,1,0,0:0:0:0:
152,176,2678,6,0,L|121:260,1,90,4|0,0:2|0:0,0:0:0:0:
64,192,3011,1,0,0:0:0:0:
256,40,3178,2,0,L|286:124,1,90,4|0,0:2|0:0,0:0:0:0:
344,56,3511,1,0,0:0:0:0:
168,56,3678,5,2,0:2:0:0:
256,208,3844,1,2,0:2:0:0:
344,56,4011,1,2,0:2:0:0:
88,240,4344,6,0,L|73:151,1,90,4|0,0:2|0:0,0:0:0:0:
168,288,4678,1,0,0:0:0:0:
212,128,4844,2,0,L|226:216,1,90,4|0,0:2|0:0,0:0:0:0:
270,56,5178,1,0,0:0:0:0:
364,192,5344,2,0,L|349:103,1,90,4|0,0:2|0:0,0:0:0:0:
444,240,5678,5,4,0:0:0:0:
340,40,6678,1,0,0:0:0:0:
256,132,7011,6,0,L|200:124,3,45
152,60,7344,2,0,L|107:66,3,45
16,84,7678,1,0,0:0:0:0:
4,108,7761,1,0,0:0:0:0:
1,134,7844,1,0,0:0:0:0:
8,160,7927,1,0,0:0:0:0:
24,182,8011,1,0,0:0:0:0:
46,197,8094,1,0,0:0:0:0:
72,204,8177,1,0,0:0:0:0:
100,200,8261,1,0,0:0:0:0:
128,192,8344,6,0,P|196:196|240:232,1,90,4|0,0:0|0:0,0:0:0:0:
384,79,8678,2,0,P|339:82|297:65,1,90,8|0,0:0|0:0,0:0:0:0:
456,136,9011,1,0,0:0:0:0:
468,44,9178,1,0,0:0:0:0:
297,65,9344,1,8,0:0:0:0:
318,236,9511,1,0,0:0:0:0:
363,155,9678,6,0,P|407:228|371:307,1,180,0|8,0:0|0:0,0:0:0:0:
256,356,10178,1,0,0:0:0:0:
140,308,10344,2,0,P|103:229|148:155,1,180,0|8,0:0|0:0,0:0:0:0:
256,124,10844,1,0,0:0:0:0:
188,32,11011,6,0,L|96:24,1,90
58,148,11344,2,0,L|147:155,1,90,8|0,0:0|0:0,0:0:0:0:
345,267,11678,1,0,0:0:0:0:
256,192,11844,1,0,0:0:0:0:
365,155,12011,1,8,0:0:0:0:
256,328,12178,1,0,0:0:0:0:
167,267,12344,6,0,P|128:240|88:216,1,90,2|0,0:2|0:0,0:0:0:0:
256,192,12678,2,0,B|258:139|253:137|255:102,1,90,10|0,0:2|0:0,0:0:0:0:
345,267,13011,2,0,P|384:240|424:216,1,90,2|0,0:2|0:0,0:0:0:0:
256,344,13344,1,8,0:0:0:0:
167,267,13511,1,0,0:0:0:0:
256,192,13678,6,0,P|260:148|256:100,1,90,4|0,0:0|0:0,0:0:0:0:
55,160,14011,2,0,P|51:204|56:249,1,90,8|0,0:0|0:0,0:0:0:0:
140,128,14344,1,0,0:0:0:0:
68,72,14511,1,0,0:0:0:0:
140,248,14678,1,8,0:0:0:0:
256,102,14844,1,0,0:0:0:0:
204,16,15011,6,0,B|132:24|132:24|100:48|100:48|16:60,1,180,0|8,0:0|0:0,0:0:0:0:
8,260,15511,1,0,0:0:0:0:
85,210,15678,2,0,B|152:220|152:220|184:244|184:244|256:252,1,180,0|8,0:0|0:0,0:0:0:0:
324,192,16178,1,0,0:0:0:0:
256,132,16344,6,0,P|180:144|128:148,1,90,2|0,0:2|0:0,0:0:0:0:
256,372,16678,2,0,P|300:364|344:358,1,90,10|0,0:2|0:0,0:0:0:0:
256,252,17011,2,0,P|211:246|167:238,1,90,2|0,0:2|0:0,0:0:0:0:
20,284,17344,1,8,0:0:0:0:
124,356,17511,1,0,0:0:0:0:
80,216,17678,6,0,P|88:156|104:112,1,90
256,96,18011,1,8,0:0:0:0:
256,276,18178,1,0,0:0:0:0:
339,132,18344,2,0,P|332:46|256:7,1,180,0|8,0:0|0:0,0:0:0:0:
173,132,18844,1,0,0:0:0:0:
256,212,19011,6,0,B|324:204|324:204|356:220|356:220|432:212,1,180,4|8,0:0|0:0,0:0:0:0:
496,276,19511,1,0,0:0:0:0:
444,120,19678,2,0,P|428:77|432:33,1,90
244,125,20011,2,0,P|259:167|256:211,1,90,8|0,0:0|0:0,0:0:0:0:
157,97,20344,6,0,P|224:41|308:61,1,180,0|8,0:0|0:0,0:0:0:0:
332,148,20844,1,0,0:0:0:0:
200,272,21011,2,0,P|156:282|113:294,1,90
70,74,21344,2,0,P|113:84|157:97,1,90,8|0,0:0|0:0,0:0:0:0:
350,81,21678,6,0,P|308:131|244:125,1,135
232,144,22011,2,0,P|236:224|240:252,1,90,8|0,0:0|0:0,0:0:0:0:
288,348,22344,1,0,0:0:0:0:
403,297,22511,1,0,0:0:0:0:
237,233,22678,2,0,P|169:249|125:245,1,90,8|0,0:0|0:0,0:0:0:0:
28,316,23011,6,0,P|72:318|115:331,1,90
180,164,23344,1,8,0:0:0:0:
149,248,23511,1,0,0:0:0:0:
92,176,23678,5,0,0:0:0:0:
149,31,23844,1,0,0:0:0:0:
294,88,24011,1,8,0:0:0:0:
237,233,24178,1,0,0:0:0:0:
200,152,24344,6,0,B|264:144|264:144|304:160|304:160|376:152,1,180,4|8,0:0|0:0,0:0:0:0:
424,228,24844,1,0,0:0:0:0:
320,352,25011,2,0,P|320:308|340:267,1,90
171,267,25344,2,0,P|191:308|191:352,1,90,8|0,0:0|0:0,0:0:0:0:
87,227,25678,6,0,P|64:144|122:80,1,180,4|8,0:0|0:0,0:0:0:0:
256,128,26178,1,0,0:0:0:0:
152,164,26344,1,0,0:0:0:0:
226,44,26511,1,0,0:0:0:0:
360,92,26678,2,0,P|344:144|348:188,1,90,8|0,0:0|0:0,0:0:0:0:
380,264,27011,5,2,0:0:0:0:
436,192,27178,1,0,0:0:0:0:
256,164,27344,1,2,0:0:0:0:
256,164,27511,1,0,0:0:0:0:
77,139,27677,1,2,0:0:0:0:
136,68,27844,1,0,0:0:0:0:
109,223,28011,1,0,0:0:0:0:
109,223,28178,1,2,0:0:0:0:
201,343,28344,6,0,P|287:317|376:316,1,180,4|8,0:2|0:0,0:0:0:0:
311,41,28844,2,0,P|225:67|136:68,1,180,4|8,0:2|0:0,0:0:0:0:
256,192,29344,2,0,L|352:208,1,90,4|0,0:2|0:0,0:0:0:0:
376,212,29594,1,0,0:0:0:0:
376,212,29678,6,0,P|412:180|472:152,1,90,4|0,0:0|0:0,0:0:0:0:
344,296,30011,1,8,0:0:0:0:
436,280,30178,1,0,0:0:0:0:
324,124,30344,1,0,0:0:0:0:
188,260,30511,1,0,0:0:0:0:
256,320,30678,1,8,0:0:0:0:
192,168,30844,6,0,P|113:205|101:290,1,180
172,352,31344,1,8,0:0:0:0:
172,352,31511,1,0,0:0:0:0:
324,260,31678,2,0,P|336:180|332:144,1,90
168,44,32011,2,0,P|169:88|179:132,1,90,8|0,0:0|0:0,0:0:0:0:
192,168,32261,1,0,0:0:0:0:
192,168,32344,5,0,0:0:0:0:
256,100,32511,1,0,0:0:0:0:
88,72,32678,1,8,0:0:0:0:
60,240,32844,1,0,0:0:0:0:
228,268,33011,2,0,L|444:236,1,180,0|8,0:0|0:0,0:0:0:0:
496,228,33511,1,0,0:0:0:0:
432,100,33678,6,0,P|336:108|268:32,1,180,4|8,0:2|0:0,0:0:0:0:
80,284,34178,2,0,P|176:276|244:352,1,180,4|8,0:2|0:0,0:0:0:0:
396,296,34678,2,0,L|380:184,1,90,4|0,0:2|0:0,0:0:0:0:
376,172,34928,1,0,0:0:0:0:
376,172,35011,5,4,0:0:0:0:
432,100,35178,1,0,0:0:0:0:
464,184,35344,1,8,0:0:0:0:
396,296,35511,1,0,0:0:0:0:
296,216,35678,2,0,P|204:204|180:208,1,90
120,224,36011,1,8,0:0:0:0:
20,328,36178,6,0,P|4:232|56:160,1,180
120,224,36678,1,8,0:0:0:0:
192,28,36844,1,0,0:0:0:0:
116,80,37011,1,0,0:0:0:0:
180,144,37178,1,0,0:0:0:0:
256,96,37344,2,0,L|368:112,1,90,8|0,0:0|0:0,0:0:0:0:
256,288,37678,6,0,L|144:272,1,90
28,208,38011,2,0,P|92:196|128:164,1,90,8|0,0:0|0:0,0:0:0:0:
312,216,38344,2,0,P|345:295|297:367,1,180,0|8,0:0|0:0,0:0:0:0:
256,288,38844,1,0,0:0:0:0:
296,128,39011,6,0,P|400:112|488:92,1,180,4|8,0:2|0:0,0:0:0:0:
216,60,39511,2,0,P|112:44|24:24,1,180,4|8,0:2|0:0,0:0:0:0:
80,227,40011,2,0,L|62:138,1,90,4|0,0:2|0:0,0:0:0:0:
17,312,40344,6,0,P|102:332|173:281,1,180,4|8,0:2|0:0,0:0:0:0:
200,192,40844,1,0,0:0:0:0:
147,118,41011,2,0,P|103:120|62:138,1,90
256,316,41344,2,0,P|300:314|341:296,1,90,8|0,0:0|0:0,0:0:0:0:
420,192,41678,6,0,L|404:12,1,180,0|8,0:0|0:0,0:0:0:0:
256,28,42178,1,0,0:0:0:0:
184,180,42344,2,0,L|192:269,1,90
328,204,42678,2,0,L|319:114,1,90,8|0,0:0|0:0,0:0:0:0:
192,68,43011,6,0,B|104:56|116:140|28:124,1,180,0|8,0:0|0:0,0:0:0:0:
44,36,43511,1,0,0:0:0:0:
88,200,43678,2,0,L|200:216,1,90
345,331,44011,2,0,L|256:344,1,90,8|0,0:0|0:0,0:0:0:0:
372,156,44344,6,0,P|411:231|497:233,1,180,0|8,0:0|0:0,0:0:0:0:
461,151,44844,1,0,0:0:0:0:
332,76,45011,2,0,L|212:64,1,90
242,316,45344,2,0,L|332:308,1,90,8|0,0:0|0:0,0:0:0:0:
204,192,45678,6,0,B|116:168|116:220|28:192,1,180,4|8,0:2|0:0,0:0:0:0:
0,104,46178,1,0,0:0:0:0:
64,36,46344,2,0,P|108:29|152:38,1,90
255,115,46678,2,0,P|300:122|344:113,1,90,8|0,0:0|0:0,0:0:0:0:
427,247,47011,6,0,P|321:239|248:272,1,180,0|8,0:0|0:0,0:0:0:0:
192,332,47511,1,0,0:0:0:0:
64,248,47678,2,0,L|80:140,1,90
284,88,48011,2,0,L|268:196,1,90,8|0,0:0|0:0,0:0:0:0:
255,268,48344,6,0,L|136:288,1,90,4|0,0:2|0:0,0:0:0:0:
152,192,48678,1,0,0:0:0:0:
344,252,48844,2,0,L|432:237,1,90,4|0,0:2|0:0,0:0:0:0:
418,146,49178,1,0,0:0:0:0:
312,72,49344,6,0,L|326:160,1,90,4|0,0:2|0:0,0:0:0:0:
344,252,49678,1,0,0:0:0:0:
200,312,49844,2,0,L|185:223,1,90,4|0,0:2|0:0,0:0:0:0:
168,132,50178,1,0,0:0:0:0:
152,40,50344,5,2,0:2:0:0:
256,164,50511,1,2,0:2:0:0:
96,192,50678,1,2,0:2:0:0:
416,192,51011,6,0,L|431:103,1,90,4|0,0:2|0:0,0:0:0:0:
336,240,51345,1,0,0:0:0:0:
292,80,51511,2,0,L|278:168,1,90,4|0,0:2|0:0,0:0:0:0:
234,8,51845,1,0,0:0:0:0:
140,144,52011,2,0,L|155:55,1,90,4|0,0:2|0:0,0:0:0:0:
196,216,52345,5,4,0:0:0:0:
256,368,53344,1,0,0:0:0:0:
380,344,53511,2,0,L|372:284,1,45
360,208,53678,6,0,L|276:196,3,45
256,136,54011,2,0,L|211:142,3,45
148,79,54344,1,0,0:0:0:0:
131,100,54427,1,0,0:0:0:0:
121,125,54510,1,0,0:0:0:0:
119,152,54594,1,0,0:0:0:0:
126,178,54677,1,0,0:0:0:0:
140,201,54760,1,0,0:0:0:0:
161,218,54844,1,0,0:0:0:0:
188,228,54928,1,0,0:0:0:0:
216,232,55011,6,0,P|272:220|312:216,1,90,4|0,0:0|0:0,0:0:0:0:
453,95,55344,2,0,P|408:89|364:79,1,90,8|0,0:0|0:0,0:0:0:0:
256,52,55678,1,0,0:0:0:0:
136,176,55844,1,0,0:0:0:0:
304,216,56011,1,8,0:0:0:0:
152,88,56178,1,0,0:0:0:0:
64,120,56344,6,0,P|49:188|113:301,1,180,0|8,0:0|0:0,0:0:0:0:
193,204,56844,1,0,0:0:0:0:
311,252,57011,2,0,P|325:183|261:70,1,180,0|8,0:0|0:0,0:0:0:0:
160,24,57511,1,0,0:0:0:0:
64,120,57678,6,0,L|80:220,1,90
256,328,58011,2,0,L|270:239,1,90,8|0,0:0|0:0,0:0:0:0:
288,148,58344,1,0,0:0:0:0:
404,92,58511,1,0,0:0:0:0:
484,192,58678,1,8,0:0:0:0:
368,248,58844,1,0,0:2:0:0:
288,148,59011,6,0,P|279:97|272:32,1,90,2|0,0:2|0:0,0:0:0:0:
164,168,59344,2,0,P|155:117|148:52,1,90,2|0,0:2|0:0,0:0:0:0:
40,188,59678,2,0,P|31:137|24:72,1,90,2|0,0:2|0:0,0:0:0:0:
144,344,60011,1,8,0:0:0:0:
60,308,60178,1,0,0:0:0:0:
132,252,60344,6,0,P|204:272|232:288,1,90,4|0,0:0|0:0,0:0:0:0:
380,132,60678,2,0,P|308:112|280:96,1,90,8|0,0:0|0:0,0:0:0:0:
228,40,61011,1,0,0:0:0:0:
136,56,61178,1,0,0:0:0:0:
164,216,61344,1,8,0:0:0:0:
324,236,61511,1,0,0:0:0:0:
208,124,61678,6,0,P|120:148|20:152,1,180,0|8,0:0|0:0,0:0:0:0:
224,304,62178,1,0,0:0:0:0:
304,259,62344,2,0,P|390:236|480:231,1,180,0|8,0:0|0:0,0:0:0:0:
340,344,62844,1,0,0:0:0:0:
224,304,63011,6,0,P|160:288|100:288,1,90,2|0,0:2|0:0,0:0:0:0:
223,80,63344,2,0,P|180:92|136:97,1,90,2|0,0:2|0:0,0:0:0:0:
16,192,63678,2,0,L|108:192,1,90,2|0,0:2|0:0,0:0:0:0:
196,192,64011,1,8,0:0:0:0:
196,192,64178,1,0,0:0:0:0:
312,124,64344,6,0,P|301:80|301:35,1,90
312,260,64678,2,0,P|300:316|304:364,1,90,8|0,0:0|0:0,0:0:0:0:
465,113,65011,2,0,P|503:191|463:268,1,180,0|8,0:0|0:0,0:0:0:0:
416,192,65511,1,0,0:0:0:0:
312,260,65678,6,0,L|184:276,1,90,4|0,0:0|0:0,0:0:0:0:
200,124,66011,2,0,L|289:112,1,90,8|0,0:0|0:0,0:0:0:0:
112,100,66344,1,0,0:0:0:0:
176,36,66511,1,0,0:0:0:0:
200,124,66678,1,8,0:0:0:0:
140,244,66844,1,0,0:0:0:0:
12,200,67011,6,0,P|4:112|44:24,1,180,0|8,0:0|0:0,0:0:0:0:
164,16,67511,1,0,0:0:0:0:
255,103,67678,2,0,P|342:98|391:26,1,180,0|8,0:0|0:0,0:0:0:0:
256,12,68178,1,0,0:0:0:0:
152,120,68344,6,0,P|144:164|152:208,1,90
359,264,68678,2,0,P|368:219|359:175,1,90,8|0,0:0|0:0,0:0:0:0:
308,340,69011,1,0,0:0:0:0:
228,296,69177,1,0,0:0:0:0:
280,220,69344,1,8,0:0:0:0:
308,340,69511,1,0,0:0:0:0:
168,168,69678,6,0,P|108:160|68:148,1,90,2|0,0:2|0:0,0:0:0:0:
344,168,70011,2,0,P|404:160|444:148,1,90,2|0,0:2|0:0,0:0:0:0:
184,76,70344,2,0,P|124:68|84:56,1,90,2|0,0:2|0:0,0:0:0:0:
328,76,70678,2,0,P|388:68|428:56,1,90,2|0,0:2|0:0,0:0:0:0:
500,92,71011,5,4,0:0:0:0:
400,248,71178,1,0,0:0:0:0:
384,156,71344,1,8,0:0:0:0:
472,188,71511,1,0,0:0:0:0:
323,301,71678,2,0,P|307:260|311:216,1,90
399,67,72011,2,0,P|390:111|383:156,1,90,8|0,0:0|0:0,0:0:0:0:
113,66,72344,6,0,P|176:125|260:106,1,180,0|8,0:0|0:0,0:0:0:0:
200,36,72844,1,0,0:0:0:0:
20,56,73011,2,0,L|41:234,1,180,0|8,0:0|0:0,0:0:0:0:
221,214,73511,1,0,0:0:0:0:
212,124,73678,6,0,P|148:116|108:104,1,90,2|0,0:2|0:0,0:0:0:0:
300,260,74011,2,0,P|364:268|404:280,1,90,2|0,0:2|0:0,0:0:0:0:
309,60,74344,2,0,P|313:104|323:148,1,90,2|0,0:2|0:0,0:0:0:0:
203,324,74678,1,8,0:0:0:0:
124,276,74844,1,0,0:0:0:0:
144,188,75011,6,0,P|216:180|268:168,1,90
397,70,75344,2,0,P|353:67|308:59,1,90,8|0,0:0|0:0,0:0:0:0:
352,251,75678,2,0,P|420:198|502:226,1,180,0|8,0:0|0:0,0:0:0:0:
448,352,76178,1,0,0:0:0:0:
360,344,76344,6,0,L|160:324,1,180,4|8,0:0|0:0,0:0:0:0:
68,264,76844,1,0,0:0:0:0:
84,140,77011,2,0,L|173:148,1,90
337,219,77344,2,0,P|292:226|256:251,1,90,8|0,0:0|0:0,0:0:0:0:
317,42,77678,6,0,P|364:114|450:114,1,180,0|8,0:0|0:0,0:0:0:0:
408,36,78178,1,0,0:0:0:0:
337,219,78344,1,0,0:0:0:0:
255,312,78511,1,0,0:0:0:0:
212,196,78678,2,0,L|220:84,1,90,8|0,0:0|0:0,0:0:0:0:
28,324,79011,6,0,P|85:291|150:305,1,135
166,321,79344,2,0,L|256:312,1,90,8|0,0:0|0:0,0:0:0:0:
392,352,79678,2,0,P|400:272|428:240,1,90
344,56,80011,2,0,P|336:136|308:168,1,90,8|0,0:0|0:0,0:0:0:0:
256,192,80344,5,0,0:0:0:0:
180,144,80511,1,0,0:0:0:0:
168,56,80678,1,8,0:0:0:0:
256,88,80844,1,0,0:0:0:0:
92,112,81011,6,0,L|0:100,1,90
2,283,81344,2,0,L|92:272,1,90,8|0,0:0|0:0,0:0:0:0:
256,368,81678,6,0,P|308:304|280:208,1,180,4|8,0:0|0:0,0:0:0:0:
196,232,82178,1,0,0:0:0:0:
256,368,82344,2,0,P|340:352|368:356,1,90
432,164,82678,2,0,P|387:161|344:148,1,90,8|0,0:0|0:0,0:0:0:0:
131,8,83011,6,0,P|101:88|153:157,1,180,4|8,0:0|0:0,0:0:0:0:
321,75,83511,1,0,0:0:0:0:
191,75,83678,1,0,0:0:0:0:
256,188,83844,1,0,0:0:0:0:
411,88,84011,2,0,P|405:44|380:7,1,90,8|0,0:0|0:0,0:0:0:0:
356,160,84344,5,2,0:0:0:0:
356,160,84511,1,0,0:0:0:0:
256,288,84678,1,2,0:0:0:0:
256,288,84845,1,0,0:0:0:0:
156,160,85011,1,2,0:0:0:0:
312,56,85178,1,0,0:0:0:0:
200,56,85344,1,0,0:0:0:0:
356,160,85511,1,2,0:0:0:0:
256,288,85844,6,0,L|256:332,2,45,0|0|4,0:0|0:0|0:0,0:0:0:0:
425,220,87011,5,2,0:2:0:0:
284,192,87233,1,2,0:2:0:0:
256,333,87456,1,2,0:2:0:0:
397,361,87677,1,6,0:2:0:0:
256,192,87761,12,0,89011,0:0:0:0:
