osu file format v14

[General]
AudioFilename: T.M.Revolution - RAIMEI (Thunderbolt Fantasy ver.)~1.mp3
AudioLeadIn: 0
PreviewTime: 54844
Countdown: 0
SampleSet: Normal
StackLeniency: 0.3
Mode: 0
LetterboxInBreaks: 0
WidescreenStoryboard: 0

[Editor]
DistanceSpacing: 1.1
BeatDivisor: 2
GridSize: 4
TimelineZoom: 1

[Metadata]
Title:RAIMEI (Thunderbolt Fantasy Tourikenyuuki OP ver.)
TitleUnicode:RAIMEI (Thunderbolt Fantasy 東離劍遊紀 OP ver.)
Artist:T.M.Revolution
ArtistUnicode:T.M.Revolution
Creator:Frey
Version:Easy
Source:Thunderbolt Fantasy 東離劍遊紀
Tags:サンダーボルトファンタジー トウリケンユウキ 西川 貴教 Takanori Nishikawa 霹靂布袋劇 opening Regraz Kibbleru
BeatmapID:1282914
BeatmapSetID:607392

[Difficulty]
HPDrainRate:3
CircleSize:2.5
OverallDifficulty:3
ApproachRate:3
SliderMultiplier:0.799999999999999
SliderTickRate:1

[Events]
//Background and Video events
0,0,"58291453_p1.jpg",0,0
//Break Periods
//Storyboard Layer 0 (Background)
//Storyboard Layer 1 (Fail)
//Storyboard Layer 2 (Pass)
//Storyboard Layer 3 (Foreground)
//Storyboard Sound Samples

[TimingPoints]
345,333.333333333333,4,1,1,70,1,0
55011,-100,4,1,1,70,0,1
84344,-100,4,1,1,70,0,0
89011,-100,4,2,0,20,0,0

[Colours]
Combo1 : 17,254,176
Combo2 : 173,255,95
Combo3 : 255,88,100
Combo4 : 255,94,55

[HitObjects]
160,224,1678,6,0,L|144:96,1,120,4|4,0:2|0:2,0:0:0:0:
256,32,2678,1,4,0:2:0:0:
366,104,3178,2,0,L|352:224,1,120,4|2,0:2|0:2,0:0:0:0:
340,312,4011,1,2,0:2:0:0:
256,344,4344,6,0,P|176:344|136:364,2,120,4|4|4,0:2|0:2|0:2,0:0:0:0:
272,256,5678,1,4,0:0:0:0:
512,168,7011,2,0,B|436:216|344:188|312:100,1,240
280,24,8344,6,0,B|188:32|188:32|152:68|152:68|40:80,1,240,4|8,0:0|0:0,0:0:0:0:
36,164,9678,2,0,P|88:208|184:200,1,160
256,164,10678,1,8,0:0:0:0:
332,116,11011,2,0,P|400:232|356:348,1,240,0|8,0:0|0:0,0:0:0:0:
288,356,12344,2,0,P|230:350|196:344,2,79.9999999999999,2|10|2,0:2|0:2|0:2,0:0:0:0:
276,268,13344,1,8,0:0:0:0:
260,184,13678,6,0,P|168:168|96:304,1,240,4|8,0:0|0:0,0:0:0:0:
4,264,15011,2,0,P|10:222|24:104,1,160,0|0,0:0|0:0,0:0:0:0:
76,36,16011,1,8,0:0:0:0:
164,44,16344,2,0,P|209:51|280:60,2,79.9999999999999,2|10|2,0:2|0:2|0:2,0:0:0:0:
112,116,17344,1,8,0:0:0:0:
160,192,17678,2,0,P|240:192|308:148,1,160,0|0,0:0|0:0,0:0:0:0:
352,76,18678,1,8,0:0:0:0:
440,64,19011,6,0,L|472:256,1,160,4|0,0:0|0:0,0:0:0:0:
480,308,20011,1,8,0:0:0:0:
404,352,20344,2,0,P|332:344|280:252,1,160,0|0,0:0|0:0,0:0:0:0:
284,188,21344,1,8,0:0:0:0:
355,135,21678,2,0,P|249:106|198:205,1,240,0|8,0:0|0:0,0:0:0:0:
192,292,23011,2,0,L|88:304,1,79.9999999999999,0|8,0:0|0:0,0:0:0:0:
24,312,23678,2,0,L|12:208,1,79.9999999999999,0|8,0:0|0:0,0:0:0:0:
4,144,24344,6,0,B|84:128|84:172|172:156,1,160,4|0,0:0|0:0,0:0:0:0:
240,112,25344,1,8,0:0:0:0:
228,22,25678,2,0,P|301:44|327:117,1,160,4|0,0:0|0:0,0:0:0:0:
280,192,26678,1,8,0:0:0:0:
144,336,28344,6,0,P|40:320|0:316,2,120,4|4|4,0:2|0:2|0:2,0:0:0:0:
232,352,29678,6,0,P|296:288|256:156,1,240,4|8,0:0|0:0,0:0:0:0:
172,176,31011,2,0,P|88:188|0:196,1,160,0|0,0:0|0:0,0:0:0:0:
20,108,32011,1,8,0:0:0:0:
68,36,32344,2,0,B|124:100|224:108|288:56,1,240,0|8,0:0|0:0,0:0:0:0:
356,8,33678,2,0,P|436:24|500:32,2,120,4|4|4,0:2|0:2|0:2,0:0:0:0:
364,96,35011,6,0,B|372:176|380:256|392:336,1,240,4|8,0:0|0:0,0:0:0:0:
480,344,36344,2,0,P|516:272|496:192,1,160
448,124,37344,1,8,0:0:0:0:
364,96,37678,2,0,B|240:64|252:160|132:128,1,240,0|8,0:0|0:0,0:0:0:0:
58,84,39011,2,0,P|48:141|76:193,2,120,4|4|4,0:2|0:2|0:2,0:0:0:0:
136,40,40344,6,0,P|192:80|176:180,1,160,4|0,0:2|0:0,0:0:0:0:
148,244,41344,1,8,0:0:0:0:
160,332,41678,2,0,P|280:312|400:308,1,240,0|8,0:0|0:0,0:0:0:0:
472,260,43011,2,0,P|508:192|488:112,1,160,0|0,0:0|0:0,0:0:0:0:
404,128,44011,1,8,0:0:0:0:
324,92,44344,2,0,P|288:160|308:240,1,160,0|0,0:0|0:0,0:0:0:0:
392,216,45344,1,8,0:0:0:0:
404,127,45678,6,0,P|401:50|339:4,1,160,4|0,0:2|0:0,0:0:0:0:
256,36,46678,1,8,0:0:0:0:
172,4,47011,2,0,P|124:32|180:184,1,240,0|8,0:0|0:0,0:0:0:0:
196,264,48344,6,0,P|255:273|313:285,1,120,4|4,0:2|0:2,0:0:0:0:
408,192,49344,1,4,0:2:0:0:
313,98,49844,2,0,P|255:110|196:120,1,120,4|2,0:2|0:2,0:0:0:0:
108,132,50678,1,2,0:2:0:0:
34,79,51011,6,0,P|81:43|139:47,2,120,4|4|4,0:2|0:2|0:2,0:0:0:0:
24,168,52344,1,4,0:0:0:0:
216,344,53678,2,0,P|320:364|416:276,1,240,0|0,0:0|0:0,0:0:0:0:
432,192,55011,6,0,B|352:184|352:184|284:144|284:144|196:136,1,240,4|8,0:0|0:0,0:0:0:0:
146,202,56344,2,0,P|119:130|155:61,1,160,0|0,0:0|0:0,0:0:0:0:
244,44,57344,1,8,0:0:0:0:
332,28,57678,2,0,P|352:104|320:272,1,240,0|8,0:0|0:0,0:0:0:0:
280,336,59011,2,0,P|212:316|180:312,2,79.9999999999999,2|2|2,0:2|0:2|0:2,0:0:0:0:
360,372,60011,1,8,0:0:0:0:
448,356,60344,6,0,P|504:276|424:168,1,240,4|8,0:0|0:0,0:0:0:0:
344,184,61678,2,0,P|240:200|168:208,1,160,0|0,0:0|0:0,0:0:0:0:
124,268,62678,1,8,0:0:0:0:
36,252,63011,2,0,P|48:180|64:140,2,79.9999999999999,2|2|2,0:2|0:2|0:2,0:0:0:0:
68,336,64011,1,8,0:0:0:0:
156,352,64344,2,0,B|228:360|232:312|312:320,1,160,0|0,0:0|0:0,0:0:0:0:
396,340,65344,1,8,0:0:0:0:
372,256,65678,6,0,P|312:192|384:80,1,240,4|8,0:0|0:0,0:0:0:0:
472,72,67011,2,0,L|480:236,1,160,0|0,0:0|0:0,0:0:0:0:
440,312,68011,1,8,0:0:0:0:
360,344,68344,2,0,P|248:324|120:332,1,240,0|8,0:0|0:0,0:0:0:0:
80,256,69678,2,0,P|24:244|-8:232,2,79.9999999999999,2|2|2,0:2|0:2|0:2,0:0:0:0:
148,200,70678,1,2,0:2:0:0:
92,132,71011,6,0,B|212:76|200:196|324:136,1,240,4|8,0:0|0:0,0:0:0:0:
396,96,72344,2,0,P|410:175|412:256,1,160,0|0,0:0|0:0,0:0:0:0:
332,292,73344,1,8,0:0:0:0:
248,272,73678,2,0,P|184:260|148:256,2,79.9999999999999,2|2|2,0:2|0:2|0:2,0:0:0:0:
308,208,74678,1,8,0:0:0:0:
324,120,75011,2,0,P|224:72|116:152,1,240,0|8,0:0|0:0,0:0:0:0:
88,216,76344,6,0,P|92:280|104:384,1,160,4|0,0:0|0:0,0:0:0:0:
192,368,77344,1,8,0:0:0:0:
256,304,77678,2,0,P|268:228|240:152,1,160,0|0,0:0|0:0,0:0:0:0:
188,80,78678,1,8,0:0:0:0:
104,52,79011,2,0,P|44:148|136:256,1,240,0|8,0:0|0:0,0:0:0:0:
184,280,80344,2,0,P|240:272|296:268,1,79.9999999999999,0|8,0:0|0:0,0:0:0:0:
308,192,81011,2,0,P|364:200|420:204,1,79.9999999999999,0|8,0:0|0:0,0:0:0:0:
436,275,81678,6,0,P|475:209|446:138,1,160,4|0,0:0|0:0,0:0:0:0:
376,80,82678,1,8,0:0:0:0:
288,96,83011,2,0,P|209:108|112:120,1,160,4|0,0:0|0:0,0:0:0:0:
52,72,84011,1,8,0:0:0:0:
460,312,86011,5,4,0:0:0:0:
256,192,87011,12,0,89011,0:0:0:0:
