osu file format v5

[General]
AudioFilename: T.M.Revolution - Ignited (TV Size).mp3
AudioLeadIn: 1000
PreviewTime: -1
Countdown: 0
SampleSet: Normal
StackLeniency: 0.7
Mode: 0
LetterboxInBreaks: 1
EditorDistanceSpacing: 1.29999995231628

[Metadata]
Title:Ignited (TV Size)
Artist:T.M.Revolution
Creator:quintitem
Version:Normal
Source:
Tags:

[Difficulty]
HPDrainRate:5
CircleSize:4
OverallDifficulty:5
SliderMultiplier:1
SliderTickRate:1

[Events]
//Background and Video events
Video,950,"T.M.Revolution - Ignited (TV Size)-0.avi"
0,0,"Shinn_Asuka.jpg"
//Break Periods
2,7601,13362
//Storyboard Layer 0 (Background)
//Storyboard Layer 1 (Fail)
//Storyboard Layer 2 (Pass)
//Storyboard Layer 3 (Foreground)
//Storyboard Sound Samples
//Background Colour Transformations
3,100,163,162,255

[TimingPoints]
240,387.096774193548,4,1,0,50,1,0
1014,-200,4,2,0,60,0,0
2175,-100,4,1,0,80,0,0
14175,-100,4,1,0,50,0,0
26369,-100,4,1,0,55,0,0
26756,-100,4,1,0,50,0,0
29078,-100,4,1,0,55,0,0
29852,-100,4,1,0,50,0,0
32562,-100,4,1,0,55,0,0
32949,-100,4,1,0,50,0,0
38756,-100,4,1,0,55,0,0
39143,-100,4,1,0,50,0,0
53078,-100,4,1,0,40,0,0
54433,-100,4,1,0,60,0,0
57336,-100,4,1,0,65,0,0
57627,-100,4,1,0,60,0,0
60627,-100,4,1,0,65,0,0
60820,-100,4,1,0,60,0,0
66723,-100,4,1,0,65,0,0
67014,-100,4,1,0,60,0,0
69723,-100,4,1,0,65,0,0
70014,-100,4,1,0,60,0,0
72433,-100,4,1,0,65,0,0
73207,-100,4,1,0,60,0,0
82594,-100,4,1,0,70,0,0

[Colours]
Combo1 : 255,128,255
Combo2 : 220,51,22
Combo3 : 5,5,240
Combo4 : 240,5,5

[HitObjects]
40,40,1401,2,0,B|152:40,1,100
480,32,3723,1,0
256,360,5272,1,0
256,32,6820,2,0,B|256:120,2,75,0|0|4
40,40,14562,6,0,B|104:40,5,50
216,40,15917,1,0
344,40,16304,1,0
344,40,16498,1,4
472,344,17659,6,0,B|408:344,5,50
296,344,19014,1,0
168,344,19401,1,0
168,344,19595,1,4
424,48,20756,5,0
424,176,21143,1,0
424,176,21336,1,0
424,304,21723,2,0,B|376:328|320:299,1,100
264,304,22304,5,0
136,304,22691,1,0
136,304,22885,1,0
136,184,23272,2,0,B|88:160|32:189,1,100
40,184,23852,5,0
64,56,24239,1,0
64,56,24433,1,0
192,56,24820,1,0
320,56,25207,1,0
448,56,25594,1,0
448,184,25981,1,0
448,184,26175,1,0
320,184,26562,1,4
192,184,26949,6,0,B|120:184,1,50
80,184,27336,2,0,B|80:256,1,50
80,296,27723,2,0,B|144:296,1,50
256,296,28304,1,0
384,296,28691,2,0,B|384:232,1,50
384,112,29272,1,0
256,112,29659,1,4
144,176,30046,6,0,B|72:176,1,50
32,176,30433,2,0,B|32:104,1,50
32,64,30820,2,0,B|96:64,1,50
208,64,31401,1,0
336,64,31788,2,0,B|400:64,1,50
392,192,32369,1,0
392,320,32756,1,4
264,320,33143,6,0,B|216:344|160:315,1,100
112,280,33723,2,0,B|88:232|117:176,1,100
272,72,34691,6,0,B|320:48|376:77,1,100
408,128,35271,2,0,B|432:176|403:232,1,100
256,352,36239,5,0
144,280,36627,1,0
144,280,36820,1,0
48,192,37207,1,0
144,104,37594,1,0
256,40,37981,1,0
360,120,38369,2,0,B|400:176,1,50
264,200,38949,1,4
144,192,39336,6,0,B|104:264|152:336,2,150
272,192,40885,2,0,B|312:120|264:48,1,150
72,64,42046,1,0
72,64,42239,1,0
72,64,42433,1,0
72,192,42820,1,0
72,320,43207,1,0
200,320,43594,1,0
328,320,43981,2,0,B|368:352|408:304,2,75,0|0|4
328,192,44949,5,0
328,192,45143,1,0
328,192,45336,1,0
328,192,45530,2,0,B|368:120|320:48,2,150
248,296,47079,2,0,B|176:336|104:288,1,150
48,104,48239,5,0
48,104,48433,1,0
48,104,48627,2,0,B|8:176|56:248,2,150
160,48,50175,2,0,B|232:8|304:56,2,150
256,192,51530,12,0,52885
208,152,53272,5,2
304,152,53562,1,2
256,240,53852,1,2
40,32,54820,5,0
40,32,55014,1,0
40,32,55207,2,0,B|24:96|48:152,1,100
40,192,55788,1,0
40,192,55981,2,0,B|96:192,1,50
216,192,56562,1,0
216,192,56756,1,0
216,192,56949,1,0
216,192,57143,1,0
288,296,57530,1,4
352,296,57723,5,0
416,296,57917,2,0,B|416:224,1,50
416,184,58304,1,0
352,184,58498,2,0,B|288:184,1,50
304,56,59078,1,0
304,56,59272,1,0
176,48,59659,1,0
176,48,59852,2,0,B|104:128|176:240,1,200,0|4
96,336,61014,5,0
96,336,61207,2,0,B|168:336,1,50
272,336,61788,1,0
272,336,61981,1,0
336,336,62175,1,0
336,336,62369,1,0
464,336,62756,2,0,B|464:264,1,50
432,224,63143,2,0,B|360:224,1,50
256,192,63723,5,0
256,192,64110,2,0,B|216:120|264:48,2,150
256,192,65465,12,4,66820
352,112,67207,5,0
352,112,67401,1,0
352,112,67594,2,0,B|328:160|357:216,1,100,0|0
416,208,68175,1,0
416,208,68369,1,0
416,208,68562,2,0,B|440:256|411:312,1,100,0|0
352,304,69143,1,0
352,304,69336,1,0
352,304,69530,1,0
224,272,69917,1,4
160,272,70110,5,0
160,272,70304,1,0
160,208,70498,1,0
160,208,70691,1,0
96,208,70885,1,0
96,208,71078,1,0
96,80,71465,2,0,B|160:80,1,50
272,88,72046,2,0,B|272:152,1,50
272,264,72627,2,0,B|344:264,2,50,0|0|4
144,264,73401,5,0
144,264,73594,1,0
144,264,73788,1,0
40,184,74175,2,0,B|40:112,3,50
144,56,75143,1,0
144,56,75336,1,0
144,56,75530,1,0
144,56,75723,1,0
272,56,76110,5,0
400,56,76498,2,0,B|440:128|392:200,2,150
272,56,78046,2,0,B|248:104|280:160,3,100
256,192,79401,12,4,82691
