osu file format v5

[General]
AudioFilename: T.M.Revolution - Ignited (TV Size).mp3
AudioLeadIn: 1000
PreviewTime: -1
Countdown: 0
SampleSet: Soft
StackLeniency: 0.8
Mode: 0
LetterboxInBreaks: 1
EditorDistanceSpacing: 0.800000011920929

[Metadata]
Title:Ignited (TV Size)
Artist:T.M.Revolution
Creator:quintitem
Version:Hard
Source:
Tags:

[Difficulty]
HPDrainRate:7
CircleSize:5
OverallDifficulty:7
SliderMultiplier:1.4
SliderTickRate:1

[Events]
//Background and Video events
0,0,"Shinn_Asuka.jpg"
Video,950,"T.M.Revolution - Ignited (TV Size)-0.avi"
//Break Periods
2,7601,13662
//Storyboard Layer 0 (Background)
//Storyboard Layer 1 (Fail)
//Storyboard Layer 2 (Pass)
//Storyboard Layer 3 (Foreground)
//Storyboard Sound Samples
//Background Colour Transformations
3,100,163,162,255

[TimingPoints]
240,387.096774193548,4,1,0,70,1,0
1014,-200,4,2,0,60,0,0
2175,-100,4,1,0,80,0,0
2272,-100,4,2,0,60,0,0
3627,-100,4,1,0,80,0,0
3820,-100,4,2,0,60,0,0
5175,-100,4,1,0,80,0,0
5369,-100,4,2,0,60,0,0
6723,-100,4,1,0,80,0,0
14175,-100,4,1,0,50,0,0
16691,-100,4,1,0,55,0,0
17465,-100,4,1,0,50,0,0
19788,-100,4,1,0,55,0,0
20562,-100,4,1,0,50,0,0
26369,-100,4,1,0,55,0,0
26756,-100,4,1,0,50,0,0
29078,-100,4,1,0,55,0,0
29852,-100,4,1,0,50,0,0
32175,-100,4,1,0,55,0,0
32949,-100,4,1,0,50,0,0
38756,-100,4,1,0,55,0,0
39240,-100,4,1,0,50,0,0
44756,-100,4,1,0,55,0,0
44852,-100,4,1,0,50,0,0
51433,-100,4,1,0,60,0,0
52304,-100,4,1,0,55,0,0
52643,-100,4,1,0,50,0,0
52933,-100,4,1,0,45,0,0
53175,-100,4,1,0,40,0,0
54046,-100,4,2,0,60,0,0
54820,-100,4,1,0,60,0,0
55304,-100,4,1,0,45,0,0
55594,-100,4,1,0,60,0,0
60046,-100,4,1,0,65,0,0
60820,-100,4,1,0,60,0,0
61498,-100,4,1,0,45,0,0
61788,-100,4,1,0,60,0,0
67691,-100,4,1,0,45,0,0
67981,-100,4,1,0,60,0,0
72433,-100,4,1,0,65,0,0
73207,-100,4,1,0,60,0,0
73885,-100,4,1,0,45,0,0
74175,-100,4,1,0,60,0,0
80949,-100,4,1,0,55,0,0
81820,-100,4,1,0,50,0,0

[Colours]
Combo1 : 255,128,255
Combo2 : 220,51,22
Combo3 : 5,5,240
Combo4 : 240,5,5

[HitObjects]
328,40,1401,2,0,B|176:40,1,140,0|0
128,40,2369,1,0
128,40,2562,2,0,B|88:40,2,35,2|0|0
128,96,2949,1,2
72,96,3143,1,0
72,152,3336,1,2
72,208,3530,1,0
128,208,3723,5,0
184,208,3917,1,0
184,208,4110,1,2
184,208,4207,1,0
184,208,4304,1,0
184,264,4498,1,2
240,264,4691,1,0
296,264,4885,1,2
352,264,5078,1,0
352,208,5272,5,0
408,208,5465,1,0
408,208,5659,1,2
408,208,5756,1,0
408,208,5852,1,0
408,152,6046,2,0,B|408:72,1,70,2|0
352,80,6433,2,0,B|264:80,1,70,2|0
224,80,6820,5,0
56,192,7110,1,0
224,304,7401,1,4
32,40,14562,5,0
32,96,14756,1,0
32,152,14949,1,0
72,192,15143,1,0
128,192,15336,1,0
184,192,15530,2,0,B|248:240,1,70
240,288,15917,1,0
280,328,16110,1,0
320,288,16304,1,0
360,328,16498,1,0
472,328,16885,1,0
472,272,17078,1,0
472,216,17272,1,4
472,104,17659,5,0
424,72,17853,1,0
368,72,18046,1,0
312,72,18240,1,0
256,72,18433,1,0
200,72,18627,2,0,B|136:120,1,70
88,120,19014,2,0,B|88:208,1,70
88,248,19401,1,0
88,304,19595,1,0
192,304,19982,1,0
248,304,20175,1,0
304,304,20369,1,4
416,304,20756,5,0
416,192,21143,1,0
416,192,21336,2,0,B|464:128|400:40,1,140
413,61,21917,1,0
413,61,22014,1,0
413,61,22110,1,0
352,64,22304,1,0
240,64,22691,1,0
240,64,22885,2,0,B|176:16|88:80,1,140,0|0
109,66,23465,1,0
109,66,23562,1,0
109,66,23659,1,4
72,112,23852,6,0,B|24:176|88:264,1,140
120,280,24433,2,0,B|184:328|272:264,1,140
360,272,25207,1,0
456,328,25594,1,0
456,216,25981,1,0
456,160,26175,1,0
480,48,26562,1,4
480,48,26949,5,0
480,48,27143,2,0,B|392:48,1,70
352,48,27530,2,0,B|280:48,1,70
224,48,27917,2,0,B|136:48,1,70
96,48,28304,2,0,B|8:48,1,70
24,104,28691,1,0
24,160,28885,1,0
136,160,29272,1,0
136,160,29465,2,0,B|136:208,2,35,0|0|4
136,272,30046,5,0
136,272,30239,2,0,B|208:272,1,70
264,272,30627,2,0,B|360:272,1,70
392,272,31014,2,0,B|392:344,1,70
448,344,31401,2,0,B|448:272,1,70
448,216,31788,1,0
448,160,31981,1,0
448,48,32369,1,0
448,48,32562,2,0,B|496:48,2,35,0|0|4
336,48,33143,5,0
224,48,33530,1,0
224,48,33723,1,0
112,48,34110,1,0
112,48,34304,1,0
112,48,34401,1,0
112,48,34498,1,0
56,48,34691,1,0
56,104,34885,1,0
56,160,35078,1,0
56,216,35272,2,0,B|120:264|208:200,1,140
186,213,35852,1,0
186,213,35949,1,0
186,213,36046,1,4
248,216,36239,6,0,B|248:136,2,70
248,216,36820,2,0,B|248:296,2,70
360,216,37594,1,0
472,216,37981,1,0
360,216,38369,1,0
416,216,38562,1,0
416,104,38949,1,0
416,104,39046,1,0
416,104,39143,1,4
360,104,39336,6,0,B|248:64|128:112,2,210
360,160,40691,1,0
360,216,40885,2,0,B|248:256|128:208,1,210
40,224,41852,1,0
40,280,42046,5,0
96,280,42239,1,0
96,336,42433,1,0
152,336,42627,1,0
208,336,42820,2,0,B|272:384|360:320,1,140
336,280,43401,1,0
336,224,43594,2,0,B|272:176|184:240,1,140,0|0
205,226,44078,1,0
144,224,44272,1,0
144,224,44369,1,0
104,176,44562,2,0,B|72:208,2,35,0|0|4
72,128,44949,5,0
96,80,45143,1,0
152,80,45336,1,0
208,80,45530,2,0,B|320:40|440:96,2,210
208,192,47078,1,0
152,192,47272,1,0
96,192,47465,1,0
40,192,47659,1,4
40,360,48239,5,0
40,304,48433,1,0
40,304,48627,2,0,B|152:344|272:288,2,210
40,248,49981,1,0
40,192,50175,2,0,B|152:152|272:208,2,210
40,80,51723,5,4
472,80,52110,1,0
224,352,52498,5,0
160,192,52788,1,0
224,32,53078,1,0
288,32,53272,5,2
352,192,53562,1,2
288,352,53852,1,2
256,192,54239,5,0
256,192,54336,1,0
256,192,54433,1,0
256,192,54530,1,0
256,192,54627,2,0,B|256:104,1,70
312,104,55014,2,0,B|392:104,1,70
384,104,55401,2,0,B|416:72,2,35
384,160,55788,1,0
384,216,55981,1,0
384,272,56175,1,0
272,272,56562,1,0
272,272,56756,1,0
216,272,56949,1,0
216,272,57143,1,0
104,272,57530,1,4
104,272,57723,6,0,B|104:192,1,70
48,200,58110,2,0,B|48:128,1,70
104,136,58498,2,0,B|104:64,1,70
216,64,59078,1,0
272,64,59272,1,0
272,120,59465,1,0
272,176,59659,1,0
328,176,59852,1,0
328,288,60239,1,0
328,288,60433,1,0
328,288,60530,1,0
328,288,60627,1,4
440,288,61014,5,0
440,232,61207,1,0
440,176,61401,1,0
440,176,61594,2,0,B|400:176,2,35,0|0|0
440,120,61981,1,0
440,64,62175,2,0,B|360:64,1,70
256,64,62756,2,0,B|168:64,1,70
128,64,63143,2,0,B|128:144,1,70
128,248,63723,5,0
128,248,64110,2,0,B|240:288|360:232,2,210
128,248,65659,1,0
256,192,65756,12,4,66433
32,192,67207,5,0
32,192,67401,2,0,B|80:248,1,70
77,245,67788,1,0
77,245,67885,1,0
77,245,67981,1,0
136,248,68175,2,0,B|184:184,1,70
232,192,68562,1,0
344,192,68949,2,0,B|392:256,1,70
440,240,69336,2,0,B|488:184,1,70
480,72,69917,1,4
480,72,70110,6,0,B|400:72,1,70
352,72,70498,1,0
352,128,70691,1,0
296,128,70885,1,0
296,184,71078,1,0
184,184,71465,2,0,B|104:184,1,70
112,240,71852,1,0
112,296,72046,2,0,B|184:296,1,70
296,296,72627,1,0
296,296,72820,1,0
296,296,72917,1,0
296,296,73014,1,4
408,296,73401,5,0
408,296,73594,1,0
408,296,73788,1,0
408,296,73981,2,0,B|408:336,2,35
464,296,74369,2,0,B|464:216,1,70
464,226,74756,1,0
464,112,75143,1,0
408,112,75336,1,0
464,112,75530,1,0
408,112,75723,1,0
296,88,76110,5,0
184,88,76498,2,0,B|144:200|200:320,2,210
296,88,78046,2,0,B|360:40|448:104,2,140
296,200,79207,1,0
296,312,79594,2,0,B|360:360|448:296,2,140
184,312,80756,1,0
119,220,81143,5,0
174,220,81336,1,0
174,164,81530,1,0
228,164,81723,1,0
256,192,81917,5,0
256,192,82014,1,0
256,192,82110,1,0
256,192,82207,1,0
256,192,82304,1,0
256,192,82401,1,0
256,192,82498,1,0
256,192,82594,1,0
256,192,82691,1,4
