osu file format v9

[General]
AudioFilename: 01 - HEART OF SWORD.mp3
AudioLeadIn: 0
PreviewTime: 168205
Countdown: 0
SampleSet: Normal
StackLeniency: 0.3
Mode: 0
LetterboxInBreaks: 1

[Editor]
DistanceSpacing: 1
BeatDivisor: 4
GridSize: 8

[Metadata]
Title:HEART OF SWORD ~yoakemae~
Artist:T.M.Revolution
Creator:kaouji
Version:Hard
Source:Rurouni.Kenshin ED3.Single
Tags:T.M.Revolution Ruroun Kenshin kaouji

[Difficulty]
HPDrainRate:4
CircleSize:4
OverallDifficulty:5
ApproachRate:6
SliderMultiplier:1.5
SliderTickRate:0.5

[Events]
//Background and Video events
0,0,"BG.jpg"
//Break Periods
2,32792,39549
2,136879,147639
2,168906,175663
//Storyboard Layer 0 (Background)
//Storyboard Layer 1 (Fail)
//Storyboard Layer 2 (Pass)
//Storyboard Layer 3 (Foreground)
//Storyboard Sound Samples
//Background Colour Transformations
3,100,163,162,255

[TimingPoints]
16579.5725687304,500.417014178482,4,1,1,70,1,0
16954,-100,4,1,1,60,0,0
17205,-100,4,1,1,70,0,0
17517,-100,4,1,1,70,0,0
17768,-100,4,1,1,70,0,0
17893,-100,4,1,1,45,0,0
18018,-100,4,1,1,70,0,0
18518,-100,4,1,1,75,0,0
18768,-100,4,1,1,80,0,0
19019,-100,4,1,1,75,0,0
19269,-100,4,1,1,70,0,0
19394,-100,4,1,1,45,0,0
19519,-100,4,1,1,65,0,0
20270,-100,4,1,1,65,0,0
20520,-100,4,1,1,60,0,0
20645,-100,4,1,1,65,0,0
20770,-100,4,1,1,70,0,0
21020,-100,4,1,1,75,0,0
21145,-100,4,1,1,50,0,0
21270,-100,4,1,1,70,0,0
21521,-100,4,1,1,65,0,0
22021,-100,4,1,1,60,0,0
22522,-100,4,1,1,65,0,0
23272,-100,4,1,1,70,0,0
24023,-100,4,1,1,75,0,0
24523,-100,4,1,1,70,0,0
25024,-100,4,1,1,75,0,0
25399,-100,4,1,1,45,0,0
25524,-100,4,1,1,70,0,0
25649,-100,4,1,1,70,0,0
26024,-100,4,1,1,65,0,0
26400,-100,4,1,1,45,0,0
26525,-100,4,1,1,70,0,0
26775,-100,4,1,1,75,0,0
27275,-100,4,1,1,70,0,0
27401,-100,4,1,1,45,0,0
27526,-100,4,1,1,65,0,0
27526,-100,4,1,1,70,0,0
28026,-100,4,1,1,70,0,0
28839,-100,4,1,1,70,0,0
29027,-100,4,1,1,65,0,0
29152,-100,4,1,1,75,0,0
29778,-100,4,1,1,65,0,0
30278,-100,4,1,1,70,0,0
30403,-100,4,1,1,75,0,0
30528,-100,4,1,1,70,0,0
31216,-100,4,1,1,50,0,0
31341,-100,4,1,1,70,0,0
32530,-100,4,1,1,75,0,0
32655,-100,4,1,1,70,0,0
40537,-100,4,1,1,75,0,0
41100,-100,4,1,1,65,0,0
41600,-100,4,1,1,65,0,0
41788,-100,4,1,1,60,0,0
42100,-100,4,1,1,65,0,0
42351,-100,4,1,1,60,0,0
42914,-100,4,1,1,65,0,0
43039,-100,4,1,1,60,0,0
43414,-100,4,1,1,65,0,0
43539,-100,4,1,1,60,0,0
44039,-100,4,1,1,65,0,0
44540,-100,4,1,1,75,0,0
44790,-100,4,1,1,70,0,0
45165,-100,4,1,1,65,0,0
45290,-100,4,1,1,70,0,0
45541,-100,4,1,1,60,0,0
45916,-100,4,1,1,65,0,0
46041,-100,4,1,1,60,0,0
46667,-100,4,1,1,55,0,0
46792,-100,4,1,1,60,0,0
46917,-100,4,1,1,60,0,0
47167,-100,4,1,1,50,0,0
47292,-100,4,1,1,70,0,0
47542,-100,4,1,1,65,0,0
47793,-100,4,1,1,60,0,0
47980,-100,4,1,1,75,0,0
48168,-100,4,1,1,70,0,0
48481,-100,4,1,1,65,0,0
49481,-100,4,1,1,60,0,0
50545,-100,4,1,1,55,0,0
51045,-100,4,1,1,60,0,0
51421,-100,4,1,1,65,0,0
51546,-100,4,1,1,60,0,0
51796,-100,4,1,1,70,0,0
51921,-100,4,1,1,65,0,0
52296,-100,4,1,1,75,0,0
52421,-100,4,1,1,70,0,0
52797,-100,4,1,1,65,0,0
52922,-100,4,1,1,65,0,0
53172,-100,4,1,1,70,0,0
53297,-100,4,1,1,65,0,0
53547,-100,4,1,1,60,0,0
53798,-100,4,1,1,55,0,0
53923,-100,4,1,1,60,0,0
54298,-100,4,1,1,65,0,0
54423,-100,4,1,1,60,0,0
54798,-100,4,1,1,65,0,0
54924,-100,4,1,1,70,0,0
55299,-100,4,1,1,75,0,0
55799,-100,4,1,1,70,0,0
56300,-100,4,1,1,50,0,0
56550,-100,4,1,1,70,0,0
56988,-100,4,1,1,70,0,0
57551,-100,4,1,1,60,0,0
58051,-100,4,1,1,75,0,0
58301,-100,4,1,1,70,0,0
58614,-100,4,1,1,70,0,0
59302,-100,4,1,1,60,0,0
59490,-100,4,1,1,65,0,0
60178,-100,4,1,1,45,0,0
60303,-100,4,1,1,65,0,0
60553,-100,4,1,1,70,0,0
61054,-100,4,1,1,70,0,0
62054,-100,4,1,1,75,0,0
62555,-100,4,1,1,60,0,0
63055,-100,4,1,1,55,0,0
63306,-100,4,1,1,75,0,0
63806,-100,4,1,1,70,0,0
64431,-100,4,1,1,65,0,0
64557,-100,4,1,1,70,0,0
65557,-100,4,1,1,60,0,0
66058,-100,4,1,1,65,0,0
66308,-100,4,1,1,65,0,0
66558,-100,4,1,1,60,0,0
66808,-100,4,1,1,55,0,0
67059,-100,4,1,1,65,0,0
67309,-100,4,1,1,70,0,0
67559,-100,4,1,1,65,0,0
67809,-100,4,1,1,75,0,0
68059,-100,4,1,1,65,0,0
68310,-100,4,1,1,75,0,0
68560,-100,4,1,1,65,0,0
68810,-100,4,1,1,75,0,0
69060,-100,4,1,1,65,0,0
69436,-100,4,1,1,55,0,0
69561,-100,4,1,1,65,0,0
69811,-100,4,1,1,70,0,0
70061,-100,4,1,1,60,0,0
70562,-100,4,1,1,70,0,0
70687,-100,4,1,1,60,0,0
71062,-100,4,1,1,70,0,0
71312,-100,4,1,1,60,0,0
71562,-100,4,1,1,70,0,0
72063,-100,4,1,1,75,0,0
73064,-100,4,1,1,80,0,0
73314,-100,4,1,1,70,0,0
73689,-100,4,1,1,45,0,0
73814,-100,4,1,1,70,0,0
74815,-100,4,1,1,80,0,0
75316,-100,4,1,1,70,0,0
75441,-100,4,1,1,60,0,0
76316,-100,4,1,1,70,0,0
76567,-100,4,1,1,80,0,0
77192,-100,4,1,1,85,0,0
77317,-100,4,1,1,75,0,0
77818,-100,4,1,1,70,0,0
78068,-100,4,1,1,75,0,0
78318,-100,4,1,1,70,0,0
78568,-100,4,1,1,75,0,0
78818,-100,4,1,1,65,0,0
79069,-100,4,1,1,75,0,0
79569,-100,4,1,1,80,0,0
80069,-100,4,1,1,70,0,0
80195,-100,4,1,1,60,0,0
80320,-100,4,1,1,70,0,0
80945,-100,4,1,1,60,0,0
81070,-100,4,1,1,70,0,0
81571,-100,4,1,1,80,0,0
81696,-100,4,1,1,70,0,0
82572,-100,4,1,1,65,0,0
83072,-100,4,1,1,60,0,0
84073,-100,4,1,1,70,0,0
85074,-100,4,1,1,80,0,0
85824,-100,4,1,1,75,0,0
86575,-100,4,1,1,70,0,0
86700,-100,4,1,1,65,0,0
86825,-100,4,1,1,70,0,0
88076,-100,4,1,1,80,0,0
88326,-100,4,1,1,55,0,0
88577,-100,4,1,1,75,0,0
88702,-100,4,1,1,70,0,0
89452,-100,4,1,1,60,0,0
89577,-100,4,1,1,70,0,0
90078,-100,4,1,1,65,0,0
90703,-100,4,1,1,60,0,0
90828,-100,4,1,1,70,0,0
91079,-100,4,1,1,65,0,0
92330,-100,4,1,1,75,0,0
92580,-100,4,1,1,80,0,0
93080,-100,4,1,1,75,0,0
93581,-100,4,1,1,70,0,0
94456,-100,4,1,1,45,0,0
94582,-100,4,1,1,75,0,0
94832,-100,4,1,1,70,0,0
95332,-100,4,1,1,75,0,0
95708,-100,4,1,1,65,0,0
96083,-100,4,1,1,70,0,0
96833,-100,4,1,1,65,0,0
98585,-100,4,1,1,75,0,0
99085,-100,4,1,1,70,0,0
99836,-100,4,1,1,75,0,0
100211,-100,4,1,1,70,0,0
100587,-100,4,1,1,75,0,0
100837,-100,4,1,1,70,0,0
101337,-100,4,1,1,65,0,0
102088,-100,4,1,1,70,0,0
102338,-100,4,1,1,60,0,0
102713,-100,4,1,1,75,0,0
102964,-100,4,1,1,60,0,0
103089,-100,4,1,1,75,0,0
103589,-100,4,1,1,70,0,0
104340,-100,4,1,1,45,0,0
104590,-100,4,1,1,80,0,0
105028,-100,4,1,1,70,0,0
105591,-100,4,1,1,60,0,0
106091,-100,4,1,1,70,0,0
106592,-100,4,1,1,75,0,0
107092,-100,4,1,1,60,0,0
107592,-100,4,1,1,70,0,0
107843,-100,4,1,1,65,0,0
108093,-100,4,1,1,70,0,0
108593,-100,4,1,1,65,0,0
109094,-100,4,1,1,70,0,0
109594,-100,4,1,1,60,0,0
110095,-100,4,1,1,65,0,0
110595,-100,4,1,1,70,0,0
111095,-100,4,1,1,60,0,0
111346,-100,4,1,1,75,0,0
111846,-100,4,1,1,70,0,0
112346,-100,4,1,1,65,0,0
113097,-100,4,1,1,70,0,0
113347,-100,4,1,1,60,0,0
113597,-100,4,1,1,65,0,0
114035,-100,4,1,1,70,0,0
114348,-100,4,1,1,65,0,0
114598,-100,4,1,1,70,0,0
115036,-100,4,1,1,70,0,0
115349,-100,4,1,1,60,0,0
115599,-100,4,1,1,70,0,0
116100,-100,4,1,1,65,0,0
116600,-100,4,1,1,75,0,0
116850,-100,4,1,1,60,0,0
117100,-100,4,1,1,75,0,0
117351,-100,4,1,1,60,0,0
117601,-100,4,1,1,75,0,0
117851,-100,4,1,1,60,0,0
118101,-100,4,1,1,75,0,0
118351,-100,4,1,1,60,0,0
118602,-100,4,1,1,75,0,0
118852,-100,4,1,1,60,0,0
119102,-100,4,1,1,75,0,0
119352,-100,4,1,1,60,0,0
119602,-100,4,1,1,75,0,0
119853,-100,4,1,1,60,0,0
120103,-100,4,1,1,75,0,0
120353,-100,4,1,1,60,0,0
120603,-100,4,1,1,75,0,0
120853,-100,4,1,1,65,0,0
121104,-100,4,1,1,75,0,0
121354,-100,4,1,1,70,0,0
121604,-100,4,1,1,65,0,0
121979,-100,4,1,1,60,0,0
122105,-100,4,1,1,65,0,0
122605,-100,4,1,1,70,0,0
122855,-100,4,1,1,75,0,0
123105,-100,4,1,1,70,0,0
123356,-100,4,1,1,60,0,0
123481,-100,4,1,1,55,0,0
123606,-100,4,1,1,55,0,0
124106,-100,4,1,1,60,0,0
124607,-100,4,1,1,65,0,0
124857,-100,4,1,1,70,0,0
125107,-100,4,1,1,75,0,0
125232,-100,4,1,1,50,0,0
125357,-100,4,1,1,70,0,0
125858,-100,4,1,1,60,0,0
126108,-100,4,1,1,75,0,0
126483,-100,4,1,1,65,0,0
126608,-100,4,1,1,70,0,0
127109,-100,4,1,1,65,0,0
127359,-100,4,1,1,70,0,0
127984,-100,4,1,1,60,0,0
128110,-100,4,1,1,70,0,0
128235,-100,4,1,1,50,0,0
128360,-100,4,1,1,70,0,0
128610,-100,4,1,1,75,0,0
129110,-100,4,1,1,80,0,0
129611,-100,4,1,1,75,0,0
129986,-100,4,1,1,65,0,0
130486,-100,4,1,1,50,0,0
130612,-100,4,1,1,70,0,0
130862,-100,4,1,1,75,0,0
131112,-100,4,1,1,65,0,0
131487,-100,4,1,1,60,0,0
131800,-100,4,1,1,55,0,0
132363,-100,4,1,1,60,0,0
132738,-100,4,1,1,65,0,0
133114,-100,4,1,1,75,0,0
133614,-100,4,1,1,70,0,0
134115,-100,4,1,1,65,0,0
134365,-100,4,1,1,60,0,0
135366,-100,4,1,1,55,0,0
135616,-100,4,1,1,65,0,0
135866,-100,4,1,1,55,0,0
136116,-100,4,1,1,70,0,0
136241,-100,4,1,1,65,0,0
136366,-100,4,1,1,60,0,0
136491,-100,4,1,1,55,0,0
136617,-100,4,1,1,80,0,0
136742,-100,4,1,1,65,0,0
138618,-100,4,1,1,50,0,0
148627,-100,4,1,1,35,0,0
149440,-100,4,1,1,30,0,0
150316,-100,4,1,1,25,0,0
150628,-100,4,1,1,70,0,0
152693,-133.333333333333,4,1,1,80,0,0
152880,-133.333333333333,4,1,1,70,0,0
153130,-133.333333333333,4,1,1,75,0,0
154131,-133.333333333333,4,1,1,65,0,0
154632,-133.333333333333,4,1,1,70,0,0
155632,-133.333333333333,4,1,1,65,0,0
156383,-133.333333333333,4,1,1,75,0,0
156633,-133.333333333333,4,1,1,65,0,0
157134,-133.333333333333,4,1,1,70,0,0
157384,-133.333333333333,4,1,1,60,0,0
158135,-133.333333333333,4,1,1,75,0,0
158385,-133.333333333333,4,1,1,65,0,0
159135,-133.333333333333,4,1,1,75,0,0
160136,-133.333333333333,4,1,1,70,0,0
160386,-133.333333333333,4,1,1,60,0,0
160637,-133.333333333333,4,1,1,75,0,0
160887,-133.333333333333,4,1,1,60,0,0
161137,-133.333333333333,4,1,1,70,0,0
161387,-133.333333333333,4,1,1,60,0,0
161637,-133.333333333333,4,1,1,70,0,0
161888,-133.333333333333,4,1,1,60,0,0
162138,-133.333333333333,4,1,1,70,0,0
162388,-133.333333333333,4,1,1,60,0,0
162638,-133.333333333333,4,1,1,70,0,0
162888,-133.333333333333,4,1,1,60,0,0
163139,-133.333333333333,4,1,1,70,0,0
163389,-133.333333333333,4,1,1,60,0,0
163639,-133.333333333333,4,1,1,70,0,0
163889,-133.333333333333,4,1,1,60,0,0
164140,-133.333333333333,4,1,1,71,0,0
164390,-133.333333333333,4,1,1,61,0,0
164640,-133.333333333333,4,1,1,66,0,0
164890,-133.333333333333,4,1,1,56,0,0
165140,-133.333333333333,4,1,1,72,0,0
165391,-133.333333333333,4,1,1,62,0,0
165641,-133.333333333333,4,1,1,62,0,0
165891,-133.333333333333,4,1,1,52,0,0
166141,-133.333333333333,4,1,1,73,0,0
166391,-133.333333333333,4,1,1,63,0,0
166642,-133.333333333333,4,1,1,59,0,0
166892,-133.333333333333,4,1,1,49,0,0
167142,-133.333333333333,4,1,1,74,0,0
167392,-133.333333333333,4,1,1,64,0,0
167642,-133.333333333333,4,1,1,57,0,0
167893,-133.333333333333,4,1,1,47,0,0
168143,-133.333333333333,4,1,1,75,0,0
168393,-133.333333333333,4,1,1,65,0,0
168643,-133.333333333333,4,1,1,85,0,0
176713,-200,4,1,2,80,0,0
177588,-200,4,1,2,80,0,0
180647,-200,4,1,2,70,0,0
180841,-200,4,1,1,60,0,0
181654,-200,4,1,2,70,0,0
181779,-200,4,1,1,60,0,0
182655,-200,4,1,2,70,0,0
183155,-200,4,1,1,75,0,0
183406,-200,4,1,1,65,0,0
183656,-200,4,1,1,65,0,0
184219,-100,4,1,1,70,0,0
184406,-100,4,1,1,50,0,0
184657,-100,4,1,1,90,0,0
184907,-100,4,1,1,75,0,0
185157,-100,4,1,1,65,0,0
185407,-100,4,1,1,70,0,0
185657,-100,4,1,1,60,0,0
186033,-100,4,1,1,70,0,0
186158,-100,4,1,1,60,0,0
186533,-100,4,1,1,70,0,0
186658,-100,4,1,1,75,0,0
186909,-100,4,1,1,65,0,0
187722,-100,4,1,1,75,0,0
188160,-100,4,1,1,75,0,0
188410,-100,4,1,1,65,0,0
188660,-100,4,1,1,80,0,0
188910,-100,4,1,1,75,0,0
189035,-100,4,1,1,65,0,0
189160,-100,4,1,1,70,0,0
189348,-100,4,1,1,75,0,0
189911,-100,4,1,1,60,0,0
190161,-100,4,1,1,75,0,0
190411,-100,4,1,1,60,0,0
190662,-100,4,1,1,70,0,0
190912,-100,4,1,1,65,0,0
191162,-100,4,1,1,70,0,0
191412,-100,4,1,1,70,0,0
191662,-100,4,1,1,75,0,0
191913,-100,4,1,1,60,0,0
192163,-100,4,1,1,70,0,0
192288,-100,4,1,1,60,0,0
192413,-100,4,1,1,70,0,0
192663,-100,4,1,1,80,0,0
192914,-100,4,1,1,70,0,0
193164,-100,4,1,1,80,0,0
193414,-100,4,1,1,75,0,0
193664,-100,4,1,1,70,0,0
193789,-100,4,1,1,65,0,0
193914,-100,4,1,1,70,0,0
194415,-100,4,1,1,60,0,0
194540,-100,4,1,1,65,0,0
194665,-100,4,1,1,70,0,0
194915,-100,4,1,1,80,0,0
195165,-100,4,1,1,75,0,0
195416,-100,4,1,1,70,0,0
195541,-100,4,1,1,60,0,0
195666,-100,4,1,1,65,0,0
196416,-100,4,1,1,70,0,0
196667,-100,4,1,1,80,0,0
196917,-100,4,1,1,65,0,0
197167,-100,4,1,1,70,0,0
197292,-100,4,1,1,72,0,0
197417,-100,4,1,1,75,0,0
197667,-100,4,1,1,75,0,0
197918,-100,4,1,1,65,0,0
198168,-100,4,1,1,75,0,0
198293,-100,4,1,1,70,0,0
198418,-100,4,1,1,65,0,0
198668,-100,4,1,1,70,0,0
199669,-100,4,1,1,80,0,0
199857,-100,4,1,1,35,0,0
200295,-100,4,1,1,30,0,0
200607,-100,4,1,1,25,0,0
200670,-100,4,1,1,90,0,0
200795,-100,4,1,1,70,0,0
202734,500.417014178482,4,1,1,70,1,0

[Colours]
Combo1 : 240,5,5
Combo2 : 5,240,5
Combo3 : 24,220,210

[HitObjects]
416,72,16581,1,0
400,144,16829,2,0,B|384:184|336:176,1,75,0|2
336,104,17330,2,0,B|296:96|272:136,1,75
272,208,17830,2,0,B|304:240,2,37.5,0|8|2
200,208,18331,2,0,B|160:208|144:168,1,75
200,120,18831,2,0,B|240:96|272:120,1,75,0|2
320,176,19331,2,0,B|368:176,2,37.5,0|8|4
192,248,20082,5,2
264,248,20332,1,0
224,184,20582,2,0,B|200:144|224:112,1,75
288,152,21083,2,0,B|328:152,2,37.5,2|0|0
224,184,21583,2,0,B|200:216|224:256,1,75
288,296,22084,2,0,B|312:256|288:224,1,75,2|0
224,184,22584,2,0,B|192:168|152:184,2,75,0|0|2
288,224,23335,1,0
288,224,23585,2,0,B|344:152|288:88,1,150,0|2
136,96,24586,6,0,B|80:160|136:232,1,150,4|2
208,232,25336,1,0
208,232,25461,1,8
208,232,25587,1,0
272,272,25837,1,0
336,232,26087,2,0,B|360:192|336:160,1,75,2|0
337,161,26462,1,8
337,161,26587,1,0
272,128,26838,1,0
336,88,27088,1,2
400,128,27338,1,0
400,128,27463,1,8
400,128,27588,2,0,B|424:160|400:200,1,75
336,232,28089,1,2
336,232,28339,1,0
336,232,28589,2,0,B|312:272|336:304,2,75,0|0|4
256,72,29590,6,0,B|272:104|256:144,1,75
144,192,30090,2,0,B|176:176|216:192,1,75,2|0
256,304,30591,2,0,B|240:264|256:232,1,75
368,192,31091,1,2
368,192,31216,1,8
368,192,31341,1,0
256,192,31466,12,4,32592
120,128,40599,6,0,B|152:112|192:128,1,75,4|0
160,192,41100,2,0,B|200:208|232:192,1,75,2|0
264,128,41600,2,0,B|304:144|304:192,1,75
272,256,42100,2,0,B|232:256|208:296,1,75,2|0
160,240,42601,1,0
208,176,42851,2,0,B|256:160|256:120,1,75,0|2
320,160,43351,1,0
120,80,44352,6,0,B|152:80|152:112|184:112,1,75,0|4
248,160,44853,2,0,B|216:160|216:192|184:192,1,75,0|2
120,152,45353,1,0
120,224,45603,1,0
184,192,45853,2,0,B|216:192|216:224|248:224,1,75,0|2
328,224,46354,1,0
328,152,46604,6,0,B|288:128|256:152,1,75
256,224,47105,2,0,B|256:264,2,37.5,2|8|0
112,200,47855,1,0
160,144,48105,1,2
184,216,48356,1,0
224,280,48606,2,0,B|272:280|280:240,1,75,4|0
280,168,49106,2,0,B|264:128|224:128,1,75,2|0
160,168,49607,2,0,B|136:200|160:240,1,75
224,280,50107,1,2
288,240,50357,1,0
224,208,50607,2,0,B|208:168|224:136,1,75
288,96,51108,2,0,B|328:96|352:128,1,75,2|0
344,280,51858,5,0
344,280,52109,1,2
344,280,52359,1,0
288,232,52609,2,0,B|248:256|216:232,1,75,4|0
152,272,53110,2,0,B|136:232|152:200,1,75,2|0
112,136,53610,2,0,B|152:120|184:136,1,75
248,96,54110,2,0,B|264:128|248:168,1,75,2|0
176,200,54611,5,0
176,200,54861,2,0,B|160:240|176:272,1,75,0|2
248,304,55361,1,0
248,304,55612,2,0,B|264:264|248:232,1,75
320,200,56112,1,2
320,200,56237,1,0
320,200,56362,1,8
320,200,56487,1,8
320,200,56612,1,4
184,128,57113,6,0,B|256:72|320:128,1,150,0|0
296,200,57863,1,0
368,184,58114,2,0,B|384:224|368:256,1,75,2|0
296,288,58614,2,0,B|232:352|160:288,1,150,0|2
192,224,59365,1,0
120,224,59615,2,0,B|64:160|120:88,1,150,0|2
120,88,60240,1,8
120,88,60366,1,0
192,120,60616,5,4
192,192,60866,1,0
256,232,61116,1,2
320,192,61366,1,0
320,120,61617,1,0
256,80,61867,1,0
192,120,62117,2,0,B|168:88|128:88,1,75,2|0
112,160,62617,1,0
168,216,62868,1,0
144,288,63118,1,2
216,296,63368,2,0,B|232:208|320:200,1,150
312,128,64119,2,0,B|272:120|256:80,1,75,2|0
212,142,64619,1,4
136,272,65120,6,0,B|216:272,1,75,2|0
288,272,65620,1,0
288,272,65870,2,0,B|344:224,1,75,0|2
344,144,66371,1,0
344,144,66621,2,0,B|288:88,1,75
216,88,67121,1,2
216,88,67371,2,0,B|160:144,2,75
256,152,68122,1,2
160,272,68622,6,0,B|200:256|240:272,1,75,4|0
304,296,69123,2,0,B|336:264|328:224,1,75,2|0
264,192,69623,1,0
200,152,69873,1,0
264,112,70124,2,0,B|304:96|344:112,1,75,2|0
416,104,70624,1,0
448,176,70874,1,0
376,176,71125,2,0,B|344:200|344:240,1,75,2|0
280,288,71625,2,0,B|240:304|208:288,1,75
136,304,72125,2,0,B|88:296|80:240|120:200|160:224,1,150,2|4
232,200,72876,5,0
176,152,73126,1,2
320,112,73627,1,0
320,112,73752,1,8
320,112,73877,1,0
376,160,74127,2,0,B|400:200|376:232,1,75,2|0
312,200,74627,2,0,B|232:200,1,75
176,240,75128,1,2
176,240,75378,2,0,B|152:200|176:168,1,75,0|0
320,128,76129,6,0,B|384:192,1,75,2|0
312,216,76629,2,0,B|288:248|248:248,1,75,4|0
176,216,77130,1,2
240,184,77380,1,0
312,216,77630,2,0,B|336:192|384:200,1,75
440,152,78130,1,2
440,224,78381,1,0
392,280,78631,2,0,B|336:216|256:248,1,150,0|2
256,247,79381,1,0
184,272,79632,2,0,B|104:224|136:136,1,150
280,120,80632,5,4
344,256,81133,1,2
200,288,81633,2,0,B|152:280|144:240,1,75
200,192,82134,2,0,B|184:152|192:120,1,75,2|0
264,96,82634,1,0
304,160,82884,1,0
376,168,83135,2,0,B|400:208|376:240,1,75,2|0
304,216,83635,2,0,B|264:232|256:272,1,75
184,248,84135,5,2
128,192,84386,1,0
184,144,84636,2,0,B|216:120|256:136,1,75
272,64,85136,2,0,B|352:88|352:176,1,150,6|0
352,176,85887,1,0
312,240,86137,1,2
240,264,86387,1,0
168,248,86637,6,0,B|88:224|88:136,1,150,0|2
87,135,87388,1,0
152,96,87638,1,0
184,160,87888,1,0
256,128,88139,1,2
256,128,88264,1,0
256,128,88389,1,8
256,128,88514,1,8
256,128,88639,1,4
336,256,89140,5,2
392,208,89390,2,0,B|408:160|376:136,1,75
312,96,89890,1,0
328,168,90140,1,2
392,208,90391,2,0,B|432:232|424:272,1,75
280,304,91141,2,0,B|240:312|208:288,1,75,2|0
176,224,91642,1,0
248,232,91892,1,0
280,304,92142,2,0,B|304:272|344:272,1,75,2|0
368,200,92642,5,4
328,136,92893,1,0
256,144,93143,2,0,B|208:80,1,75,2|0
160,136,93643,1,0
160,136,93894,2,0,B|120:208,1,75,0|2
168,264,94394,2,0,B|176:280|192:296,2,37.5,0|8|0
208,200,94894,2,0,B|288:200,1,75,0|2
344,240,95395,1,0
400,96,95895,5,0
400,96,96145,1,2
400,96,96396,2,0,B|424:128|400:168,1,75,0|4
328,176,96896,2,0,B|288:152|256:176,1,75,0|2
288,240,97396,1,0
288,240,97647,2,0,B|248:264|216:240,1,75
176,176,98147,2,0,B|136:152|144:112,1,75,2|0
216,120,98647,2,0,B|288:72|360:120,1,150,0|2
400,184,99398,2,0,B|328:224|256:184,1,150
216,120,100149,5,2
216,120,100399,1,0
216,120,100649,2,0,B|256:136|288:120,1,75,4|0
344,168,101150,2,0,B|304:176|288:216,1,75,2|0
216,200,101650,1,0
168,264,101900,1,0
240,272,102150,2,0,B|280:272|312:304,1,75,2|0
352,240,102651,2,0,B|360:200|400:184,1,75
392,112,103151,1,2
328,72,103401,1,0
328,144,103652,2,0,B|296:176|256:160,1,75
184,144,104152,1,2
184,144,104277,1,0
184,144,104402,1,8
184,144,104527,1,8
184,144,104652,1,4
256,272,105153,6,0,B|336:272,2,75,2|0|0
256,120,106154,2,0,B|176:120,2,75,2|0|0
400,88,107155,1,0
296,192,107655,1,0
192,304,108155,1,0
88,192,108656,6,0,B|88:112,2,75,0|0|2
240,192,109657,2,0,B|240:272,2,75,0|0|0
312,320,110657,1,0
392,192,111158,1,0
312,64,111658,1,0
176,128,112159,2,0,B|96:128,2,75,0|0|4
104,264,113160,6,0,B|184:264,2,75,0|0|0
256,264,114160,2,0,B|336:264,2,75,0|0|0
408,264,115161,1,0
312,152,115662,2,0,B|256:232|192:152,1,150,0|0
320,72,116662,5,0
408,192,117163,1,0
320,312,117663,1,0
168,312,118164,1,0
80,192,118664,1,4
168,72,119165,1,0
320,72,119665,1,0
408,192,120165,5,0
272,256,120666,2,0,B|224:264|200:232,1,75,4|0
184,168,121166,1,0
256,184,121416,1,0
272,256,121667,2,0,B|312:264|344:240,1,75
368,168,122167,1,0
344,96,122417,1,0
272,80,122667,2,0,B|224:96|224:136,1,75
280,184,123168,2,0,B|280:224|240:240,1,75,2|0
168,232,123668,1,0
256,112,124169,6,0,B|256:192,1,75,2|0
304,248,124669,1,4
352,192,124919,2,0,B|352:104,1,75,0|2
352,117,125295,1,8
352,117,125420,1,0
288,72,125670,1,0
224,112,125920,1,0
224,112,126170,2,0,B|192:96|152:112,1,75,2|0
184,176,126671,2,0,B|136:176|128:216,2,75,0|0|2
248,208,127421,1,0
288,144,127672,2,0,B|360:200|288:272,1,150,0|2
289,270,128297,1,8
289,270,128422,1,0
216,272,128672,6,0,B|184:256|144:272,1,75,4|0
176,208,129173,2,0,B|208:224|248:208,1,75,2|0
288,144,129673,1,0
288,144,129924,2,0,B|320:128|360:144,1,75,0|2
416,96,130424,1,0
416,96,130549,1,8
416,96,130674,2,0,B|456:112|440:160,1,75
392,216,131175,2,0,B|368:248|320:240,1,75,2|0
264,200,131675,1,0
136,120,132175,5,2
136,120,132426,1,0
136,120,132676,2,0,B|128:168|160:192,1,75,4|0
216,240,133176,2,0,B|240:152|320:144,1,150,2|0
368,192,133927,1,0
320,248,134177,1,2
248,232,134427,1,0
248,160,134677,1,0
256,192,134928,12,4,136679
256,192,148689,12,4,150691
384,136,152693,5,4
408,184,152943,1,0
360,216,153193,1,2
312,184,153443,1,0
328,128,153693,2,0,B|304:120|272:128,1,56.2499983236194
256,184,154194,2,0,B|224:192|200:192,1,56.2499983236194,2|0
160,232,154694,1,0
120,192,154944,1,0
152,144,155195,1,2
208,160,155445,5,0
216,216,155695,2,0,B|232:240|256:256,1,56.2499983236194
312,256,156195,1,2
360,224,156446,1,0
352,168,156696,2,0,B|360:144|352:112,1,56.2499983236194,4|0
296,128,157196,2,0,B|280:104|248:88,1,56.2499983236194,2|0
232,144,157697,2,0,B|208:136|176:144,1,56.2499983236194
208,192,158197,2,0,B|184:208|168:232,1,56.2499983236194,2|0
216,256,158698,2,0,B|200:280|192:312,2,56.2499983236194,0|0|2
264,224,159448,1,0
408,144,160199,5,2
376,192,160449,1,0
320,176,160699,1,4
280,216,160949,1,0
224,200,161200,1,2
224,200,161450,2,0,B|216:168|232:144,1,56.2499983236194
280,120,161950,1,0
328,152,162200,2,0,B|360:152|384:168,1,56.2499983236194,2|0
352,216,162701,1,0
312,256,162951,1,0
264,280,163201,1,2
160,144,163952,5,0
208,112,164202,1,2
256,88,164452,1,0
368,112,164703,2,0,B|384:136|384:168,1,56.2499983236194,4|0
328,160,165203,2,0,B|336:192|328:216,1,56.2499983236194,2|0
272,200,165703,2,0,B|272:232|248:256,1,56.2499983236194
208,216,166204,2,0,B|192:240|160:248,1,56.2499983236194,2|0
120,208,166704,1,0
112,120,166954,1,0
192,80,167205,1,2
256,144,167455,1,0
200,216,167705,2,0,B|200:248|224:272,1,56.2499983236194
304,240,168205,2,0,B|328:224|336:192,1,56.2499983236194,2|0
256,144,168706,5,4
256,96,176713,5,4
184,192,177213,1,8
256,288,177713,1,8
328,192,178214,1,8
256,96,178714,2,0,B|288:112|304:152,1,75,0|8
192,112,179715,1,8
152,224,180215,1,8
264,264,180716,2,0,B|312:256|320:216,1,75,4|0
296,104,181717,2,0,B|328:80|368:88,1,75,4|0
368,208,182718,2,0,B|368:248|344:280,1,75,4|0
224,280,183718,1,0
144,152,184219,1,2
144,152,184344,1,0
144,152,184469,1,8
144,152,184594,1,8
144,152,184719,5,4
216,128,184969,1,0
256,192,185220,2,0,B|296:216|328:192,1,75,2|0
368,128,185720,1,0
296,128,185970,1,0
256,192,186220,2,0,B|272:232|240:264,1,75,2|0
168,272,186721,1,0
112,224,186971,1,0
176,192,187221,2,0,B|192:152|176:120,1,75,2|0
175,119,187722,1,0
320,96,188222,6,0,B|288:112|272:152,1,75,2|0
200,144,188723,2,0,B|160:144|136:208|200:240|232:216,1,150,4|0
384,192,189723,1,0
384,192,189974,1,0
384,192,190224,2,0,B|384:232|352:256,1,75,2|0
296,200,190724,2,0,B|304:160|288:128,1,75
216,144,191225,2,0,B|192:112|152:112,1,75,2|0
120,184,191725,2,0,B|88:200|104:280|184:256|184:216,1,150,0|2
288,112,192726,5,4
328,256,193226,1,2
184,216,193727,2,0,B|168:248|176:288,2,75,0|0|2
144,152,194477,1,0
160,80,194728,1,0
216,128,194978,2,0,B|248:152|256:192,1,75,0|2
200,240,195478,1,0
264,272,195728,2,0,B|296:288|336:272,1,75
400,232,196229,5,2
400,232,196479,1,0
400,232,196729,2,0,B|400:184|376:160,1,75,4|0
328,216,197230,2,0,B|336:256|312:288,1,75,2|0
264,232,197730,2,0,B|272:192|248:160,1,75
200,216,198230,2,0,B|184:248|200:288,1,75,2|0
272,312,198731,1,0
128,272,199231,1,0
152,128,199732,1,0
256,192,199857,12,4,200733
