osu file format v9

[General]
AudioFilename: 01 - HEART OF SWORD.mp3
AudioLeadIn: 0
PreviewTime: 168205
Countdown: 0
SampleSet: Normal
StackLeniency: 0.3
Mode: 0
LetterboxInBreaks: 1

[Editor]
DistanceSpacing: 1
BeatDivisor: 2
GridSize: 8

[Metadata]
Title:HEART OF SWORD ~yoakemae~
Artist:T.M.Revolution
Creator:kaouji
Version:Easy
Source:Rurouni.Kenshin ED3.Single
Tags:T.M.Revolution Ruroun Kenshin kaouji

[Difficulty]
HPDrainRate:2
CircleSize:3
OverallDifficulty:4
ApproachRate:3
SliderMultiplier:0.8
SliderTickRate:0.5

[Events]
//Background and Video events
0,0,"BG.jpg"
//Break Periods
2,32792,39159
2,136879,147249
2,168906,175273
//Storyboard Layer 0 (Background)
//Storyboard Layer 1 (Fail)
//Storyboard Layer 2 (Pass)
//Storyboard Layer 3 (Foreground)
//Storyboard Sound Samples
//Background Colour Transformations
3,100,163,162,255

[TimingPoints]
16579.5725687304,500.417014178482,4,1,1,70,1,0
16954,-100,4,1,1,75,0,0
17517,-100,4,1,1,70,0,0
17768,-100,4,1,1,55,0,0
18518,-100,4,1,1,60,0,0
19019,-100,4,1,1,75,0,0
19519,-100,4,1,1,60,0,0
20520,-100,4,1,1,65,0,0
21020,-100,4,1,1,75,0,0
21521,-100,4,1,1,65,0,0
22021,-100,4,1,1,60,0,0
22522,-100,4,1,1,65,0,0
22959,-100,4,1,1,55,0,0
23272,-100,4,1,1,70,0,0
24023,-100,4,1,1,75,0,0
25024,-100,4,1,1,75,0,0
25274,-100,4,1,1,70,0,0
26024,-100,4,1,1,65,0,0
26775,-100,4,1,1,45,0,0
26963,-100,4,1,1,60,0,0
27526,-100,4,1,1,55,0,0
28026,-100,4,1,1,70,0,0
29027,-100,4,1,1,65,0,0
29152,-100,4,1,1,75,0,0
29778,-100,4,1,1,65,0,0
30528,-100,4,1,1,70,0,0
32530,-100,4,1,1,75,0,0
32655,-100,4,1,1,70,0,0
40537,-100,4,1,1,55,0,0
40662,-100,4,1,1,65,0,0
41600,-100,4,1,1,55,0,0
41788,-100,4,1,1,45,0,0
42100,-100,4,1,1,65,0,0
42351,-100,4,1,1,60,0,0
43039,-100,4,1,1,65,0,0
43539,-100,4,1,1,60,0,0
44039,-100,4,1,1,65,0,0
44540,-100,4,1,1,70,0,0
44790,-100,4,1,1,70,0,0
45541,-100,4,1,1,60,0,0
46041,-100,4,1,1,65,0,0
46917,-100,4,1,1,70,0,0
47542,-100,4,1,1,65,0,0
47980,-100,4,1,1,75,0,0
48481,-100,4,1,1,70,0,0
49481,-100,4,1,1,65,0,0
50545,-100,4,1,1,55,0,0
51045,-100,4,1,1,65,0,0
51045,-100,4,1,1,60,0,0
51546,-100,4,1,1,60,0,0
51796,-100,4,1,1,45,0,0
51921,-100,4,1,1,65,0,0
52421,-100,4,1,1,70,0,0
52922,-100,4,1,1,65,0,0
53547,-100,4,1,1,60,0,0
53923,-100,4,1,1,65,0,0
54423,-100,4,1,1,60,0,0
54924,-100,4,1,1,70,0,0
55299,-100,4,1,1,55,0,0
56049,-100,4,1,1,45,0,0
56550,-100,4,1,1,70,0,0
56800,-100,4,1,1,45,0,0
56988,-100,4,1,1,60,0,0
57551,-100,4,1,1,50,0,0
57801,-100,4,1,1,50,0,0
57801,-100,4,1,1,40,0,0
57801,-100,4,1,1,65,0,0
58051,-100,4,1,1,65,0,0
58614,-100,4,1,1,70,0,0
58802,-100,4,1,1,45,0,0
58989,-100,4,1,1,65,0,0
59490,-100,4,1,1,60,0,0
60553,-100,4,1,1,70,0,0
61054,-100,4,1,1,65,0,0
61554,-100,4,1,1,70,0,0
61554,-100,4,1,1,50,0,0
62054,-100,4,1,1,60,0,0
62555,-100,4,1,1,55,0,0
62555,-100,4,1,1,65,0,0
63055,-100,4,1,1,50,0,0
63055,-100,4,1,1,60,0,0
64557,-100,4,1,1,65,0,0
65557,-100,4,1,1,60,0,0
66058,-100,4,1,1,65,0,0
66558,-100,4,1,1,60,0,0
67059,-100,4,1,1,65,0,0
67559,-100,4,1,1,60,0,0
68059,-100,4,1,1,65,0,0
68560,-100,4,1,1,60,0,0
69060,-100,4,1,1,65,0,0
69561,-100,4,1,1,60,0,0
70061,-100,4,1,1,65,0,0
70562,-100,4,1,1,70,0,0
71062,-100,4,1,1,65,0,0
71562,-100,4,1,1,70,0,0
72063,-100,4,1,1,75,0,0
73064,-100,4,1,1,80,0,0
73314,-100,4,1,1,70,0,0
73814,-100,4,1,1,45,0,0
73939,-100,4,1,1,65,0,0
74815,-100,4,1,1,80,0,0
75566,-100,4,1,1,70,0,0
76567,-100,4,1,1,80,0,0
77317,-100,4,1,1,75,0,0
77818,-100,4,1,1,70,0,0
78068,-100,4,1,1,75,0,0
78568,-100,4,1,1,70,0,0
79069,-100,4,1,1,75,0,0
79569,-100,4,1,1,80,0,0
80069,-100,4,1,1,70,0,0
80320,-100,4,1,1,75,0,0
81070,-100,4,1,1,70,0,0
81571,-100,4,1,1,80,0,0
82071,-100,4,1,1,70,0,0
82572,-100,4,1,1,65,0,0
83072,-100,4,1,1,60,0,0
83572,-100,4,1,1,65,0,0
84073,-100,4,1,1,70,0,0
85074,-100,4,1,1,60,0,0
85824,-100,4,1,1,75,0,0
86575,-100,4,1,1,70,0,0
87075,-100,4,1,1,65,0,0
87326,-100,4,1,1,75,0,0
87826,-100,4,1,1,50,0,0
88076,-100,4,1,1,80,0,0
88326,-100,4,1,1,75,0,0
88702,-100,4,1,1,70,0,0
89577,-100,4,1,1,60,0,0
90078,-100,4,1,1,65,0,0
91079,-100,4,1,1,65,0,0
91767,-100,4,1,1,45,0,0
92017,-100,4,1,1,60,0,0
92580,-100,4,1,1,80,0,0
93080,-100,4,1,1,75,0,0
93581,-100,4,1,1,70,0,0
94582,-100,4,1,1,75,0,0
94832,-100,4,1,1,70,0,0
95332,-100,4,1,1,75,0,0
95833,-100,4,1,1,45,0,0
96083,-100,4,1,1,70,0,0
96833,-100,4,1,1,65,0,0
97834,-100,4,1,1,45,0,0
97959,-100,4,1,1,60,0,0
98585,-100,4,1,1,75,0,0
99085,-100,4,1,1,70,0,0
99836,-100,4,1,1,75,0,0
100587,-100,4,1,1,75,0,0
100837,-100,4,1,1,70,0,0
101337,-100,4,1,1,65,0,0
102088,-100,4,1,1,70,0,0
102713,-100,4,1,1,75,0,0
103089,-100,4,1,1,55,0,0
103339,-100,4,1,1,45,0,0
103589,-100,4,1,1,70,0,0
104340,-100,4,1,1,75,0,0
105028,-100,4,1,1,70,0,0
105591,-100,4,1,1,60,0,0
106091,-100,4,1,1,70,0,0
106592,-100,4,1,1,75,0,0
107092,-100,4,1,1,60,0,0
107592,-100,4,1,1,70,0,0
108093,-100,4,1,1,70,0,0
108343,-100,4,1,1,45,0,0
108468,-100,4,1,1,65,0,0
109094,-100,4,1,1,70,0,0
109594,-100,4,1,1,60,0,0
110095,-100,4,1,1,65,0,0
110595,-100,4,1,1,70,0,0
111095,-100,4,1,1,60,0,0
112346,-100,4,1,1,65,0,0
113097,-100,4,1,1,70,0,0
113597,-100,4,1,1,65,0,0
114035,-100,4,1,1,70,0,0
114348,-100,4,1,1,45,0,0
114598,-100,4,1,1,70,0,0
115036,-100,4,1,1,70,0,0
115599,-100,4,1,1,70,0,0
116100,-100,4,1,1,60,0,0
116600,-100,4,1,1,75,0,0
116850,-100,4,1,1,45,0,0
117100,-100,4,1,1,65,0,0
117601,-100,4,1,1,70,0,0
118101,-100,4,1,1,75,0,0
118351,-100,4,1,1,45,0,0
118351,-100,4,1,1,60,0,0
118602,-100,4,1,1,60,0,0
119102,-100,4,1,1,75,0,0
119602,-100,4,1,1,75,0,0
119853,-100,4,1,1,45,0,0
119853,-100,4,1,1,60,0,0
120100,-100,4,1,1,60,0,0
120603,-100,4,1,1,70,0,0
121104,-100,4,1,1,75,0,0
121604,-100,4,1,1,65,0,0
122105,-100,4,1,1,65,0,0
122605,-100,4,1,1,70,0,0
123105,-100,4,1,1,65,0,0
123606,-100,4,1,1,70,0,0
124106,-100,4,1,1,60,0,0
124607,-100,4,1,1,65,0,0
125107,-100,4,1,1,75,0,0
125607,-100,4,1,1,65,0,0
126108,-100,4,1,1,75,0,0
126608,-100,4,1,1,70,0,0
127109,-100,4,1,1,65,0,0
127359,-100,4,1,1,70,0,0
128110,-100,4,1,1,65,0,0
128610,-100,4,1,1,75,0,0
129110,-100,4,1,1,80,0,0
129611,-100,4,1,1,75,0,0
129861,-100,4,1,1,45,0,0
129986,-100,4,1,1,65,0,0
130612,-100,4,1,1,70,0,0
131112,-100,4,1,1,65,0,0
131362,-100,4,1,1,45,0,0
131487,-100,4,1,1,55,0,0
132113,-100,4,1,1,60,0,0
132363,-100,4,1,1,60,0,0
133114,-100,4,1,1,75,0,0
133614,-100,4,1,1,70,0,0
134115,-100,4,1,1,65,0,0
134365,-100,4,1,1,60,0,0
135178,-100,4,1,1,65,0,0
135616,-100,4,1,1,65,0,0
148627,-100,4,1,1,30,0,0
149627,-100,4,1,1,25,0,0
150566,-100,4,1,1,20,0,0
150628,-100,4,1,1,50,0,0
152693,-100,4,1,1,80,0,0
153130,-100,4,1,1,75,0,0
153881,-100,4,1,1,50,0,0
154131,-100,4,1,1,65,0,0
154632,-100,4,1,1,55,0,0
154757,-100,4,1,1,70,0,0
155632,-100,4,1,1,65,0,0
155883,-100,4,1,1,45,0,0
156008,-100,4,1,1,65,0,0
156633,-100,4,1,1,50,0,0
157134,-100,4,1,1,70,0,0
157384,-100,4,1,1,60,0,0
158135,-100,4,1,1,75,0,0
158635,-100,4,1,1,45,0,0
159135,-100,4,1,1,75,0,0
160136,-100,4,1,1,70,0,0
160637,-100,4,1,1,75,0,0
160887,-100,4,1,1,45,0,0
161137,-100,4,1,1,60,0,0
161637,-100,4,1,1,70,0,0
162138,-100,4,1,1,65,0,0
162638,-100,4,1,1,70,0,0
162888,-100,4,1,1,45,0,0
163139,-100,4,1,1,60,0,0
163639,-100,4,1,1,70,0,0
164140,-100,4,1,1,71,0,0
164640,-100,4,1,1,66,0,0
165140,-100,4,1,1,72,0,0
165641,-100,4,1,1,62,0,0
166141,-100,4,1,1,73,0,0
166642,-100,4,1,1,59,0,0
167142,-100,4,1,1,74,0,0
167642,-100,4,1,1,57,0,0
168143,-100,4,1,1,75,0,0
168643,-100,4,1,1,85,0,0
176713,-100,4,1,2,80,0,0
177588,-100,4,1,2,80,0,0
180647,-100,4,1,2,70,0,0
180841,-100,4,1,1,60,0,0
181654,-100,4,1,2,70,0,0
181779,-100,4,1,1,60,0,0
182655,-100,4,1,2,70,0,0
183155,-100,4,1,1,75,0,0
183656,-100,4,1,1,65,0,0
184156,-100,4,1,1,45,0,0
184406,-100,4,1,1,80,0,0
184657,-100,4,1,1,90,0,0
185157,-100,4,1,1,65,0,0
185657,-100,4,1,1,65,0,0
186158,-100,4,1,1,65,0,0
186658,-100,4,1,1,75,0,0
186909,-100,4,1,1,65,0,0
187722,-100,4,1,1,75,0,0
188160,-100,4,1,1,75,0,0
188660,-100,4,1,1,80,0,0
189160,-100,4,1,1,70,0,0
189348,-100,4,1,1,75,0,0
189911,-100,4,1,1,45,0,0
190161,-100,4,1,1,65,0,0
190662,-100,4,1,1,70,0,0
191162,-100,4,1,1,70,0,0
191412,-100,4,1,1,50,0,0
191662,-100,4,1,1,60,0,0
192163,-100,4,1,1,70,0,0
192663,-100,4,1,1,60,0,0
193164,-100,4,1,1,80,0,0
193664,-100,4,1,1,70,0,0
193914,-100,4,1,1,50,0,0
194039,-100,4,1,1,65,0,0
194665,-100,4,1,1,70,0,0
195165,-100,4,1,1,75,0,0
195416,-100,4,1,1,50,0,0
195541,-100,4,1,1,65,0,0
196667,-100,4,1,1,80,0,0
196917,-100,4,1,1,55,0,0
197167,-100,4,1,1,75,0,0
197292,-100,4,1,1,58,0,0
197667,-100,4,1,1,75,0,0
197918,-100,4,1,1,50,0,0
198168,-100,4,1,1,75,0,0
198668,-100,4,1,1,70,0,0
198793,-100,4,1,1,45,0,0
199356,-100,4,1,1,30,0,0
199982,-100,4,1,1,25,0,0
200607,-100,4,1,1,20,0,0
200670,-100,4,1,1,90,0,0
200795,-100,4,1,1,70,0,0
202734,500.417014178482,4,1,1,70,1,0

[Colours]
Combo1 : 240,5,5
Combo2 : 5,240,5
Combo3 : 24,220,210

[HitObjects]
376,104,16579,1,4
296,104,17079,1,0
256,176,17580,1,0
296,248,18080,1,2
376,248,18581,2,0,B|408:224|408:176,1,80
376,104,19582,1,0
216,104,20582,5,0
160,160,21083,2,0,B|136:200|160:240,1,80
216,288,22084,1,2
272,232,22584,2,0,B|296:192|272:152,1,80
216,104,23585,1,0
352,192,24586,6,0,B|352:272,1,80
280,240,25587,2,0,B|280:160,1,80,0|2
352,128,26587,1,0
280,88,27088,1,0
208,128,27588,1,0
280,272,28589,6,0,B|240:288|200:272,1,80
152,208,29590,1,0
232,208,30090,1,2
280,272,30591,1,0
256,192,30841,12,4,32592
128,112,40599,5,0
128,192,41100,1,0
184,248,41600,2,0,B|224:264|264:248,1,80,0|2
320,200,42601,2,0,B|336:160|320:120,2,80
176,272,44602,5,0
248,312,45103,1,0
320,272,45603,2,0,B|320:192,1,80,0|2
248,152,46604,1,0
320,112,47105,1,0
392,152,47605,1,0
256,232,48606,6,0,B|240:272|256:312,1,80
328,272,49607,1,0
328,192,50107,2,0,B|345:149|328:112,1,80,2|0
403,84,51108,1,0
403,84,51608,1,0
243,77,52609,6,0,B|259:117|243:157,1,80
165,171,53610,2,0,B|149:211|165:251,1,80,0|2
241,271,54611,1,0
312,240,55111,1,0
384,272,55612,2,0,B|400:232|384:192,1,80,0|2
384,112,56612,1,0
317,156,57113,5,0
249,113,57613,1,0
179,152,58114,1,2
181,231,58614,2,0,B|197:271|245:279,1,80
351,65,60616,6,0,B|375:105|351:145,1,80
292,193,61617,1,0
352,248,62117,2,0,B|368:288|352:328,1,80,2|0
280,288,63118,1,0
256,144,64619,5,0
176,152,65120,2,0,B|136:168|136:216,1,80
208,248,66120,2,0,B|240:272|288:264,1,80,2|0
352,216,67121,1,0
304,152,67622,1,0
144,152,68622,5,0
144,152,69123,2,0,B|56:184|96:312|232:344|264:224,1,320
336,264,71625,5,0
400,216,72125,1,2
352,152,72626,1,0
400,88,73126,1,0
320,72,73627,2,0,B|272:80|256:120,1,80,0|2
192,160,74627,1,0
248,216,75128,1,0
328,232,75628,1,0
184,296,76629,6,0,B|144:280|136:232,1,80
200,184,77630,1,0
200,104,78130,1,2
272,72,78631,2,0,B|312:88|320:136,1,80
280,200,79632,1,0
128,256,80632,5,0
128,256,81133,1,0
128,256,81633,2,0,B|112:216|128:176,1,80,0|2
192,128,82634,2,0,B|232:112|272:128,1,80
312,192,83635,1,0
160,248,84636,6,0,B|200:256|240:248,1,80
280,176,85637,1,0
360,176,86137,1,2
320,248,86637,2,0,B|280:264|240:248,1,80
200,184,87638,1,0
360,184,88639,5,0
312,248,89140,1,0
264,184,89640,2,0,B|216:168|176:184,1,80,0|2
160,256,90641,1,0
232,288,91141,1,0
304,256,91642,1,0
384,112,92642,6,0,B|344:96|304:112,1,80
328,192,93643,2,0,B|288:208|248:192,1,80,0|2
232,112,94644,1,0
160,144,95145,2,0,B|144:184|160:224,1,80
312,264,96646,6,0,B|248:208,1,80
296,144,97647,1,0
232,96,98147,1,2
184,160,98647,2,0,B|120:216,1,80
184,264,99648,1,0
328,192,100649,6,0,B|344:152|328:112,1,80
248,96,101650,1,0
224,176,102150,1,2
264,248,102651,2,0,B|232:272|184:272,1,80
128,224,103652,1,0
368,192,105153,5,0
312,248,105653,1,0
240,200,106154,1,2
176,152,106654,2,0,B|144:120|152:80,1,80
232,96,107655,1,0
312,96,108155,1,2
168,160,109156,5,0
240,200,109657,1,0
168,240,110157,1,2
240,280,110657,2,0,B|280:296|320:280,1,80
392,248,111658,1,0
320,208,112159,1,2
392,168,112659,1,0
320,128,113160,5,0
248,168,113660,1,0
320,208,114160,1,2
248,248,114661,2,0,B|208:264|168:248,1,80
128,184,115662,1,0
128,184,116162,2,0,B|168:168|208:184,1,80,2|0
288,192,117163,5,0
152,112,118164,1,2
152,272,119165,1,0
288,192,120165,1,2
344,136,120666,6,0,B|376:168|368:208,1,80
320,272,121667,1,0
240,256,122167,1,2
288,192,122667,2,0,B|256:160|216:160,1,80
200,80,123668,1,0
200,240,124669,5,0
261,291,125170,2,0,B|300:306|338:291,1,80
305,218,126170,2,0,B|287:178|305:140,1,80,2|0
343,70,127171,1,0
262,67,127672,2,0,B|222:84|217:128,1,80,0|2
270,187,128672,5,0
344,216,129173,2,0,B|346:262|323:292,1,80
244,275,130174,1,2
164,276,130674,1,0
102,224,131175,2,0,B|84:183|102:147,1,80
256,106,132676,5,0
314,160,133176,1,0
275,230,133677,2,0,B|287:274|331:279,1,80,0|2
403,245,134677,1,0
256,192,134928,12,4,136679
256,192,148689,12,4,150691
121,162,152693,5,0
140,239,153193,1,0
202,188,153693,1,0
226,264,154194,1,2
281,206,154694,2,0,B|311:235|356:234,1,80
257,106,156195,5,2
179,127,156696,2,0,B|163:167|181:205,1,80
259,188,157697,2,0,B|272:228|257:267,1,80,0|2
178,251,158698,2,0,B|97:251,2,80
337,264,160699,5,0
339,183,161200,1,0
338,184,161700,2,0,B|296:171|255:184,1,80,0|2
180,169,162701,1,0
180,169,163201,1,0
180,169,163702,2,0,B|180:213|208:244,1,80,0|2
282,269,164703,5,0
339,119,165703,1,0
181,146,166704,1,0
282,269,167705,2,0,B|320:249|332:211,1,80,0|2
268,161,168706,1,0
144,136,176713,5,12
256,248,177713,1,0
368,136,178714,1,8
368,296,179715,1,8
256,184,180716,5,4
144,296,181717,1,4
192,144,182718,1,4
271,153,183218,1,0
305,225,183718,1,0
384,214,184219,2,0,B|421:236,2,40
362,136,185220,5,0
291,173,185720,1,0
226,125,186220,1,2
174,186,186721,2,0,B|127:187,2,40
228,244,187722,1,0
379,192,188723,6,0,B|298:192,1,80
251,127,189723,1,0
170,128,190224,1,2
133,199,190724,2,0,B|171:214|213:199,1,80
258,264,191725,1,0
373,153,192726,6,0,B|391:192|375:231,1,80
296,218,193727,1,0
216,220,194227,1,2
139,195,194728,2,0,B|122:235|140:277,1,80
210,306,195728,1,0
286,282,196229,6,0,B|267:243|284:204,1,80,2|0
363,193,197230,1,0
430,150,197730,2,0,B|446:110|428:73,1,80,0|2
358,113,198731,1,0
256,192,198981,12,4,200733
