osu file format v14

[General]
AudioFilename: FLAGS.mp3
AudioLeadIn: 0
PreviewTime: 131923
Countdown: 0
SampleSet: Soft
StackLeniency: 0.7
Mode: 0
LetterboxInBreaks: 1
WidescreenStoryboard: 1

[Editor]
Bookmarks: 96352,104580,170409,175895
DistanceSpacing: 1
BeatDivisor: 2
GridSize: 4
TimelineZoom: 1.7

[Metadata]
Title:FLAGS
TitleUnicode:FLAGS
Artist:T.M.Revolution
ArtistUnicode:T.M.Revolution
Creator:P A N
Version:Normal
Source:Sengoku Basara: The Last Party
Tags:xinely natsu euny
BeatmapID:860651
BeatmapSetID:395160

[Difficulty]
HPDrainRate:4.5
CircleSize:3
OverallDifficulty:5
ApproachRate:5.5
SliderMultiplier:1.3
SliderTickRate:1

[Events]
//Background and Video events
0,0,"dddddddddddd.jpg",0,0
//Break Periods
2,96552,103455
2,170609,174770
//Storyboard Layer 0 (Background)
//Storyboard Layer 1 (Fail)
//Storyboard Layer 2 (Pass)
//Storyboard Layer 3 (Foreground)
//Storyboard Sound Samples

[TimingPoints]
5838,342.857142857143,4,2,1,70,1,0
5838,-100,4,2,1,70,0,0
15609,-100,4,2,1,40,0,0
15780,-100,4,2,1,70,0,0
15952,-100,4,2,1,40,0,0
16123,-100,4,2,1,70,0,0
16295,-100,4,2,1,40,0,0
16466,-100,4,2,1,70,0,0
16638,-100,4,2,1,40,0,0
16809,-100,4,2,1,70,0,0
30523,-100,4,2,1,80,0,0
31895,-100,4,2,1,50,0,0
32580,-100,4,2,1,60,0,0
32923,-100,4,2,1,70,0,0
33266,-100,4,2,1,80,0,0
37380,-100,4,2,1,50,0,0
38066,-100,4,2,1,60,0,0
38409,-100,4,2,1,70,0,0
38752,-100,4,2,1,80,0,0
41495,-100,4,2,1,60,0,0
42180,-100,4,2,1,60,0,0
52980,-100,4,2,1,50,0,0
55038,-100,4,2,1,70,0,0
55552,-100,4,2,1,50,0,0
57609,-100,4,2,1,70,0,0
58295,-100,4,2,1,50,0,0
60523,-100,4,2,1,70,0,0
61038,-100,4,2,1,50,0,0
63438,-100,4,2,1,70,0,0
65495,-100,4,2,1,60,0,0
66352,-100,4,2,1,50,0,0
66523,-100,4,2,1,60,0,0
66695,-100,4,2,1,50,0,0
66866,-100,4,2,1,70,0,0
67038,-100,4,2,1,60,0,0
67209,-100,4,2,1,70,0,0
67380,-100,4,2,1,60,0,0
67552,-100,4,2,1,70,0,0
67723,-100,4,2,1,60,0,0
68923,-100,4,2,1,90,0,1
85380,-100,4,2,1,80,0,0
94980,-100,4,2,1,50,0,0
95666,-100,4,2,1,60,0,0
96009,-100,4,2,1,70,0,0
96352,-100,4,2,1,80,0,0
104580,-100,4,2,1,60,0,0
105266,-100,4,2,1,60,0,0
116238,-100,4,2,1,50,0,0
118123,-100,4,2,1,70,0,0
118638,-100,4,2,1,50,0,0
120695,-100,4,2,1,70,0,0
121380,-100,4,2,1,50,0,0
123609,-100,4,2,1,70,0,0
124123,-100,4,2,1,50,0,0
126523,-100,4,2,1,70,0,0
128580,-100,4,2,1,90,0,0
129438,-100,4,2,1,50,0,0
129609,-100,4,2,1,60,0,0
129780,-100,4,2,1,50,0,0
129952,-100,4,2,1,70,0,0
130123,-100,4,2,1,60,0,0
130295,-100,4,2,1,70,0,0
130466,-100,4,2,1,60,0,0
130638,-100,4,2,1,90,0,0
132009,-100,4,2,1,90,0,1
148466,-100,4,2,1,80,0,0
170409,-100,4,2,1,60,0,0
178809,-100,4,2,1,50,0,0
178980,-100,4,2,1,60,0,0
179152,-100,4,2,1,50,0,0
179323,-100,4,2,1,70,0,0
179495,-100,4,2,1,60,0,0
179666,-100,4,2,1,70,0,0
179838,-100,4,2,1,60,0,0
180009,-100,4,2,1,70,0,0
181380,-100,4,2,1,90,0,1
197838,-100,4,2,1,80,0,0
207438,-100,4,2,1,40,0,0
208123,-100,4,2,1,50,0,0
208466,-100,4,2,1,60,0,0
208809,-100,4,2,1,80,0,0
212923,-100,4,2,1,40,0,0
213609,-100,4,2,1,50,0,0
213952,-100,4,2,1,60,0,0
214295,-100,4,2,1,80,0,0

[Colours]
Combo1 : 0,236,159
Combo2 : 255,174,235
Combo3 : 0,169,183
Combo4 : 132,0,0

[HitObjects]
81,84,5837,6,0,P|64:147|79:212,1,130,6|0,0:0|0:0,0:0:0:0:
155,313,6523,1,0,0:0:0:0:
285,313,6866,2,0,L|360:314,1,65,0|0,0:0|0:0,0:0:0:0:
403,276,7209,2,0,P|413:216|394:145,1,130,2|0,0:0|0:0,0:0:0:0:
349,103,7723,1,0,0:0:0:0:
221,77,8066,2,0,L|221:10,2,65,0|0|2,0:0|0:0|0:0,0:0:0:0:
176,124,8580,6,0,P|115:140|43:123,1,130,2|0,0:0|0:0,0:0:0:0:
49,257,9266,2,0,P|110:241|182:258,1,130,0|0,0:0|0:0,0:0:0:0:
289,316,9952,2,0,B|298:251|298:251|278:182|278:182|288:115,1,195,0|0,0:0|0:0,0:0:0:0:
335,82,10638,2,0,P|402:69|468:89,1,130,0|0,0:0|0:0,0:0:0:0:
462,214,11323,6,0,P|454:283|404:333,1,130,6|0,0:0|0:0,0:0:0:0:
337,221,12009,1,0,0:0:0:0:
323,91,12352,1,0,0:0:0:0:
189,91,12695,1,2,0:0:0:0:
175,221,13038,1,0,0:0:0:0:
96,326,13380,2,0,P|55:277|50:214,1,130,0|0,0:0|0:0,0:0:0:0:
47,147,13895,1,2,0:0:0:0:
48,82,14066,6,0,L|185:87,1,130,2|0,0:0|0:0,0:0:0:0:
230,125,14580,1,0,0:0:0:0:
284,160,14752,2,0,L|421:165,1,130,0|0,0:0|0:0,0:0:0:0:
498,263,15438,2,0,L|497:333,2,65,2|2|2,0:3|0:3|0:3,0:0:0:0:
383,324,16123,2,0,P|343:329|317:323,1,65,2|2,0:3|0:3,0:0:0:0:
262,291,16466,2,0,P|230:285|198:290,1,65,2|2,0:3|0:3,0:0:0:0:
139,319,16809,6,0,P|152:252|136:187,1,130,6|0,0:0|0:0,0:0:0:0:
73,79,17495,2,0,P|133:66|206:84,1,130,0|0,0:0|0:0,0:0:0:0:
250,120,18009,1,0,0:0:0:0:
264,183,18180,2,0,L|262:315,1,130,2|0,0:0|0:0,0:0:0:0:
307,360,18695,2,0,P|374:372|440:357,1,130,0|0,0:0|0:0,0:0:0:0:
475,309,19209,2,0,P|478:279|474:240,1,65,0|2,0:0|0:0,0:0:0:0:
441,188,19552,6,0,P|425:125|441:60,1,130,2|0,0:0|0:0,0:0:0:0:
318,110,20238,1,0,0:0:0:0:
188,110,20580,1,0,0:0:0:0:
76,47,20923,2,0,B|63:117|63:117|80:178|80:178|57:239|80:307,1,260,0|0,0:0|0:0,0:0:0:0:
201,343,21952,1,4,0:3:0:0:
265,342,22123,1,2,0:0:0:0:
323,311,22295,6,0,P|335:249|322:182,1,130,6|0,0:0|0:0,0:0:0:0:
280,134,22809,2,0,P|349:145|415:132,1,130,4|0,0:0|0:0,0:0:0:0:
457,92,23323,2,0,L|444:354,1,260,4|2,0:0|0:1,0:0:0:0:
261,281,24523,2,0,P|225:277|191:284,1,65,2|8,0:0|0:0,0:0:0:0:
134,300,24866,1,0,0:0:0:0:
70,283,25038,6,0,P|50:223|69:153,1,130,4|0,0:0|0:0,0:0:0:0:
116,119,25552,2,0,L|246:122,1,130,4|0,0:0|0:0,0:0:0:0:
300,157,26066,2,0,P|399:178|506:64,1,260,6|2,0:0|0:1,0:0:0:0:
376,47,27095,2,0,L|301:46,1,65,2|2,0:1|0:0,0:0:0:0:
245,47,27438,1,8,0:0:0:0:
129,106,27780,6,0,P|105:180|132:294,1,195,6|0,0:0|0:0,0:0:0:0:
179,335,28466,2,0,L|392:334,1,195,0|2,0:0|0:0,0:0:0:0:
427,296,29152,2,0,P|451:222|424:108,1,195,6|0,0:0|0:0,0:0:0:0:
376,67,29838,2,0,L|163:68,1,195,0|0,0:0|0:0,0:0:0:0:
125,101,30523,6,0,P|120:134|128:174,1,65,6|0,0:0|0:0,0:0:0:0:
140,228,30866,1,8,0:0:0:0:
232,318,31209,2,0,L|231:383,2,65,2|0|8,0:0|0:0|0:0,0:0:0:0:
321,222,31895,2,0,P|325:193|317:154,1,65,2|2,0:1|0:1,0:0:0:0:
271,112,32238,2,0,P|266:82|271:41,1,65,2|2,0:1|0:1,0:0:0:0:
325,16,32580,2,0,L|458:20,1,130,2|2,0:1|0:1,0:0:0:0:
506,139,33266,6,0,L|504:220,1,65,4|0,0:3|0:0,0:0:0:0:
501,269,33609,1,8,0:0:0:0:
378,312,33952,2,0,L|382:381,2,65,2|0|8,0:0|0:0|0:0,0:0:0:0:
251,278,34638,2,0,P|217:274|186:280,1,65,2|0,0:0|0:0,0:0:0:0:
129,309,34980,2,0,P|96:315|62:311,1,65,8|0,0:0|0:0,0:0:0:0:
7,281,35323,2,0,P|-9:221|11:148,1,130,2|8,0:0|0:0,0:0:0:0:
102,68,36009,6,0,L|172:67,1,65,6|0,0:0|0:0,0:0:0:0:
232,68,36352,1,8,0:0:0:0:
362,68,36695,2,0,L|431:68,2,65,2|0|8,0:0|0:0|0:0,0:0:0:0:
316,190,37380,2,0,P|312:226|319:260,1,65,2|2,0:1|0:1,0:0:0:0:
366,296,37723,2,0,L|436:295,1,65,2|2,0:1|0:1,0:0:0:0:
480,253,38066,2,0,B|490:191|490:191|479:118,1,130,2|6,0:1|0:3,0:0:0:0:
362,68,38752,6,0,L|291:68,1,65,2|0,0:0|0:0,0:0:0:0:
231,68,39095,1,8,0:0:0:0:
100,69,39438,2,0,L|46:26,2,65,2|0|8,0:0|0:0|0:0,0:0:0:0:
190,162,40123,2,0,P|195:193|190:235,1,65,2|0,0:0|0:0,0:0:0:0:
145,271,40466,2,0,P|142:303|147:342,1,65,8|0,0:0|0:0,0:0:0:0:
194,378,40809,2,0,L|329:372,1,130,2|8,0:0|0:0,0:0:0:0:
378,254,41495,6,0,L|309:257,1,65,2|0,0:0|0:0,0:0:0:0:
257,223,41838,2,0,L|188:226,1,65,8|0,0:0|0:0,0:0:0:0:
134,196,42180,2,0,P|118:147|134:69,1,130,2|8,0:0|0:0,0:0:0:0:
194,50,42695,1,0,0:0:0:0:
254,72,42866,2,0,P|285:76|329:69,1,65,2|0,0:0|0:0,0:0:0:0:
379,49,43209,2,0,P|411:45|443:49,1,65,8|0,0:0|0:0,0:0:0:0:
500,79,43552,2,0,L|496:228,1,130,2|8,0:0|0:0,0:0:0:0:
486,338,44238,6,0,P|454:344|415:337,1,65,2|0,0:0|0:0,0:0:0:0:
376,293,44580,2,0,L|378:215,1,65,8|0,0:0|0:0,0:0:0:0:
351,168,44923,2,0,P|298:154|224:166,1,130,2|8,0:0|0:0,0:0:0:0:
173,206,45438,1,0,0:0:0:0:
152,267,45609,2,0,L|154:334,1,65,2|0,0:0|0:0,0:0:0:0:
103,373,45952,2,0,P|71:377|31:370,1,65,8|0,0:0|0:0,0:0:0:0:
0,319,46295,2,0,B|-13:259|-13:259|1:185,1,130,2|8,0:0|0:0,0:0:0:0:
80,89,46980,6,0,P|114:86|146:89,1,65,2|0,0:0|0:0,0:0:0:0:
202,118,47323,2,0,P|234:120|266:117,1,65,8|0,0:0|0:0,0:0:0:0:
324,88,47666,2,0,P|309:154|331:226,1,130,2|8,0:0|0:0,0:0:0:0:
353,271,48180,1,0,0:0:0:0:
324,329,48352,2,0,P|293:332|249:326,1,65,2|0,0:0|0:0,0:0:0:0:
205,291,48695,2,0,P|172:287|140:290,1,65,8|0,0:0|0:0,0:0:0:0:
85,325,49038,2,0,P|70:269|86:195,1,130,2|8,0:0|0:0,0:0:0:0:
195,133,49723,6,0,L|265:136,1,65,2|0,0:0|0:0,0:0:0:0:
302,185,50066,2,0,P|306:220|302:254,1,65,8|0,0:0|0:0,0:0:0:0:
284,312,50409,2,0,P|348:326|413:310,1,130,2|8,0:0|0:0,0:0:0:0:
465,278,50923,1,0,0:0:0:0:
481,214,51095,2,0,L|479:145,1,65,2|0,0:0|0:0,0:0:0:0:
455,88,51438,2,0,P|423:82|383:89,1,65,8|0,0:0|0:0,0:0:0:0:
333,116,51780,2,0,B|271:129|271:129|196:117,1,130,2|8,0:0|0:0,0:0:0:0:
74,121,52466,6,0,L|5:121,2,65,6|6|6,0:0|0:0|0:0,0:0:0:0:
121,166,52980,1,0,0:0:0:0:
168,211,53152,2,0,P|181:260|166:338,1,130,0|8,0:0|0:0,0:0:0:0:
116,378,53666,2,0,L|254:372,1,130,0|0,0:0|0:0,0:0:0:0:
357,304,54352,2,0,L|491:308,1,130,0|8,0:0|0:0,0:0:0:0:
442,185,55038,6,0,L|366:182,2,65,6|6|6,0:0|0:0|0:0,0:0:0:0:
489,140,55552,2,0,P|496:108|491:70,1,65,8|0,0:0|0:0,0:0:0:0:
461,19,55895,1,0,0:0:0:0:
330,24,56238,1,8,0:0:0:0:
330,24,56409,2,0,L|191:27,1,130,0|0,0:0|0:0,0:0:0:0:
92,101,57095,1,0,0:0:0:0:
92,101,57266,2,0,P|80:176|96:231,1,130,0|6,0:0|0:0,0:0:0:0:
209,288,57952,6,0,L|292:286,1,65,6|6,0:0|0:0,0:0:0:0:
325,246,58295,2,0,P|329:211|321:175,1,65,8|0,0:0|0:0,0:0:0:0:
271,142,58638,2,0,P|252:87|273:16,1,130,0|8,0:0|0:0,0:0:0:0:
333,36,59152,2,0,B|399:45|399:45|463:35,1,130,0|0,0:0|0:0,0:0:0:0:
510,156,59838,2,0,P|526:212|502:296,1,130,0|8,0:0|0:0,0:0:0:0:
396,219,60523,2,0,L|396:154,2,65,2|6|6,0:0|0:0|0:0,0:0:0:0:
366,277,61038,6,0,P|337:280|295:277,1,65,8|0,0:0|0:0,0:0:0:0:
238,263,61380,1,0,0:0:0:0:
181,149,61723,1,8,0:0:0:0:
181,149,61895,2,0,L|190:18,1,130,0|0,0:0|0:0,0:0:0:0:
64,54,62580,1,0,0:0:0:0:
64,54,62752,2,0,L|66:198,1,130,0|0,0:0|0:0,0:0:0:0:
72,314,63438,6,0,B|134:324|134:324|204:310,1,130,6|0,0:0|0:0,0:0:0:0:
253,273,63952,2,0,B|318:259|318:259|380:269,1,130,6|0,0:0|0:0,0:0:0:0:
431,310,64466,2,0,P|413:250|434:181,1,130,6|0,0:0|0:0,0:0:0:0:
489,158,64980,2,0,P|506:96|488:34,1,130,6|0,0:0|0:0,0:0:0:0:
425,15,65495,1,6,0:0:0:0:
313,82,65838,1,6,0:0:0:0:
199,18,66180,6,0,L|123:17,1,65,6|2,0:0|0:3,0:0:0:0:
74,44,66523,2,0,P|69:76|76:116,1,65,2|2,0:3|0:3,0:0:0:0:
109,162,66866,2,0,P|112:192|107:231,1,65,2|2,0:3|0:3,0:0:0:0:
82,286,67209,1,2,0:3:0:0:
177,374,67552,6,0,L|242:374,1,65,2|2,0:3|0:3,0:0:0:0:
284,324,67895,2,0,L|352:324,1,65,2|2,0:3|0:3,0:0:0:0:
393,276,68238,2,0,L|464:275,2,65,2|2|4,0:3|0:3|0:3,0:0:0:0:
286,200,68923,6,0,P|268:140|287:74,1,130,6|8,0:0|0:0,0:0:0:0:
415,77,69609,2,0,P|433:137|414:203,1,130,2|8,0:0|0:0,0:0:0:0:
369,246,70123,1,0,0:0:0:0:
318,287,70295,2,0,L|182:280,1,130,2|8,0:0|0:0,0:0:0:0:
122,278,70809,1,0,0:0:0:0:
21,195,71152,2,0,P|16:161|26:115,1,65,0|8,0:0|0:0,0:0:0:0:
81,107,71495,1,0,0:0:0:0:
141,128,71666,6,0,L|281:128,1,130,2|8,0:0|0:0,0:0:0:0:
386,188,72352,2,0,P|448:204|510:188,1,130,2|8,0:0|0:0,0:0:0:0:
446,74,73038,2,0,P|363:43|253:79,1,195,2|0,0:0|0:0,0:0:0:0:
208,104,73723,2,0,L|212:234,1,130,2|8,0:0|0:0,0:0:0:0:
277,346,74409,6,0,P|213:367|144:351,1,130,2|8,0:0|0:0,0:0:0:0:
70,254,75095,1,2,0:0:0:0:
69,123,75438,1,8,0:0:0:0:
152,22,75780,2,0,P|216:11|277:32,1,130,2|8,0:0|0:0,0:0:0:0:
369,122,76466,2,0,L|502:118,1,130,2|8,0:0|0:0,0:0:0:0:
452,238,77152,6,0,L|241:248,1,195,2|0,0:0|0:0,0:0:0:0:
225,190,77838,2,0,P|207:128|227:62,1,130,2|8,0:0|0:0,0:0:0:0:
345,19,78523,2,0,L|418:19,1,65,6|2,0:0|0:3,0:0:0:0:
462,57,78866,2,0,P|465:85|460:130,1,65,6|2,0:0|0:3,0:0:0:0:
408,158,79209,2,0,B|404:192|404:192|413:235,1,65,6|2,0:0|0:3,0:0:0:0:
461,262,79552,2,0,P|465:294|462:327,1,65,6|2,0:0|0:3,0:0:0:0:
412,369,79895,6,0,L|280:366,1,130,6|8,0:0|0:0,0:0:0:0:
257,238,80580,2,0,L|127:241,1,130,2|8,0:0|0:0,0:0:0:0:
61,241,81095,1,0,0:0:0:0:
19,191,81266,2,0,P|-1:133|20:65,1,130,2|8,0:0|0:0,0:0:0:0:
61,20,81780,1,0,0:0:0:0:
168,93,82123,2,0,L|167:166,2,65,0|8|0,0:0|0:0|0:0,0:0:0:0:
220,53,82638,6,0,P|284:40|349:54,1,130,2|8,0:0|0:0,0:0:0:0:
432,150,83323,2,0,L|429:289,1,130,2|8,0:0|0:0,0:0:0:0:
315,343,84009,2,0,L|319:267,1,65,2|0,0:0|0:0,0:0:0:0:
297,216,84352,2,0,L|301:140,1,65,8|0,0:0|0:0,0:0:0:0:
301,85,84695,1,2,0:0:0:0:
181,33,85038,2,0,P|147:28|108:38,1,65,4|0,0:3|0:0,0:0:0:0:
63,69,85380,6,0,L|67:207,1,130,6|0,0:0|0:0,0:0:0:0:
93,258,85895,2,0,P|159:272|223:249,1,130,6|0,0:0|0:0,0:0:0:0:
270,216,86409,2,0,P|335:176|505:228,1,260,6|2,0:0|0:1,0:0:0:0:
352,350,87609,2,0,L|276:349,1,65,2|8,0:0|0:0,0:0:0:0:
221,349,87952,1,0,0:0:0:0:
167,312,88123,6,0,P|151:250|172:181,1,130,6|0,0:0|0:0,0:0:0:0:
229,166,88638,2,0,L|358:166,1,130,6|0,0:0|0:0,0:0:0:0:
409,125,89152,2,0,P|361:51|192:50,1,260,6|2,0:0|0:1,0:0:0:0:
93,116,90180,2,0,L|92:189,1,65,2|2,0:1|0:0,0:0:0:0:
91,246,90523,1,8,0:0:0:0:
185,335,90866,6,0,P|262:366|380:328,1,195,4|0,0:0|0:0,0:0:0:0:
409,288,91552,2,0,B|384:192|384:192|409:89,1,195,0|2,0:0|0:0,0:0:0:0:
366,45,92238,2,0,P|275:17|185:49,1,195,6|0,0:0|0:0,0:0:0:0:
141,97,92923,2,0,B|163:190|163:190|138:286,1,195,4|0,0:0|0:0,0:0:0:0:
256,192,93609,12,4,96352,0:3:0:0:
72,39,104580,6,0,L|76:118,1,65,6|0,0:0|0:0,0:0:0:0:
100,163,104923,2,0,L|95:253,1,65,8|0,0:0|0:0,0:0:0:0:
98,293,105266,2,0,P|161:305|231:288,1,130,2|8,0:0|0:0,0:0:0:0:
278,254,105780,1,0,0:0:0:0:
288,189,105952,2,0,L|287:110,1,65,2|0,0:0|0:0,0:0:0:0:
314,64,106295,2,0,P|344:60|385:66,1,65,8|0,0:0|0:0,0:0:0:0:
436,93,106638,2,0,P|451:154|434:225,1,130,2|8,0:0|0:0,0:0:0:0:
363,326,107323,6,0,L|297:325,1,65,2|0,0:0|0:0,0:0:0:0:
255,275,107666,2,0,P|251:245|257:200,1,65,8|0,0:0|0:0,0:0:0:0:
295,160,108009,2,0,P|307:96|289:27,1,130,2|8,0:0|0:0,0:0:0:0:
230,14,108523,1,0,0:0:0:0:
168,35,108695,2,0,P|140:40|96:34,1,65,2|0,0:0|0:0,0:0:0:0:
40,22,109038,2,0,L|44:95,1,65,8|0,0:0|0:0,0:0:0:0:
75,143,109380,2,0,L|65:280,1,130,2|8,0:0|0:0,0:0:0:0:
166,355,110066,6,0,P|202:358|232:354,1,65,2|0,0:0|0:0,0:0:0:0:
290,328,110409,2,0,P|321:323|359:330,1,65,8|0,0:0|0:0,0:0:0:0:
414,351,110752,2,0,P|395:294|416:224,1,130,2|8,0:0|0:0,0:0:0:0:
436,168,111265,1,0,0:0:0:0:
414,106,111438,2,0,P|380:101|346:106,1,65,2|0,0:0|0:0,0:0:0:0:
293,136,111780,2,0,P|259:140|222:134,1,65,8|0,0:0|0:0,0:0:0:0:
170,107,112123,2,0,P|100:92|31:113,1,130,2|8,0:0|0:0,0:0:0:0:
9,231,112809,6,0,L|10:297,1,65,2|0,0:0|0:0,0:0:0:0:
47,349,113152,2,0,P|85:353|115:346,1,65,8|0,0:0|0:0,0:0:0:0:
161,305,113495,2,0,B|170:242|170:242|159:172,1,130,2|8,0:0|0:0,0:0:0:0:
134,116,114008,1,0,0:0:0:0:
162,57,114180,2,0,P|194:52|232:59,1,65,2|0,0:0|0:0,0:0:0:0:
285,83,114523,2,0,P|317:87|349:82,1,65,8|0,0:0|0:0,0:0:0:0:
408,55,114866,2,0,P|423:114|409:185,1,130,2|8,0:0|0:0,0:0:0:0:
315,270,115552,6,0,L|315:341,2,65,6|6|6,0:0|0:0|0:0,0:0:0:0:
266,226,116066,1,0,0:0:0:0:
216,183,116238,2,0,P|198:122|218:53,1,130,0|8,0:0|0:0,0:0:0:0:
263,15,116752,2,0,L|125:18,1,130,0|0,0:0|0:0,0:0:0:0:
35,104,117438,2,0,L|39:238,1,130,0|8,0:0|0:0,0:0:0:0:
150,300,118123,6,0,L|152:366,2,65,6|6|6,0:0|0:0|0:0,0:0:0:0:
205,265,118638,2,0,P|266:252|336:267,1,130,8|0,0:0|0:0,0:0:0:0:
439,337,119323,1,8,0:0:0:0:
439,337,119495,2,0,L|446:199,1,130,0|0,0:0|0:0,0:0:0:0:
399,85,120180,1,0,0:0:0:0:
399,85,120352,2,0,P|332:70|267:85,1,130,0|6,0:0|0:0,0:0:0:0:
147,118,121038,6,0,L|75:119,1,65,6|6,0:0|0:0,0:0:0:0:
36,164,121380,2,0,P|32:204|40:240,1,65,8|0,0:0|0:0,0:0:0:0:
78,277,121723,2,0,L|207:276,1,130,0|8,0:0|0:0,0:0:0:0:
251,227,122238,2,0,P|263:167|245:94,1,130,0|0,0:0|0:0,0:0:0:0:
358,31,122923,2,0,B|424:40|424:40|488:30,1,130,0|8,0:0|0:0,0:0:0:0:
431,148,123609,6,0,L|362:148,2,65,6|6|6,0:0|0:0|0:0,0:0:0:0:
487,181,124123,2,0,P|491:218|487:255,1,65,8|0,0:0|0:0,0:0:0:0:
472,308,124466,1,0,0:0:0:0:
357,368,124809,1,8,0:0:0:0:
357,368,124980,2,0,L|217:364,1,130,0|0,0:0|0:0,0:0:0:0:
156,254,125666,1,0,0:0:0:0:
156,254,125838,2,0,L|289:259,1,130,0|8,0:0|0:0,0:0:0:0:
413,233,126523,6,0,P|428:166|407:102,1,130,6|0,0:0|0:0,0:0:0:0:
375,53,127038,2,0,L|243:57,1,130,6|0,0:0|0:0,0:0:0:0:
206,109,127552,2,0,B|145:119|145:119|73:110,1,130,6|0,0:0|0:0,0:0:0:0:
16,88,128066,2,0,P|0:151|19:215,1,130,6|0,0:0|0:0,0:0:0:0:
62,259,128580,1,2,0:0:0:0:
173,326,128923,1,2,0:0:0:0:
286,261,129266,6,0,L|352:261,1,65,2|2,0:3|0:3,0:0:0:0:
407,293,129609,2,0,P|443:297|475:292,1,65,2|2,0:3|0:3,0:0:0:0:
506,237,129952,2,0,L|502:169,1,65,2|2,0:3|0:3,0:0:0:0:
499,106,130295,1,2,0:3:0:0:
403,17,130638,6,0,P|363:11|330:17,1,65,2|2,0:3|0:3,0:0:0:0:
301,67,130980,2,0,L|307:143,1,65,2|2,0:3|0:3,0:0:0:0:
273,188,131323,2,0,L|279:264,2,65,2|2|4,0:3|0:3|0:3,0:0:0:0:
165,116,132009,6,0,P|101:99|35:116,1,130,6|8,0:0|0:0,0:0:0:0:
41,243,132695,2,0,P|105:260|171:243,1,130,2|8,0:0|0:0,0:0:0:0:
223,215,133209,1,0,0:0:0:0:
280,180,133380,2,0,P|342:165|404:182,1,130,2|8,0:0|0:0,0:0:0:0:
459,219,133895,1,0,0:0:0:0:
392,330,134238,2,0,L|322:330,1,65,0|8,0:0|0:0,0:0:0:0:
266,306,134580,1,0,0:0:0:0:
205,330,134752,6,0,P|135:345|76:330,1,130,2|8,0:0|0:0,0:0:0:0:
14,218,135438,2,0,L|16:83,1,130,2|8,0:0|0:0,0:0:0:0:
116,170,136123,2,0,P|184:201|285:117,1,195,2|0,0:0|0:0,0:0:0:0:
327,98,136809,2,0,L|461:102,1,130,2|8,0:0|0:0,0:0:0:0:
484,229,137495,6,0,P|460:297|409:323,1,130,2|8,0:0|0:0,0:0:0:0:
322,227,138180,1,2,0:0:0:0:
191,228,138523,1,8,0:0:0:0:
100,322,138866,2,0,P|45:289|28:229,1,130,2|8,0:0|0:0,0:0:0:0:
90,114,139552,2,0,L|224:119,1,130,2|8,0:0|0:0,0:0:0:0:
323,39,140238,6,0,P|413:36|481:118,1,195,2|0,0:0|0:0,0:0:0:0:
476,174,140923,2,0,L|471:311,1,130,2|8,0:0|0:0,0:0:0:0:
346,341,141609,2,0,L|347:271,1,65,6|2,0:0|0:3,0:0:0:0:
323,215,141952,2,0,L|324:145,1,65,6|2,0:0|0:3,0:0:0:0:
282,99,142295,2,0,P|250:94|212:100,1,65,6|2,0:0|0:3,0:0:0:0:
163,134,142638,2,0,P|131:138|95:133,1,65,6|2,0:0|0:3,0:0:0:0:
43,99,142980,6,0,P|57:166|39:235,1,130,6|8,0:0|0:0,0:0:0:0:
93,345,143666,2,0,L|225:345,1,130,2|8,0:0|0:0,0:0:0:0:
288,346,144180,1,0,0:0:0:0:
341,308,144352,2,0,P|353:252|334:181,1,130,2|8,0:0|0:0,0:0:0:0:
289,135,144866,1,0,0:0:0:0:
198,42,145209,2,0,L|127:41,2,65,0|8|0,0:0|0:0|0:0,0:0:0:0:
260,22,145723,6,0,L|389:22,1,130,2|8,0:0|0:0,0:0:0:0:
487,109,146409,2,0,P|503:168|490:241,1,130,2|8,0:0|0:0,0:0:0:0:
404,331,147095,2,0,P|369:337|331:330,1,65,2|0,0:0|0:0,0:0:0:0:
280,306,147438,2,0,P|247:302|214:307,1,65,8|0,0:0|0:0,0:0:0:0:
158,336,147780,1,2,0:0:0:0:
103,218,148123,2,0,L|104:154,1,65,4|0,0:3|0:0,0:0:0:0:
141,99,148466,6,0,P|201:81|272:101,1,130,6|0,0:0|0:0,0:0:0:0:
322,126,148980,2,0,P|384:141|445:123,1,130,6|0,0:0|0:0,0:0:0:0:
501,89,149495,2,0,L|490:362,1,260,6|2,0:0|0:1,0:0:0:0:
318,256,150695,2,0,L|321:175,1,65,2|8,0:0|0:0,0:0:0:0:
322,126,151038,1,0,0:0:0:0:
284,73,151209,6,0,P|221:61|152:77,1,130,6|0,0:0|0:0,0:0:0:0:
116,125,151723,2,0,L|121:255,1,130,6|0,0:0|0:0,0:0:0:0:
128,320,152238,2,0,B|208:312|208:312|294:329|294:329|389:316,1,260,6|2,0:0|0:1,0:0:0:0:
454,206,153266,2,0,L|454:129,1,65,2|2,0:1|0:0,0:0:0:0:
454,75,153609,1,8,0:0:0:0:
329,38,153952,6,0,P|251:66|139:40,1,195,6|0,0:0|0:0,0:0:0:0:
85,14,154638,2,0,B|107:103|107:103|85:212,1,195,4|2,0:0|0:0,0:0:0:0:
44,253,155323,2,0,P|130:224|230:251,1,195,6|0,0:0|0:0,0:0:0:0:
272,298,156009,2,0,P|364:324|456:294,1,195,4|0,0:0|0:0,0:0:0:0:
256,192,156695,12,6,159438,0:0:0:0:
257,192,160123,5,2,0:0:0:0:
362,115,160466,1,8,0:0:0:0:
362,115,160638,2,0,P|426:100|492:119,1,130,0|0,0:0|0:0,0:0:0:0:
488,246,161323,1,0,0:0:0:0:
431,279,161495,2,0,P|396:285|363:280,1,65,2|0,0:0|0:0,0:0:0:0:
308,252,161838,1,8,0:0:0:0:
193,190,162180,5,2,0:0:0:0:
194,320,162523,1,8,0:0:0:0:
80,256,162866,2,0,P|62:195|82:125,1,130,2|8,0:0|0:0,0:0:0:0:
130,93,163380,2,0,L|260:92,1,130,0|0,0:0|0:0,0:0:0:0:
390,93,164066,1,0,0:0:0:0:
420,150,164238,2,0,P|424:184|419:222,1,65,2|0,0:0|0:0,0:0:0:0:
388,270,164580,1,4,0:3:0:0:
284,348,164923,5,6,0:0:0:0:
282,217,165266,1,8,0:0:0:0:
281,86,165609,1,2,0:0:0:0:
163,29,165952,1,8,0:0:0:0:
163,29,166123,2,0,P|99:16|24:34,1,130,0|0,0:0|0:0,0:0:0:0:
7,155,166809,1,0,0:0:0:0:
9,219,166980,2,0,L|11:288,1,65,2|0,0:0|0:0,0:0:0:0:
12,349,167323,1,8,0:0:0:0:
116,271,167666,5,2,0:0:0:0:
221,346,168009,1,8,0:0:0:0:
221,215,168352,2,0,P|284:202|351:216,1,130,2|8,0:0|0:0,0:0:0:0:
408,236,168866,1,0,0:0:0:0:
469,213,169038,2,0,L|469:138,1,65,6|0,0:0|0:0,0:0:0:0:
445,87,169380,2,0,P|411:83|369:90,1,65,6|0,0:0|0:0,0:0:0:0:
319,108,169723,2,0,P|286:111|254:107,1,65,6|4,0:0|0:3,0:0:0:0:
192,86,170066,1,6,0:0:0:0:
61,84,170409,5,6,0:0:0:0:
23,167,175895,6,0,P|8:234|29:298,1,130,6|0,0:0|0:0,0:0:0:0:
61,347,176409,2,0,L|193:343,1,130,6|0,0:0|0:0,0:0:0:0:
240,300,176923,2,0,B|301:290|301:290|373:299,1,130,6|0,0:0|0:0,0:0:0:0:
415,343,177438,2,0,P|398:280|416:216,1,130,6|0,0:0|0:0,0:0:0:0:
456,169,177952,1,6,0:0:0:0:
350,92,178295,1,6,0:0:0:0:
246,170,178638,6,0,P|214:174|180:170,1,65,6|2,0:0|0:3,0:0:0:0:
132,127,178980,2,0,P|104:123|66:126,1,65,2|2,0:3|0:3,0:0:0:0:
28,178,179323,2,0,B|25:210|25:210|29:253,1,65,2|2,0:3|0:3,0:0:0:0:
61,298,179666,1,2,0:3:0:0:
184,258,180009,2,0,L|259:262,1,65,2|2,0:3|0:3,0:0:0:0:
297,217,180352,2,0,L|372:221,1,65,2|2,0:3|0:3,0:0:0:0:
401,168,180695,2,0,L|476:172,2,65,2|2|2,0:3|0:3|0:3,0:0:0:0:
352,47,181380,6,0,L|220:51,1,130,4|8,0:3|0:0,0:0:0:0:
296,157,182066,2,0,L|428:153,1,130,2|8,0:0|0:0,0:0:0:0:
483,182,182580,1,0,0:0:0:0:
510,241,182752,2,0,P|508:308|464:353,1,130,2|8,0:0|0:0,0:0:0:0:
404,370,183266,1,0,0:0:0:0:
306,283,183609,2,0,L|228:281,1,65,0|8,0:0|0:0,0:0:0:0:
180,304,183951,1,0,0:0:0:0:
119,280,184123,6,0,P|104:221|122:151,1,130,2|8,0:0|0:0,0:0:0:0:
219,70,184809,2,0,L|355:74,1,130,2|8,0:0|0:0,0:0:0:0:
459,143,185495,2,0,P|399:195|287:179,1,195,2|0,0:0|0:0,0:0:0:0:
228,160,186180,2,0,L|90:156,1,130,2|8,0:0|0:0,0:0:0:0:
28,266,186866,6,0,B|59:323|59:323|126:353,1,130,2|8,0:0|0:0,0:0:0:0:
191,241,187552,1,2,0:0:0:0:
321,241,187895,1,8,0:0:0:0:
393,349,188238,2,0,B|453:323|453:323|484:266,1,130,2|8,0:0|0:0,0:0:0:0:
484,135,188923,2,0,B|453:78|453:78|393:51,1,130,2|8,0:0|0:0,0:0:0:0:
330,165,189609,6,0,P|248:181|175:103,1,195,2|0,0:0|0:0,0:0:0:0:
149,47,190295,2,0,P|89:31|15:50,1,130,2|8,0:0|0:0,0:0:0:0:
1,173,190980,2,0,L|4:246,1,65,6|2,0:0|0:3,0:0:0:0:
47,285,191323,2,0,P|77:290|112:285,1,65,6|2,0:0|0:3,0:0:0:0:
160,242,191666,2,0,P|192:237|224:242,1,65,6|2,0:0|0:3,0:0:0:0:
272,285,192009,2,0,P|302:290|337:285,1,65,6|2,0:0|0:3,0:0:0:0:
378,235,192352,6,0,L|370:100,1,130,6|8,0:0|0:0,0:0:0:0:
494,144,193038,2,0,L|502:279,1,130,2|8,0:0|0:0,0:0:0:0:
479,335,193552,1,0,0:0:0:0:
421,365,193723,2,0,P|356:376|280:358,1,130,2|8,0:0|0:0,0:0:0:0:
235,334,194238,1,0,0:0:0:0:
161,227,194580,2,0,L|162:156,2,65,0|8|0,0:0|0:0|0:0,0:0:0:0:
115,273,195095,6,0,P|56:289|-13:272,1,130,2|8,0:0|0:0,0:0:0:0:
53,160,195780,2,0,L|53:28,1,130,2|8,0:0|0:0,0:0:0:0:
167,93,196466,2,0,P|208:97|234:92,1,65,2|0,0:0|0:0,0:0:0:0:
289,62,196809,2,0,P|321:57|353:61,1,65,8|0,0:0|0:0,0:0:0:0:
407,97,197152,1,2,0:0:0:0:
467,212,197495,2,0,L|467:283,1,65,4|0,0:3|0:0,0:0:0:0:
422,324,197838,6,0,P|358:340|292:328,1,130,6|0,0:0|0:0,0:0:0:0:
259,275,198352,2,0,L|259:138,1,130,6|0,0:0|0:0,0:0:0:0:
222,91,198866,2,0,P|118:78|40:195,1,260,6|2,0:0|0:1,0:0:0:0:
162,347,200066,2,0,L|229:346,1,65,2|8,0:0|0:0,0:0:0:0:
292,346,200409,1,0,0:0:0:0:
344,308,200580,6,0,P|357:249|338:181,1,130,6|0,0:0|0:0,0:0:0:0:
288,140,201095,2,0,L|156:143,1,130,6|0,0:0|0:0,0:0:0:0:
99,114,201609,2,0,P|60:200|107:363,1,260,6|2,0:0|0:1,0:0:0:0:
225,320,202638,2,0,L|225:241,1,65,2|2,0:1|0:0,0:0:0:0:
224,190,202980,1,8,0:0:0:0:
266,65,203323,6,0,P|341:37|454:71,1,195,6|0,0:0|0:0,0:0:0:0:
430,129,204009,2,0,B|407:220|407:220|436:325,1,195,4|2,0:0|0:0,0:0:0:0:
471,371,204695,2,0,L|274:366,1,195,6|0,0:0|0:0,0:0:0:0:
235,315,205380,2,0,P|203:250|237:131,1,195,4|0,0:0|0:0,0:0:0:0:
278,89,206066,6,0,L|359:89,1,65,6|0,0:0|0:0,0:0:0:0:
408,89,206409,1,8,0:0:0:0:
455,209,206752,2,0,L|519:209,2,65,2|0|8,0:0|0:0|0:0,0:0:0:0:
413,332,207438,2,0,P|372:336|340:331,1,65,2|2,0:3|0:1,0:0:0:0:
298,291,207780,2,0,L|298:221,1,65,2|2,0:1|0:1,0:0:0:0:
271,166,208123,2,0,P|207:153|144:166,1,130,2|2,0:3|0:1,0:0:0:0:
34,236,208809,6,0,L|36:302,1,65,4|0,0:3|0:0,0:0:0:0:
39,366,209152,1,8,0:0:0:0:
146,292,209495,2,0,L|211:292,2,65,2|0|8,0:0|0:0|0:0,0:0:0:0:
102,169,210180,2,0,P|98:136|103:98,1,65,2|0,0:0|0:0,0:0:0:0:
143,54,210523,2,0,L|212:54,1,65,8|0,0:0|0:0,0:0:0:0:
262,90,210866,2,0,P|323:104|387:88,1,130,2|8,0:0|0:0,0:0:0:0:
485,173,211552,6,0,L|485:245,1,65,2|0,0:0|0:0,0:0:0:0:
486,303,211895,1,8,0:0:0:0:
370,243,212238,2,0,L|370:178,2,65,2|0|8,0:0|0:0|0:0,0:0:0:0:
258,309,212923,2,0,P|226:314|186:308,1,65,2|2,0:1|0:1,0:0:0:0:
152,259,213266,2,0,L|152:195,1,65,2|2,0:3|0:1,0:0:0:0:
126,133,213609,2,0,P|64:118|-1:135,1,130,2|4,0:1|0:3,0:0:0:0:
63,248,214295,6,0,L|63:319,1,65,2|0,0:0|0:0,0:0:0:0:
63,378,214638,1,8,0:0:0:0:
175,312,214980,2,0,L|175:247,2,65,2|0|8,0:0|0:0|0:0,0:0:0:0:
289,375,215666,2,0,L|359:375,1,65,2|0,0:0|0:0,0:0:0:0:
404,333,216009,2,0,P|407:301|398:255,1,65,8|0,0:0|0:0,0:0:0:0:
359,219,216352,2,0,P|342:158|359:89,1,130,2|8,0:0|0:0,0:0:0:0:
398,44,216866,1,0,0:0:0:0:
398,44,217038,6,0,P|337:61|269:47,1,130,6|0,0:0|0:0,0:0:0:0:
213,21,217552,2,0,L|218:160,1,130,6|0,0:0|0:0,0:0:0:0:
222,215,218066,2,0,B|297:206|297:206|391:232|391:232|488:217,1,260,6|2,0:0|0:1,0:0:0:0:
314,326,219266,2,0,L|244:326,1,65,2|8,0:0|0:0,0:0:0:0:
183,327,219609,1,0,0:0:0:0:
133,284,219780,6,0,P|113:227|132:155,1,130,6|0,0:0|0:0,0:0:0:0:
166,107,220295,2,0,B|228:97|228:97|298:109,1,130,6|0,0:0|0:0,0:0:0:0:
349,143,220809,2,0,B|413:183|473:154|473:154|530:93|491:12,1,260
369,24,221838,2,0,L|293:24,1,65,0|2,0:1|0:0,0:0:0:0:
239,25,222180,1,8,0:0:0:0:
115,65,222523,6,0,P|85:151|130:254,1,195,6|0,0:0|0:0,0:0:0:0:
162,294,223209,2,0,B|255:275|255:275|353:292,1,195,4|2,0:0|0:0,0:0:0:0:
391,244,223895,2,0,P|426:155|397:65,1,195,6|0,0:0|0:0,0:0:0:0:
353,17,224580,2,0,B|255:34|255:34|161:17,1,195,4|4,0:0|0:3,0:0:0:0:
256,192,225266,12,0,231438,0:0:0:0:
