osu file format v14

[General]
AudioFilename: FLAGS.mp3
AudioLeadIn: 0
PreviewTime: 131923
Countdown: 0
SampleSet: Soft
StackLeniency: 0.7
Mode: 0
LetterboxInBreaks: 1
WidescreenStoryboard: 1

[Editor]
Bookmarks: 72352,96352,104580,170409,175895
DistanceSpacing: 1.3
BeatDivisor: 2
GridSize: 4
TimelineZoom: 1.7

[Metadata]
Title:FLAGS
TitleUnicode:FLAGS
Artist:T.M.Revolution
ArtistUnicode:T.M.Revolution
Creator:P A N
Version:Advanced
Source:Sengoku Basara: The Last Party
Tags:xinely natsu euny
BeatmapID:927674
BeatmapSetID:395160

[Difficulty]
HPDrainRate:5
CircleSize:3.5
OverallDifficulty:6
ApproachRate:7
SliderMultiplier:1.4
SliderTickRate:1

[Events]
//Background and Video events
0,0,"dddddddddddd.jpg",0,0
//Break Periods
2,96552,103680
2,170608,174995
//Storyboard Layer 0 (Background)
//Storyboard Layer 1 (Fail)
//Storyboard Layer 2 (Pass)
//Storyboard Layer 3 (Foreground)
//Storyboard Sound Samples

[TimingPoints]
5838,342.857142857143,4,2,1,70,1,0
5838,-100,4,2,1,70,0,0
15609,-100,4,2,1,40,0,0
15780,-100,4,2,1,70,0,0
15952,-100,4,2,1,40,0,0
16123,-100,4,2,1,70,0,0
16295,-100,4,2,1,40,0,0
16466,-100,4,2,1,70,0,0
16638,-100,4,2,1,40,0,0
16809,-100,4,2,1,70,0,0
30523,-100,4,2,1,80,0,0
31895,-100,4,2,1,50,0,0
32580,-100,4,2,1,60,0,0
32923,-100,4,2,1,70,0,0
33266,-100,4,2,1,80,0,0
37380,-100,4,2,1,50,0,0
38066,-100,4,2,1,60,0,0
38409,-100,4,2,1,70,0,0
38752,-100,4,2,1,80,0,0
41495,-100,4,2,1,60,0,0
42180,-100,4,2,1,60,0,0
52980,-100,4,2,1,50,0,0
55038,-100,4,2,1,70,0,0
55552,-100,4,2,1,50,0,0
57609,-100,4,2,1,70,0,0
58295,-100,4,2,1,50,0,0
60523,-100,4,2,1,70,0,0
61038,-100,4,2,1,50,0,0
63438,-100,4,2,1,70,0,0
65495,-100,4,2,1,60,0,0
66352,-100,4,2,1,50,0,0
66523,-100,4,2,1,60,0,0
66695,-100,4,2,1,50,0,0
66866,-100,4,2,1,70,0,0
67038,-100,4,2,1,60,0,0
67209,-100,4,2,1,70,0,0
67380,-100,4,2,1,60,0,0
67552,-100,4,2,1,70,0,0
67723,-100,4,2,1,60,0,0
68923,-100,4,2,1,90,0,1
85380,-100,4,2,1,80,0,0
94980,-100,4,2,1,50,0,0
95666,-100,4,2,1,60,0,0
96009,-100,4,2,1,70,0,0
96352,-100,4,2,1,80,0,0
100466,-100,4,2,1,50,0,0
101152,-100,4,2,1,60,0,0
101495,-100,4,2,1,70,0,0
101838,-100,4,2,1,80,0,0
104580,-100,4,2,1,60,0,0
105266,-100,4,2,1,60,0,0
116238,-100,4,2,1,50,0,0
118123,-100,4,2,1,70,0,0
118638,-100,4,2,1,50,0,0
120695,-100,4,2,1,70,0,0
121380,-100,4,2,1,50,0,0
123609,-100,4,2,1,70,0,0
124123,-100,4,2,1,50,0,0
126523,-100,4,2,1,70,0,0
128580,-100,4,2,1,90,0,0
129438,-100,4,2,1,50,0,0
129609,-100,4,2,1,60,0,0
129780,-100,4,2,1,50,0,0
129952,-100,4,2,1,70,0,0
130123,-100,4,2,1,60,0,0
130295,-100,4,2,1,70,0,0
130466,-100,4,2,1,60,0,0
130638,-100,4,2,1,90,0,0
132009,-100,4,2,1,90,0,1
148466,-100,4,2,1,80,0,0
170409,-100,4,2,1,60,0,0
178809,-100,4,2,1,50,0,0
178980,-100,4,2,1,60,0,0
179152,-100,4,2,1,50,0,0
179323,-100,4,2,1,70,0,0
179495,-100,4,2,1,60,0,0
179666,-100,4,2,1,70,0,0
179838,-100,4,2,1,60,0,0
180009,-100,4,2,1,70,0,0
181380,-100,4,2,1,90,0,1
197838,-100,4,2,1,80,0,0
207438,-100,4,2,1,40,0,0
208123,-100,4,2,1,50,0,0
208466,-100,4,2,1,60,0,0
208809,-100,4,2,1,80,0,0
212923,-100,4,2,1,40,0,0
213609,-100,4,2,1,50,0,0
213952,-100,4,2,1,60,0,0
214295,-100,4,2,1,80,0,0

[Colours]
Combo1 : 0,236,159
Combo2 : 255,174,235
Combo3 : 0,169,183
Combo4 : 132,0,0

[HitObjects]
94,148,5837,6,0,P|81:210|104:290,1,140,6|0,0:0|0:0,0:0:0:0:
282,284,6523,2,0,P|295:222|272:142,1,140,0|0,0:0|0:0,0:0:0:0:
202,95,7037,1,0,0:0:0:0:
283,54,7209,2,0,B|335:37|335:37|427:49,1,140,2|0,0:0|0:0,0:0:0:0:
480,116,7723,2,0,L|477:272,1,140,0|0,0:0|0:0,0:0:0:0:
435,337,8237,1,0,0:0:0:0:
389,258,8409,1,2,0:0:0:0:
345,337,8580,5,2,0:0:0:0:
233,192,8923,1,0,0:0:0:0:
130,342,9266,1,0,0:0:0:0:
25,192,9609,1,0,0:0:0:0:
138,49,9952,2,0,B|209:40|209:40|276:55|276:55|349:46,1,210,0|0,0:0|0:0,0:0:0:0:
436,38,10638,2,0,P|419:103|350:137,1,140,0|0,0:0|0:0,0:0:0:0:
176,136,11323,6,0,B|81:127|81:127|32:146,1,140,6|0,0:0|0:0,0:0:0:0:
123,305,12009,2,0,B|218:314|218:314|267:295,1,140,0|0,0:0|0:0,0:0:0:0:
390,170,12695,1,2,0:0:0:0:
364,350,13038,1,0,0:0:0:0:
278,190,13380,1,0,0:0:0:0:
440,271,13723,1,0,0:0:0:0:
440,271,13895,1,2,0:0:0:0:
486,192,14066,6,0,P|501:124|481:51,1,140,2|0,0:0|0:0,0:0:0:0:
399,22,14580,1,0,0:0:0:0:
341,93,14752,2,0,B|295:111|295:111|189:101,1,140,0|0,0:0|0:0,0:0:0:0:
31,45,15438,1,2,0:3:0:0:
86,116,15609,1,2,0:3:0:0:
32,189,15780,2,0,L|30:269,1,70,2|2,0:3|0:3,0:0:0:0:
34,350,16123,1,2,0:3:0:0:
115,308,16295,1,2,0:3:0:0:
194,351,16466,2,0,L|266:348,1,70,2|2,0:3|0:3,0:0:0:0:
324,280,16809,6,0,B|338:237|338:237|332:139,1,140,6|0,0:0|0:0,0:0:0:0:
456,8,17495,2,0,B|442:51|442:51|448:149,1,140,0|0,0:0|0:0,0:0:0:0:
511,210,18009,1,0,0:0:0:0:
450,278,18180,2,0,P|388:305|319:276,1,140,2|0,0:0|0:0,0:0:0:0:
255,219,18695,2,0,L|263:76,1,140,0|0,0:0|0:0,0:0:0:0:
197,15,19209,1,0,0:0:0:0:
197,15,19380,1,2,0:0:0:0:
166,100,19552,5,2,0:0:0:0:
348,100,19895,1,0,0:0:0:0:
166,100,20238,1,0,0:0:0:0:
348,100,20580,1,0,0:0:0:0:
187,16,20923,2,0,P|114:31|227:162,1,350
294,117,21952,1,4,0:3:0:0:
367,170,22123,1,2,0:0:0:0:
442,118,22295,6,0,P|460:189|441:261,1,140,6|0,0:0|0:0,0:0:0:0:
379,316,22809,2,0,L|221:310,1,140,4|0,0:0|0:0,0:0:0:0:
151,284,23323,2,0,P|86:346|174:357,1,210,4|2,0:0|0:3,0:0:0:0:
239,310,24009,2,0,L|238:232,1,70,2|2,0:1|0:3,0:0:0:0:
189,162,24352,1,2,0:1:0:0:
268,117,24523,2,0,B|264:89|264:89|265:38,2,70,2|8|0,0:0|0:0|0:0,0:0:0:0:
315,194,25038,6,0,B|325:247|325:247|324:349,1,140,4|0,0:0|0:0,0:0:0:0:
411,361,25552,2,0,L|412:200,1,140,4|0,0:0|0:0,0:0:0:0:
406,129,26066,2,0,P|461:84|486:184,1,210,6|2,0:0|0:3,0:0:0:0:
411,221,26752,2,0,L|339:218,1,70,2|2,0:1|0:3,0:0:0:0:
261,172,27095,2,0,L|174:173,1,70,2|2,0:1|0:0,0:0:0:0:
115,224,27438,1,8,0:0:0:0:
41,171,27609,1,2,0:0:0:0:
28,260,27780,6,0,P|79:315|148:314,1,140,6|0,0:0|0:0,0:0:0:0:
245,167,28466,2,0,B|270:96|241:35|241:35|270:21|327:37,1,210,0|2,0:0|0:0,0:0:0:0:
370,105,29152,2,0,P|442:124|502:95,1,140,6|0,0:0|0:0,0:0:0:0:
356,212,29838,2,0,B|344:280|344:280|364:360,1,140,0|0,0:0|0:0,0:0:0:0:
476,207,30523,5,6,0:0:0:0:
413,139,30695,1,0,0:0:0:0:
356,212,30866,2,0,P|296:231|213:207,1,140,8|2,0:0|0:0,0:0:0:0:
161,145,31380,1,0,0:0:0:0:
95,209,31552,1,8,0:0:0:0:
210,355,31895,1,2,0:1:0:0:
210,355,32067,1,2,0:1:0:0:
291,314,32238,1,2,0:1:0:0:
291,314,32409,1,2,0:1:0:0:
373,351,32580,2,0,P|408:355|451:344,1,70,2|2,0:1|0:1,0:0:0:0:
497,275,32923,2,0,L|495:200,1,70,2|2,0:1|0:1,0:0:0:0:
447,127,33266,5,4,0:3:0:0:
489,46,33438,1,0,0:0:0:0:
447,127,33609,2,0,P|379:147|303:126,1,140,8|2,0:0|0:0,0:0:0:0:
243,72,34123,1,0,0:0:0:0:
224,161,34295,1,8,0:0:0:0:
360,281,34638,2,0,L|434:270,1,70,2|0,0:0|0:0,0:0:0:0:
408,358,34980,2,0,B|360:365|360:365|260:350,1,140,8|2,0:0|0:0,0:0:0:0:
202,288,35495,1,0,0:0:0:0:
138,352,35666,1,8,0:0:0:0:
47,194,36009,5,6,0:0:0:0:
4,113,36180,1,0,0:0:0:0:
44,31,36352,2,0,P|111:19|184:55,1,140,8|2,0:0|0:0,0:0:0:0:
206,132,36866,2,0,L|201:219,1,70,0|8,0:0|0:0,0:0:0:0:
318,341,37380,1,2,0:1:0:0:
318,341,37552,1,2,0:1:0:0:
398,382,37723,1,2,0:1:0:0:
398,382,37895,1,2,0:1:0:0:
477,338,38066,2,0,P|483:302|476:266,1,70,2|2,0:1|0:1,0:0:0:0:
417,199,38409,2,0,L|346:202,1,70,6|2,0:3|0:1,0:0:0:0:
268,154,38752,5,2,0:0:0:0:
192,204,38923,1,0,0:0:0:0:
112,158,39095,2,0,P|93:94|109:19,1,140,8|2,0:0|0:0,0:0:0:0:
186,68,39609,1,0,0:0:0:0:
264,23,39780,2,0,L|403:27,1,140,8|2,0:0|0:0,0:0:0:0:
441,110,40295,1,0,0:0:0:0:
417,199,40466,2,0,P|403:267|428:340,2,140,8|2|8,0:0|0:0|0:0,0:0:0:0:
290,67,41495,6,0,L|210:64,1,70,2|0,0:0|0:0,0:0:0:0:
149,122,41838,2,0,P|145:156|154:201,1,70,8|0,0:0|0:0,0:0:0:0:
194,270,42180,2,0,B|238:282|238:282|336:275,1,140,2|8,0:0|0:0,0:0:0:0:
409,325,42695,1,0,0:0:0:0:
485,276,42866,2,0,P|490:227|483:198,1,70,2|0,0:0|0:0,0:0:0:0:
413,151,43209,2,0,P|408:116|414:82,1,70,8|0,0:0|0:0,0:0:0:0:
478,17,43552,2,0,P|416:35|338:18,1,140,2|8,0:0|0:0,0:0:0:0:
208,143,44238,6,0,L|211:229,1,70,2|0,0:0|0:0,0:0:0:0:
297,186,44580,2,0,L|300:272,1,70,8|0,0:0|0:0,0:0:0:0:
302,347,44923,1,2,0:0:0:0:
119,344,45266,1,8,0:0:0:0:
36,304,45438,1,0,0:0:0:0:
36,213,45609,2,0,L|40:131,1,70,2|0,0:0|0:0,0:0:0:0:
91,67,45952,2,0,P|123:63|169:69,1,70,8|0,0:0|0:0,0:0:0:0:
208,143,46295,2,0,B|254:157|254:157|350:151,1,140,2|8,0:0|0:0,0:0:0:0:
470,18,46980,5,2,0:0:0:0:
504,102,47152,1,0,0:0:0:0:
472,187,47323,2,0,P|469:223|476:268,1,70,8|0,0:0|0:0,0:0:0:0:
510,339,47666,1,2,0:0:0:0:
351,248,48009,1,8,0:0:0:0:
268,285,48180,1,0,0:0:0:0:
185,244,48352,2,0,P|181:206|186:162,1,70,2|0,0:0|0:0,0:0:0:0:
256,119,48695,2,0,L|330:123,1,70,8|0,0:0|0:0,0:0:0:0:
392,59,49038,2,0,B|352:39|352:39|248:32,1,140,2|8,0:0|0:0,0:0:0:0:
81,82,49723,5,2,0:0:0:0:
45,165,49895,1,0,0:0:0:0:
85,246,50066,2,0,P|121:251|158:245,1,70,8|0,0:0|0:0,0:0:0:0:
235,204,50409,2,0,B|281:191|281:191|387:200,1,140,2|8,0:0|0:0,0:0:0:0:
432,267,50923,1,0,0:0:0:0:
373,337,51095,2,0,P|337:341|293:334,1,70,2|0,0:0|0:0,0:0:0:0:
223,293,51438,2,0,P|187:289|143:296,1,70,8|0,0:0|0:0,0:0:0:0:
70,329,51780,2,0,P|51:263|72:189,1,140,2|8,0:0|0:0,0:0:0:0:
169,43,52466,5,6,0:0:0:0:
231,109,52638,1,6,0:0:0:0:
258,22,52809,2,0,L|331:26,1,70,2|0,0:0|0:0,0:0:0:0:
409,66,53152,2,0,P|426:129|409:205,1,140,0|8,0:0|0:0,0:0:0:0:
349,268,53666,2,0,L|201:259,1,140,0|0,0:0|0:0,0:0:0:0:
348,377,54352,2,0,L|494:369,1,140,0|8,0:0|0:0,0:0:0:0:
484,186,55038,5,6,0:0:0:0:
417,247,55209,1,6,0:0:0:0:
394,159,55380,2,0,P|390:122|396:85,1,70,6|8,0:0|0:0,0:0:0:0:
464,31,55723,1,0,0:0:0:0:
464,31,55895,2,0,L|314:28,1,140,0|8,0:0|0:0,0:0:0:0:
255,89,56409,2,0,P|240:153|259:229,1,140,0|0,0:0|0:0,0:0:0:0:
122,347,57095,1,0,0:0:0:0:
122,347,57266,2,0,L|47:350,1,70,0|0,0:0|0:0,0:0:0:0:
5,271,57609,6,0,P|-10:200|8:130,1,140,6|6,0:0|0:0,0:0:0:0:
85,91,58123,1,6,0:0:0:0:
165,134,58295,2,0,P|197:139|240:131,1,70,8|0,0:0|0:0,0:0:0:0:
319,100,58638,2,0,L|310:258,1,140,0|8,0:0|0:0,0:0:0:0:
244,302,59152,2,0,P|312:333|373:311,1,140,0|0,0:0|0:0,0:0:0:0:
499,183,59838,2,0,B|497:72|497:72|471:29,1,140,0|8,0:0|0:0,0:0:0:0:
308,102,60523,5,2,0:0:0:0:
345,18,60695,1,6,0:0:0:0:
398,91,60866,2,0,L|400:177,1,70,6|8,0:0|0:0,0:0:0:0:
352,239,61209,1,0,0:0:0:0:
352,239,61380,2,0,P|286:260|212:238,1,140,0|8,0:0|0:0,0:0:0:0:
146,186,61895,2,0,L|5:190,1,140,0|0,0:0|0:0,0:0:0:0:
102,35,62580,1,0,0:0:0:0:
102,35,62752,2,0,L|247:40,1,140,0|0,0:0|0:0,0:0:0:0:
298,111,63266,1,2,0:0:0:0:
242,183,63438,6,0,P|225:249|247:327,1,140,6|0,0:0|0:0,0:0:0:0:
332,315,63952,2,0,P|349:247|332:180,1,140,6|0,0:0|0:0,0:0:0:0:
242,183,64466,2,0,L|97:183,1,140,6|0,0:0|0:0,0:0:0:0:
38,248,64980,2,0,P|15:184|48:108,1,140,6|0,0:0|0:0,0:0:0:0:
110,59,65495,1,6,0:0:0:0:
242,183,65838,1,6,0:0:0:0:
374,58,66180,6,0,L|452:58,1,70,6|2,0:0|0:3,0:0:0:0:
425,147,66523,2,0,L|355:147,1,70,2|2,0:3|0:3,0:0:0:0:
375,235,66866,2,0,L|453:235,1,70,2|2,0:3|0:3,0:0:0:0:
426,324,67209,2,0,L|356:324,1,70,2|2,0:3|0:3,0:0:0:0:
264,325,67552,1,2,0:3:0:0:
200,260,67723,2,0,L|201:186,2,70,2|2|2,0:3|0:3|0:3,0:0:0:0:
137,327,68238,2,0,P|65:332|2:279,1,140,2|4,0:3|0:3,0:0:0:0:
10,112,68923,6,0,P|82:107|145:160,1,140,6|8,0:0|0:0,0:0:0:0:
289,238,69609,2,0,P|355:246|425:191,1,140,2|8,0:0|0:0,0:0:0:0:
422,117,70123,1,0,0:0:0:0:
376,37,70295,2,0,P|335:81|352:174,1,140,2|8,0:0|0:0,0:0:0:0:
414,207,70809,2,0,P|421:274|377:326,1,140,0|0,0:0|0:0,0:0:0:0:
293,362,71323,1,8,0:0:0:0:
206,332,71495,1,0,0:0:0:0:
120,363,71666,6,0,B|67:374|67:374|-24:363,1,140,2|8,0:0|0:0,0:0:0:0:
80,210,72352,2,0,B|133:199|133:199|224:210,1,140,2|8,0:0|0:0,0:0:0:0:
388,274,73038,2,0,P|404:209|376:130,1,140,2|8,0:0|0:0,0:0:0:0:
320,74,73552,1,0,0:0:0:0:
257,139,73723,2,0,B|200:151|200:151|109:142,1,140,2|8,0:0|0:0,0:0:0:0:
23,298,74409,6,0,L|166:311,1,140,2|8,0:0|0:0,0:0:0:0:
349,310,75095,2,0,L|489:298,1,140,2|8,0:0|0:0,0:0:0:0:
484,115,75780,2,0,B|394:123|394:123|342:114,1,140,2|8,0:0|0:0,0:0:0:0:
162,115,76466,2,0,B|113:124|113:124|23:115,1,140,2|8,0:0|0:0,0:0:0:0:
187,36,77152,6,0,P|246:104|190:197,1,210,2|0,0:0|0:0,0:0:0:0:
119,251,77838,2,0,B|163:281|163:281|259:275,1,140,2|8,0:0|0:0,0:0:0:0:
416,349,78523,1,6,0:0:0:0:
464,271,78695,1,2,0:3:0:0:
416,193,78866,2,0,P|411:158|416:118,1,70,6|2,0:0|0:3,0:0:0:0:
488,70,79209,1,6,0:0:0:0:
416,13,79380,1,2,0:3:0:0:
343,68,79552,2,0,L|252:65,1,70,6|2,0:0|0:3,0:0:0:0:
194,18,79895,6,0,P|176:91|198:157,1,140,6|8,0:0|0:0,0:0:0:0:
350,244,80580,2,0,P|368:310|350:377,1,140,2|8,0:0|0:0,0:0:0:0:
276,323,81095,1,0,0:0:0:0:
201,374,81266,2,0,L|57:368,1,140,2|8,0:0|0:0,0:0:0:0:
18,287,81780,2,0,P|2:214|23:149,1,140,0|0,0:0|0:0,0:0:0:0:
99,199,82295,1,8,0:0:0:0:
176,151,82466,1,0,0:0:0:0:
254,196,82638,6,0,B|299:210|299:210|401:204,1,140,2|8,0:0|0:0,0:0:0:0:
317,38,83323,2,0,B|272:24|272:24|170:30,1,140,2|8,0:0|0:0,0:0:0:0:
29,133,84009,2,0,L|33:214,1,70,2|0,0:0|0:0,0:0:0:0:
119,174,84352,2,0,L|123:255,1,70,8|0,0:0|0:0,0:0:0:0:
128,335,84695,1,2,0:0:0:0:
310,333,85038,1,4,0:3:0:0:
310,333,85209,1,0,0:0:0:0:
400,333,85380,6,0,P|454:303|471:222,1,140,6|0,0:0|0:0,0:0:0:0:
426,152,85895,2,0,B|373:142|373:142|285:153,1,140,6|0,0:0|0:0,0:0:0:0:
230,223,86409,2,0,P|237:291|317:230,1,210,6|2,0:0|0:3,0:0:0:0:
287,152,87095,2,0,L|287:77,1,70,2|2,0:1|0:3,0:0:0:0:
195,80,87438,1,2,0:1:0:0:
103,80,87609,2,0,L|102:4,2,70,2|8|0,0:0|0:0|0:0,0:0:0:0:
24,125,88123,6,0,P|8:190|24:262,1,140,6|0,0:0|0:0,0:0:0:0:
101,307,88638,2,0,L|243:298,1,140,6|0,0:0|0:0,0:0:0:0:
300,229,89152,2,0,P|278:148|224:226,1,210,6|2,0:0|0:3,0:0:0:0:
240,298,89838,2,0,L|240:371,1,70,2|2,0:1|0:3,0:0:0:0:
329,380,90180,2,0,L|329:310,1,70,2|2,0:1|0:0,0:0:0:0:
418,293,90523,1,8,0:0:0:0:
419,110,90866,6,0,P|390:48|302:27,1,140,4|0,0:0|0:0,0:0:0:0:
180,132,91552,2,0,L|185:277,1,140,0|0,0:0|0:0,0:0:0:0:
250,334,92066,1,2,0:0:0:0:
161,358,92238,2,0,P|88:369|24:328,1,140,6|0,0:0|0:0,0:0:0:0:
32,155,92923,2,0,B|53:86|31:32|31:32|68:47|130:29,1,210,4|0,0:0|0:0,0:0:0:0:
256,192,93609,12,4,96352,0:3:0:0:
123,111,104580,6,0,L|130:184,1,70,6|0,0:0|0:0,0:0:0:0:
167,263,104923,2,0,P|203:268|238:262,1,70,8|0,0:0|0:0,0:0:0:0:
312,212,105266,2,0,P|380:192|449:220,1,140,2|8,0:0|0:0,0:0:0:0:
491,292,105780,1,0,0:0:0:0:
444,370,105952,2,0,L|375:364,1,70,2|0,0:0|0:0,0:0:0:0:
286,339,106295,2,0,L|208:343,1,70,8|0,0:0|0:0,0:0:0:0:
167,263,106638,2,0,P|149:193|173:116,1,140,2|8,0:0|0:0,0:0:0:0:
324,41,107323,6,0,L|412:46,1,70,2|0,0:0|0:0,0:0:0:0:
415,133,107666,2,0,L|327:128,1,70,8|0,0:0|0:0,0:0:0:0:
253,124,108009,1,2,0:0:0:0:
97,29,108352,1,8,0:0:0:0:
45,103,108523,1,0,0:0:0:0:
97,177,108695,2,0,P|101:215|94:262,1,70,2|0,0:0|0:0,0:0:0:0:
62,330,109038,2,0,P|93:337|134:329,1,70,8|0,0:0|0:0,0:0:0:0:
191,263,109380,2,0,B|241:253|241:253|345:263,1,140,2|8,0:0|0:0,0:0:0:0:
490,348,110066,6,0,P|497:310|492:272,1,70,2|0,0:0|0:0,0:0:0:0:
418,226,110409,2,0,P|415:191|421:157,1,70,8|0,0:0|0:0,0:0:0:0:
487,93,110752,2,0,P|424:69|345:96,1,140,2|8,0:0|0:0,0:0:0:0:
293,153,111266,1,0,0:0:0:0:
228,88,111438,2,0,L|146:88,1,70,2|0,0:0|0:0,0:0:0:0:
80,135,111780,2,0,P|76:173|86:216,1,70,8|0,0:0|0:0,0:0:0:0:
137,276,112123,2,0,B|181:291|181:291|282:289,1,140,2|8,0:0|0:0,0:0:0:0:
444,355,112809,6,0,P|482:344|504:320,1,70,2|0,0:0|0:0,0:0:0:0:
452,245,113152,2,0,P|414:256|392:280,1,70,8|0,0:0|0:0,0:0:0:0:
348,356,113495,1,2,0:0:0:0:
165,354,113838,2,0,P|130:358|87:341,1,70,8|0,0:0|0:0,0:0:0:0:
45,273,114180,2,0,L|48:194,1,70,2|0,0:0|0:0,0:0:0:0:
20,115,114523,2,0,P|57:111|90:122,1,70,8|0,0:0|0:0,0:0:0:0:
141,194,114866,2,0,B|181:219|181:219|275:214,1,140,2|8,0:0|0:0,0:0:0:0:
454,186,115552,5,6,0:0:0:0:
400,259,115723,1,6,0:0:0:0:
361,176,115895,2,0,P|357:141|363:102,1,70,2|0,0:0|0:0,0:0:0:0:
421,37,116238,2,0,P|351:17|291:45,1,140,0|8,0:0|0:0,0:0:0:0:
234,114,116752,2,0,L|87:103,1,140,0|0,0:0|0:0,0:0:0:0:
97,286,117438,2,0,L|236:275,1,140,0|8,0:0|0:0,0:0:0:0:
405,342,118123,5,6,0:0:0:0:
480,291,118295,1,6,0:0:0:0:
475,200,118466,1,6,0:0:0:0:
407,138,118638,2,0,P|340:114|271:137,1,140,8|0,0:0|0:0,0:0:0:0:
171,282,119323,1,8,0:0:0:0:
171,282,119495,2,0,B|100:297|100:297|22:285,1,140,0|0,0:0|0:0,0:0:0:0:
34,104,120180,1,0,0:0:0:0:
34,104,120352,2,0,L|103:104,1,70,0|8,0:0|0:0,0:0:0:0:
175,47,120695,6,0,B|246:32|246:32|323:45,1,140,6|6,0:0|0:0,0:0:0:0:
373,110,121209,1,6,0:0:0:0:
431,40,121380,1,8,0:0:0:0:
431,40,121552,1,0,0:0:0:0:
493,106,121723,2,0,P|509:175|492:250,1,140,0|8,0:0|0:0,0:0:0:0:
430,305,122238,2,0,L|288:298,1,140,0|0,0:0|0:0,0:0:0:0:
118,236,122923,2,0,P|100:304|126:382,1,140,0|8,0:0|0:0,0:0:0:0:
208,210,123609,5,6,0:0:0:0:
208,119,123780,1,6,0:0:0:0:
120,144,123952,2,0,L|50:140,2,70,6|8|0,0:0|0:0|0:0,0:0:0:0:
208,119,124466,2,0,L|363:126,1,140,0|8,0:0|0:0,0:0:0:0:
414,187,124980,2,0,P|434:118|403:55,1,140,0|0,0:0|0:0,0:0:0:0:
314,216,125666,1,0,0:0:0:0:
314,216,125838,2,0,P|294:285|325:348,1,140,0|8,0:0|0:0,0:0:0:0:
410,364,126352,1,2,0:0:0:0:
383,277,126523,6,0,L|232:289,1,140,6|0,0:0|0:0,0:0:0:0:
166,337,127038,2,0,P|94:336|44:286,1,140,6|0,0:0|0:0,0:0:0:0:
38,200,127552,2,0,L|35:56,1,140,6|0,0:0|0:0,0:0:0:0:
126,59,128066,2,0,L|129:203,1,140,6|0,0:0|0:0,0:0:0:0:
220,196,128580,1,2,0:0:0:0:
315,41,128923,1,2,0:0:0:0:
406,198,129266,6,0,L|405:271,1,70,2|2,0:3|0:3,0:0:0:0:
346,338,129609,2,0,P|306:343|268:337,1,70,2|2,0:3|0:3,0:0:0:0:
220,265,129952,2,0,L|219:195,1,70,2|2,0:3|0:3,0:0:0:0:
221,103,130295,2,0,P|185:99|149:105,1,70,2|2,0:3|0:3,0:0:0:0:
84,165,130638,1,2,0:3:0:0:
16,104,130809,2,0,L|16:30,2,70,2|2|2,0:3|0:3|0:3,0:0:0:0:
84,165,131323,2,0,P|99:229|79:314,1,140,2|4,0:3|0:3,0:0:0:0:
256,365,132009,6,0,L|400:361,1,140,6|8,0:0|0:0,0:0:0:0:
485,202,132695,2,0,L|341:206,1,140,2|8,0:0|0:0,0:0:0:0:
264,162,133209,1,0,0:0:0:0:
264,162,133380,2,0,P|194:146|130:180,1,140,2|8,0:0|0:0,0:0:0:0:
109,262,133895,2,0,P|57:227|47:151,1,140,0|0,0:0|0:0,0:0:0:0:
64,65,134409,1,8,0:0:0:0:
143,20,134580,1,0,0:0:0:0:
231,43,134752,6,0,B|285:57|285:57|377:50,1,140,2|8,0:0|0:0,0:0:0:0:
473,200,135438,2,0,B|488:245|488:245|479:347,1,140,2|8,0:0|0:0,0:0:0:0:
297,341,136123,2,0,B|282:296|282:296|291:194,1,140,2|8,0:0|0:0,0:0:0:0:
362,147,136638,1,0,0:0:0:0:
277,113,136809,2,0,P|207:93|138:127,1,140,2|8,0:0|0:0,0:0:0:0:
52,273,137495,6,0,B|96:327|96:327|176:351,1,140,2|8,0:0|0:0,0:0:0:0:
348,347,138180,2,0,B|416:327|416:327|460:273,1,140,2|8,0:0|0:0,0:0:0:0:
439,91,138866,2,0,P|408:157|341:173,1,140,2|8,0:0|0:0,0:0:0:0:
164,174,139552,2,0,P|99:153|73:91,1,140,2|8,0:0|0:0,0:0:0:0:
254,113,140238,6,0,B|274:174|258:222|258:222|236:269|259:324,1,210,2|0,0:0|0:0,0:0:0:0:
338,278,140923,2,0,B|388:263|388:263|482:271,1,140,2|8,0:0|0:0,0:0:0:0:
474,87,141609,1,6,0:0:0:0:
390,51,141780,1,2,0:3:0:0:
323,113,141952,2,0,L|248:112,1,70,6|2,0:0|0:3,0:0:0:0:
185,50,142295,1,6,0:0:0:0:
115,108,142466,1,2,0:3:0:0:
30,72,142638,2,0,P|25:107|32:148,1,70,6|2,0:0|0:3,0:0:0:0:
88,210,142980,6,0,B|132:230|132:230|241:223,1,140,6|8,0:0|0:0,0:0:0:0:
396,165,143666,2,0,P|457:182|491:251,1,140,2|8,0:0|0:0,0:0:0:0:
400,256,144180,1,0,0:0:0:0:
318,215,144352,2,0,P|305:144|342:85,1,140,2|8,0:0|0:0,0:0:0:0:
428,73,144866,1,0,0:0:0:0:
245,75,145209,1,0,0:0:0:0:
167,122,145380,1,8,0:0:0:0:
88,75,145552,1,0,0:0:0:0:
10,122,145723,6,0,B|1:177|1:177|12:273,1,140,2|8,0:0|0:0,0:0:0:0:
160,364,146409,2,0,P|232:374|300:336,1,140,2|8,0:0|0:0,0:0:0:0:
290,162,147095,2,0,B|252:157|252:157|209:164,1,70,2|0,0:0|0:0,0:0:0:0:
222,253,147438,2,0,B|253:258|253:258|291:253,1,70,8|0,0:0|0:0,0:0:0:0:
369,206,147780,1,2,0:0:0:0:
367,23,148123,2,0,P|412:19|440:28,1,70,4|0,0:3|0:0,0:0:0:0:
492,97,148466,6,0,L|491:243,1,140,6|0,0:0|0:0,0:0:0:0:
445,316,148980,2,0,P|379:346|307:324,1,140,6|0,0:0|0:0,0:0:0:0:
285,243,149495,2,0,P|309:181|370:259,1,210,6|2,0:0|0:3,0:0:0:0:
316,330,150180,2,0,L|241:329,1,70,2|2,0:1|0:3,0:0:0:0:
180,265,150523,1,2,0:1:0:0:
100,309,150695,2,0,L|100:386,2,70,2|8|0,0:0|0:0|0:0,0:0:0:0:
19,265,151209,6,0,L|20:114,1,140,6|0,0:0|0:0,0:0:0:0:
83,59,151723,2,0,B|133:39|133:39|231:44,1,140,6|0,0:0|0:0,0:0:0:0:
255,127,152238,2,0,P|231:193|171:116,1,210,6|2,0:0|0:3,0:0:0:0:
219,43,152923,2,0,L|303:46,1,70,2|2,0:1|0:3,0:0:0:0:
374,76,153266,2,0,P|380:109|376:152,1,70,2|2,0:1|0:0,0:0:0:0:
321,217,153609,1,8,0:0:0:0:
377,287,153780,1,2,0:0:0:0:
320,358,153952,6,0,P|250:377|183:357,1,140,6|0,0:0|0:0,0:0:0:0:
98,199,154638,2,0,P|168:180|235:200,1,140,4|0,0:0|0:0,0:0:0:0:
321,217,155152,1,2,0:0:0:0:
321,217,155323,2,0,B|306:166|306:166|313:68,1,140,6|0,0:0|0:0,0:0:0:0:
480,150,156009,2,0,B|495:201|495:201|488:299,1,140,4|0,0:0|0:0,0:0:0:0:
256,192,156695,12,6,159438,0:0:0:0:
188,125,160123,6,0,P|256:142|334:118,1,140,2|8,0:0|0:0,0:0:0:0:
387,60,160638,2,0,P|410:120|387:192,1,140
239,294,161323,2,0,L|166:293,1,70,0|2,0:0|0:0,0:0:0:0:
77,295,161666,1,0,0:0:0:0:
77,295,161838,1,8,0:0:0:0:
25,120,162180,5,2,0:0:0:0:
25,120,162352,1,0,0:0:0:0:
38,30,162523,1,8,0:0:0:0:
188,125,162866,2,0,P|256:142|334:118,1,140,2|8,0:0|0:0,0:0:0:0:
387,60,163380,2,0,P|410:120|387:192,1,140
239,294,164066,2,0,P|200:299|159:291,1,70,0|2,0:0|0:0,0:0:0:0:
90,249,164409,1,0,0:0:0:0:
90,249,164580,1,4,0:3:0:0:
124,70,164923,6,0,B|165:56|165:56|274:63,1,140,6|8,0:0|0:0,0:0:0:0:
400,180,165609,2,0,B|359:194|359:194|250:187,1,140,2|8,0:0|0:0,0:0:0:0:
174,163,166123,2,0,P|104:153|49:190,1,140,0|0,0:0|0:0,0:0:0:0:
138,349,166809,2,0,L|212:348,1,70,0|2,0:0|0:0,0:0:0:0:
299,347,167152,1,0,0:0:0:0:
299,347,167323,1,8,0:0:0:0:
481,345,167666,5,2,0:0:0:0:
481,345,167838,1,0,0:0:0:0:
459,256,168009,1,8,0:0:0:0:
279,226,168352,2,0,P|260:158|285:82,1,140,2|8,0:0|0:0,0:0:0:0:
356,45,168866,1,0,0:0:0:0:
428,100,169038,2,0,L|429:174,1,70,6|0,0:0|0:0,0:0:0:0:
459,256,169380,2,0,L|458:334,1,70,6|0,0:0|0:0,0:0:0:0:
376,366,169723,1,6,0:0:0:0:
293,326,169895,1,4,0:3:0:0:
210,363,170066,2,0,P|140:380|75:355,1,140,6|6,0:0|0:0,0:0:0:0:
191,154,175895,6,0,P|258:130|325:157,1,140,6|0,0:0|0:0,0:0:0:0:
320,245,176409,2,0,P|255:268|191:244,1,140,6|0,0:0|0:0,0:0:0:0:
191,154,176923,2,0,L|200:14,1,140,6|0,0:0|0:0,0:0:0:0:
111,39,177438,2,0,L|101:190,1,140,6|0,0:0|0:0,0:0:0:0:
98,269,177952,1,6,0:0:0:0:
246,374,178295,1,6,0:0:0:0:
313,204,178638,6,0,L|234:206,1,70,6|2,0:0|0:3,0:0:0:0:
268,118,178980,2,0,L|337:116,1,70,2|2,0:3|0:3,0:0:0:0:
400,182,179323,2,0,P|399:228|387:258,1,70,2|2,0:3|0:3,0:0:0:0:
314,299,179666,2,0,L|235:301,1,70,2|2,0:3|0:3,0:0:0:0:
152,302,180009,1,2,0:3:0:0:
62,316,180180,2,0,P|32:338|12:370,2,70,2|2|2,0:3|0:3|0:3,0:0:0:0:
97,231,180695,2,0,P|113:167|83:84,1,140,2|2,0:3|0:3,0:0:0:0:
266,42,181380,6,0,B|311:48|311:48|355:38|355:38|406:44,1,140,4|8,0:3|0:0,0:0:0:0:
502,197,182066,2,0,B|457:191|457:191|413:201|413:201|362:195,1,140,2|8,0:0|0:0,0:0:0:0:
299,130,182580,1,0,0:0:0:0:
257,211,182752,2,0,P|259:281|324:335,1,140,2|8,0:0|0:0,0:0:0:0:
394,352,183266,2,0,P|459:343|505:268,1,140,0|0,0:0|0:0,0:0:0:0:
502,197,183780,1,8,0:0:0:0:
501,105,183952,1,0,0:0:0:0:
498,14,184123,6,0,L|356:14,1,140,2|8,0:0|0:0,0:0:0:0:
297,188,184809,2,0,L|306:337,1,140,2|8,0:0|0:0,0:0:0:0:
126,364,185495,2,0,P|52:367|-2:311,1,140,2|8,0:0|0:0,0:0:0:0:
2,234,186009,1,0,0:0:0:0:
53,159,186180,2,0,P|127:156|181:212,1,140,2|8,0:0|0:0,0:0:0:0:
322,304,186866,6,0,B|392:320|392:320|459:278,1,140,2|8,0:0|0:0,0:0:0:0:
449,100,187552,2,0,B|392:64|392:64|322:80,1,140,2|8,0:0|0:0,0:0:0:0:
192,208,188238,2,0,B|182:266|182:266|194:363,1,140,2|8,0:0|0:0,0:0:0:0:
48,234,188923,2,0,B|58:176|58:176|46:79,1,140,2|8,0:0|0:0,0:0:0:0:
222,41,189609,6,0,P|281:72|366:57,1,140,0|8,0:0|0:0,0:0:0:0:
433,23,190123,1,0,0:0:0:0:
433,23,190295,2,0,L|431:165,1,140,0|8,0:0|0:0,0:0:0:0:
369,334,190980,1,6,0:0:0:0:
305,268,191152,1,2,0:3:0:0:
270,351,191323,2,0,L|193:351,1,70,6|2,0:0|0:3,0:0:0:0:
135,286,191666,1,6,0:0:0:0:
98,369,191838,1,2,0:3:0:0:
45,294,192009,2,0,L|45:224,1,70,6|2,0:0|0:3,0:0:0:0:
108,158,192352,6,0,P|178:140|250:165,1,140,6|8,0:0|0:0,0:0:0:0:
386,269,193038,2,0,B|398:200|398:200|389:128,1,140,2|8,0:0|0:0,0:0:0:0:
343,51,193552,1,0,0:0:0:0:
343,51,193723,2,0,P|277:70|204:49,1,140,2|8,0:0|0:0,0:0:0:0:
122,21,194238,2,0,P|60:30|19:97,1,140,0|0,0:0|0:0,0:0:0:0:
22,182,194752,1,8,0:0:0:0:
86,246,194923,1,0,0:0:0:0:
177,246,195095,6,0,L|318:246,1,140,2|8,0:0|0:0,0:0:0:0:
484,175,195780,2,0,P|501:108|483:39,1,140,2|8,0:0|0:0,0:0:0:0:
301,35,196466,2,0,L|225:38,1,70,2|0,0:0|0:0,0:0:0:0:
210,126,196809,2,0,L|279:123,1,70,8|0,0:0|0:0,0:0:0:0:
371,119,197152,1,2,0:0:0:0:
485,260,197495,1,4,0:3:0:0:
485,260,197666,1,0,0:0:0:0:
417,321,197838,6,0,P|355:342|283:321,1,140,6|0,0:0|0:0,0:0:0:0:
229,250,198352,2,0,L|235:104,1,140,6|0,0:0|0:0,0:0:0:0:
164,51,198866,2,0,P|88:59|151:128,1,210,6|2,0:0|0:3,0:0:0:0:
234,110,199552,2,0,L|307:111,1,70,2|2,0:1|0:3,0:0:0:0:
375,54,199895,1,2,0:1:0:0:
444,112,200066,2,0,P|485:106|512:85,2,70,2|8|0,0:0|0:0|0:0,0:0:0:0:
370,166,200580,6,0,B|356:217|356:217|367:318,1,140,6|0,0:0|0:0,0:0:0:0:
436,361,201095,2,0,P|367:338|297:362,1,140,6|0,0:0|0:0,0:0:0:0:
215,377,201609,2,0,B|189:315|210:268|210:268|232:213|204:138,1,210,6|2,0:0|0:3,0:0:0:0:
134,216,202295,2,0,P|91:217|54:201,1,70,2|2,0:1|0:3,0:0:0:0:
7,138,202638,2,0,P|0:106|7:60,1,70,2|2,0:1|0:0,0:0:0:0:
73,10,202980,1,8,0:0:0:0:
240,80,203323,6,0,B|299:92|299:92|385:85,1,140,6|0,0:0|0:0,0:0:0:0:
493,227,204009,2,0,P|510:291|490:365,1,140,4|0,0:0|0:0,0:0:0:0:
409,322,204523,1,2,0:0:0:0:
409,322,204695,2,0,B|349:308|349:308|257:315,1,140,6|0,0:0|0:0,0:0:0:0:
93,357,205380,2,0,B|79:292|79:292|93:213,1,140,4|0,0:0|0:0,0:0:0:0:
226,95,206066,5,6,0:0:0:0:
297,38,206238,1,0,0:0:0:0:
314,127,206409,2,0,P|374:146|457:122,1,140,8|2,0:0|0:0,0:0:0:0:
498,53,206923,1,0,0:0:0:0:
498,53,207095,1,8,0:0:0:0:
497,235,207438,5,2,0:3:0:0:
497,235,207610,1,2,0:1:0:0:
460,318,207781,1,2,0:1:0:0:
460,318,207952,1,2,0:1:0:0:
397,252,208123,2,0,P|361:248|327:262,1,70,2|2,0:3|0:1,0:0:0:0:
252,307,208466,2,0,P|216:311|182:297,1,70,2|2,0:1|0:1,0:0:0:0:
129,226,208809,5,4,0:3:0:0:
93,309,208981,1,0,0:0:0:0:
129,226,209152,2,0,P|152:158|134:83,1,140,8|2,0:0|0:0,0:0:0:0:
67,36,209666,1,0,0:0:0:0:
49,125,209838,1,8,0:0:0:0:
231,128,210181,2,0,L|309:128,1,70,2|0,0:0|0:0,0:0:0:0:
366,65,210523,2,0,P|389:127|352:205,1,140,8|2,0:0|0:0,0:0:0:0:
301,260,211038,1,0,0:0:0:0:
210,260,211209,1,8,0:0:0:0:
27,260,211552,5,2,0:0:0:0:
0,173,211723,1,0,0:0:0:0:
31,87,211895,2,0,P|98:75|171:111,1,140,8|2,0:0|0:0,0:0:0:0:
220,172,212409,2,0,L|291:170,1,70,0|8,0:0|0:0,0:0:0:0:
410,33,212923,1,2,0:1:0:0:
410,33,213095,1,2,0:1:0:0:
483,85,213266,1,2,0:3:0:0:
483,85,213438,1,2,0:1:0:0:
403,128,213609,2,0,L|407:207,1,70,2|2,0:1|0:1,0:0:0:0:
495,177,213952,2,0,L|499:256,1,70,4|2,0:3|0:1,0:0:0:0:
504,338,214295,5,2,0:0:0:0:
424,294,214466,1,0,0:0:0:0:
342,334,214638,2,0,P|274:349|195:327,1,140,8|2,0:0|0:0,0:0:0:0:
133,277,215152,1,0,0:0:0:0:
90,196,215323,2,0,B|76:128|76:128|93:49,1,140,8|2,0:0|0:0,0:0:0:0:
172,16,215838,1,0,0:0:0:0:
251,60,216009,2,0,B|265:128|265:128|251:196,1,140,8|2,0:0|0:0,0:0:0:0:
104,304,216695,1,8,0:0:0:0:
104,304,216866,1,0,0:0:0:0:
178,356,217038,6,0,L|323:353,1,140,6|0,0:0|0:0,0:0:0:0:
403,320,217552,2,0,P|422:248|396:174,1,140,6|0,0:0|0:0,0:0:0:0:
325,140,218066,2,0,P|330:50|397:98,1,210,6|2,0:0|0:3,0:0:0:0:
325,140,218752,2,0,L|241:136,1,70,2|2,0:1|0:3,0:0:0:0:
177,87,219095,1,2,0:1:0:0:
168,177,219266,2,0,L|172:251,2,70,2|8|0,0:0|0:0|0:0,0:0:0:0:
84,139,219780,6,0,B|76:188|76:188|82:289,1,140,6|0,0:0|0:0,0:0:0:0:
155,332,220295,2,0,P|225:344|290:298,1,140,6|0,0:0|0:0,0:0:0:0:
355,256,220809,2,0,P|417:255|345:323,1,210,6|2,0:0|0:3,0:0:0:0:
281,309,221495,2,0,P|268:278|270:226,1,70,0|2,0:1|0:3,0:0:0:0:
320,168,221838,2,0,P|333:137|331:85,1,70,0|2,0:1|0:0,0:0:0:0:
268,38,222180,1,8,0:0:0:0:
450,41,222523,6,0,P|467:105|447:187,1,140,6|0,0:0|0:0,0:0:0:0:
343,322,223209,2,0,L|198:319,1,140,4|0,0:0|0:0,0:0:0:0:
119,282,223723,1,2,0:0:0:0:
119,282,223895,2,0,B|107:197|107:197|123:135,1,140,6|0,0:0|0:0,0:0:0:0:
270,39,224580,2,0,B|282:124|282:124|266:186,1,140,4|0,0:0|0:0,0:0:0:0:
256,192,225266,12,0,231438,0:0:0:0:
