osu file format v13

[General]
AudioFilename: 01.mp3
AudioLeadIn: 1500
PreviewTime: 58922
Countdown: 0
SampleSet: Normal
StackLeniency: 0.7
Mode: 0
LetterboxInBreaks: 1
EpilepsyWarning: 1
WidescreenStoryboard: 1

[Editor]
DistanceSpacing: 1.8
BeatDivisor: 4
GridSize: 4
TimelineZoom: 1.34

[Metadata]
Title:Preserved Roses -Anime Version-
TitleUnicode:Preserved Roses -アニメバージョン-
Artist:T.M. Revolution x Mizuki Nana
ArtistUnicode:T.M. Revolution x 水樹 奈々
Creator:Atrue
Version:Insane
Source:Kakumeiki Valvrave
Tags:革命機ヴァルヴレイヴ VVV the Liberator Epic Records Japan Eruerufu Karurusutain Tokishima Haruto Sashinami Shoko Rukino Saki Sunrise Mei 615915887 YoshinoSakura lkx_Shore ITer IamKwaN Priti
BeatmapID:358411
BeatmapSetID:144259

[Difficulty]
HPDrainRate:7
CircleSize:4
OverallDifficulty:7.5
ApproachRate:9
SliderMultiplier:1.6
SliderTickRate:1

[Events]
//Background and Video events
0,0,"preserved roses.jpg",0,0
//Break Periods
//Storyboard Layer 0 (Background)
//Storyboard Layer 1 (Fail)
//Storyboard Layer 2 (Pass)
//Storyboard Layer 3 (Foreground)
//Storyboard Sound Samples

[TimingPoints]
719,359.281437125748,4,1,1,80,1,0
719,-100,4,1,1,80,0,1
4850,-100,4,1,1,60,0,0
6467,-100,4,1,3,60,0,0
8623,-133.333333333333,4,1,3,60,0,0
9162,-100,4,1,3,60,0,0
11497,-133.333333333333,4,1,3,60,0,0
12216,-100,4,1,3,60,0,0
14641,-100,4,1,3,30,0,0
14730,-100,4,1,3,40,0,0
14820,-100,4,1,3,50,0,0
14910,-100,4,1,3,60,0,0
15000,-100,4,1,3,70,0,0
15090,-100,4,1,3,80,0,0
15449,-100,4,1,3,60,0,0
16527,-133.333333333333,4,1,3,40,0,0
17605,-100,4,1,3,70,0,0
22275,-100,4,1,0,70,0,0
24790,-100,4,1,1,70,0,0
24970,-100,4,1,0,70,0,0
26227,-100,4,1,1,70,0,0
26317,-100,4,1,0,70,0,0
28024,-100,4,1,0,70,0,1
28114,-100,4,1,0,70,0,0
33413,-100,4,1,1,70,0,0
33503,-100,4,1,0,70,0,0
39162,-100,4,1,1,70,0,0
39251,-100,4,1,0,70,0,0
47784,-100,4,1,3,70,0,0
47874,-100,4,1,0,70,0,0
59641,-100,4,1,0,80,0,1
62156,-100,4,1,3,80,0,1
62245,-100,4,1,0,80,0,1
67904,-100,4,1,3,80,0,1
67994,-100,4,1,0,80,0,1
73653,-100,4,1,3,80,0,1
73742,-100,4,1,0,80,0,1
79401,-100,4,1,3,80,0,1
79491,-100,4,1,0,80,0,1
82275,-100,4,1,3,80,0,1
82365,-100,4,1,0,80,0,1
82994,-100,4,1,3,80,0,1
83084,-100,4,1,0,80,0,1
83713,-100,4,1,3,80,0,1
83802,-100,4,1,0,80,0,1
86946,-100,4,1,3,80,0,0
87305,-100,4,1,3,60,0,0
88383,-100,4,1,3,40,0,0
88742,-100,4,1,3,30,0,0
89102,-100,4,1,3,20,0,0

[Colours]
Combo1 : 139,228,248
Combo2 : 247,135,250
Combo3 : 188,245,101
Combo4 : 248,82,78

[HitObjects]
124,104,719,5,2,0:0:0:0:
213,318,898,1,2,0:0:0:0:
284,172,1078,1,2,0:0:0:0:
53,256,1257,1,2,0:0:0:0:
284,172,1437,2,2,L|376:132,1,80,0|2,0:0|2:0,0:0:0:0:
388,280,1796,5,2,0:0:0:0:
299,66,1976,1,2,0:0:0:0:
228,212,2156,1,2,0:0:0:0:
459,128,2335,1,2,0:0:0:0:
228,212,2515,2,2,L|132:252,1,80,2|2,0:0|2:0,0:0:0:0:
92,356,2874,5,0,1:0:0:0:
92,356,2964,1,2,2:0:0:0:
92,356,3054,1,2,2:0:0:0:
32,192,3233,1,0,1:0:0:0:
32,192,3323,1,2,2:0:0:0:
32,192,3413,1,2,2:0:0:0:
181,116,3593,5,2,0:0:0:0:
120,340,3772,1,2,0:0:0:0:
266,269,3952,1,2,0:0:0:0:
32,192,4132,1,2,0:0:0:0:
266,269,4311,2,2,L|360:300,1,80,0|0,0:0|2:0,0:0:0:0:
288,164,4671,5,2,0:0:0:0:
472,352,4850,1,2,0:0:0:0:
88,120,5748,6,0,L|172:88,1,80,2|0,0:0|2:0,0:0:0:0:
132,233,6108,2,0,L|44:269,1,80,2|0,0:0|2:0,0:0:0:0:
189,322,6467,6,0,P|235:299|313:286,1,120,4|0,0:0|2:0,0:0:0:0:
301,286,6826,1,8,0:0:0:0:
432,348,7006,2,0,P|448:296|432:232,1,120,2|0,0:2|2:0,0:0:0:0:
432,233,7365,1,0,0:0:0:0:
332,132,7545,2,0,L|236:152,1,80,8|0,0:0|0:0,0:0:0:0:
339,47,7904,5,2,0:2:0:0:
339,336,8263,1,8,0:0:0:0:
72,128,8623,2,0,P|63:115|69:165,1,180.000006866455
95,196,9251,1,0,0:0:0:0:
96,196,9341,6,0,P|136:232|207:240,1,120,2|0,0:2|2:0,0:0:0:0:
199,241,9701,1,8,0:0:0:0:
304,136,9880,2,0,P|348:224|336:296,1,160,0|0,0:0|0:0,0:0:0:0:
200,344,10419,1,8,0:0:0:0:
341,282,10599,2,0,L|504:260,1,160,2|0,0:2|0:0,0:0:0:0:
468,116,11138,2,0,L|380:128,1,80,8|0,0:0|0:0,0:0:0:0:
248,148,11497,6,0,L|248:288,1,120.000004577637,2|10,0:2|0:0,0:0:0:0:
12,104,12216,6,0,P|58:81|136:68,1,120,0|0,0:0|2:0,0:0:0:0:
124,68,12575,1,8,0:0:0:0:
256,128,12755,2,0,P|268:76|252:8,1,120,0|0,0:0|2:0,0:0:0:0:
253,11,13114,1,0,0:0:0:0:
124,68,13294,2,0,L|152:152,1,80,8|0,0:0|0:0,0:0:0:0:
96,308,13653,6,0,L|156:236,1,80
276,344,14012,2,0,L|260:252,1,80,8|0,0:0|0:0,0:0:0:0:
432,268,14371,2,0,L|372:204,1,80
364,204,14641,1,0,0:0:0:0:
350,197,14730,1,0,0:0:0:0:
334,190,14820,1,0,0:0:0:0:
318,183,14910,1,0,0:0:0:0:
302,176,15000,1,0,0:0:0:0:
286,169,15090,5,0,1:0:0:0:
48,60,15449,1,0,0:0:0:0:
172,292,15808,2,0,L|260:272,1,80
404,296,16168,2,0,L|308:324,1,80
172,292,16527,6,0,P|136:288|212:264,1,300.000011444092
240,372,17605,1,2,0:0:0:0:
392,232,17784,1,0,0:0:0:0:
392,232,17874,1,0,0:0:0:0:
392,232,17964,1,4,0:0:0:0:
108,148,18503,5,0,0:0:0:0:
108,148,18683,1,4,0:0:0:0:
312,56,19221,5,0,0:0:0:0:
312,56,19401,1,4,0:0:0:0:
288,148,19760,1,0,0:0:0:0:
256,240,20120,1,0,0:0:0:0:
228,332,20479,1,0,0:0:0:0:
148,180,20838,5,2,0:0:0:0:
288,148,21018,1,0,0:0:0:0:
308,144,21108,1,0,0:0:0:0:
328,140,21198,1,0,0:0:0:0:
374,266,21377,5,0,0:0:0:0:
256,240,21557,1,0,0:0:0:0:
236,236,21647,1,0,0:0:0:0:
216,232,21737,1,0,0:0:0:0:
92,116,21916,1,0,0:0:0:0:
112,112,22006,1,0,0:0:0:0:
132,108,22096,1,0,0:0:0:0:
152,104,22186,1,0,0:0:0:0:
172,100,22275,6,0,L|264:80,1,80,6|0,0:0|0:0,0:0:0:0:
360,148,22635,2,0,L|264:172,1,80,10|2,0:0|0:0,0:0:0:0:
224,280,22994,1,0,0:0:0:0:
144,176,23174,1,2,0:0:0:0:
282,167,23353,2,0,L|376:188,1,80,10|0,0:0|0:0,0:0:0:0:
440,284,23713,6,0,L|332:260,1,80,2|2,0:0|0:0,0:0:0:0:
216,228,24072,1,8,0:0:0:0:
256,368,24251,1,2,0:0:0:0:
361,266,24431,2,0,L|464:248,1,80,2|0,0:0|0:0,0:0:0:0:
496,144,24790,2,0,L|408:160,1,80,10|0,0:0|0:0,0:0:0:0:
248,88,25150,6,0,L|268:192,1,80,2|0,0:0|0:0,0:0:0:0:
288,260,25509,1,10,0:0:0:0:
432,352,25689,2,0,L|340:328,1,80,2|0,0:0|0:0,0:0:0:0:
420,148,26048,2,0,L|320:168,1,80,2|10,0:0|0:0,0:0:0:0:
132,220,26407,1,0,0:0:0:0:
80,56,26587,6,0,L|104:132,1,80,2|2,0:0|0:0,0:0:0:0:
256,264,26946,2,0,L|224:180,1,80,8|2,0:0|0:0,0:0:0:0:
104,144,27305,5,0,0:0:0:0:
88,132,27395,1,0,0:0:0:0:
76,116,27485,1,2,0:0:0:0:
72,96,27575,1,0,0:0:0:0:
76,76,27665,1,8,0:0:0:0:
84,56,27754,1,0,0:0:0:0:
100,44,27844,1,0,0:0:0:0:
120,40,27934,1,0,0:0:0:0:
148,36,28024,6,0,L|256:24,1,80,4|0,0:0|0:0,0:0:0:0:
368,120,28383,1,8,0:0:0:0:
244,188,28563,2,0,L|144:168,1,80
52,280,28922,1,0,0:0:0:0:
165,172,29102,1,8,0:0:0:0:
96,40,29281,2,0,P|52:44|12:64,1,80
0,176,29641,2,0,P|44:180|84:200,1,80,0|8,0:0|0:0,0:0:0:0:
112,304,30000,2,0,P|68:308|28:328,1,80
232,332,30359,5,0,0:0:0:0:
328,208,30539,1,8,0:0:0:0:
436,328,30718,2,0,P|472:344|524:340,1,80
256,252,31078,5,0,0:0:0:0:
160,128,31258,1,8,0:0:0:0:
80,256,31437,2,0,P|36:268|0:264,1,80
228,168,31796,5,0,0:0:0:0:
324,44,31976,1,8,0:0:0:0:
452,128,32156,2,0,P|472:224|456:308,1,160
296,320,32695,2,0,P|256:304|200:296,1,80,8|0,0:0|0:0,0:0:0:0:
48,284,33054,1,0,0:0:0:0:
68,96,33233,1,0,0:0:0:0:
68,96,33323,1,0,0:0:0:0:
68,96,33413,2,0,L|12:104,3,40,12|0|0|0,0:0|0:0|0:0|0:0,0:0:0:0:
68,96,33772,6,0,L|184:80,1,80
304,76,34131,1,8,0:0:0:0:
240,208,34311,1,0,0:0:0:0:
436,196,34491,2,0,L|336:176,1,80
88,288,34850,1,8,0:0:0:0:
276,328,35030,2,0,P|320:324|356:308,1,80
240,208,35389,2,0,P|276:188|312:144,1,80,0|8,0:0|0:0,0:0:0:0:
172,100,35748,2,0,P|204:72|224:36,1,80
120,8,36108,5,0,0:0:0:0:
52,152,36287,1,8,0:0:0:0:
164,272,36467,2,0,L|244:232,1,80
364,36,36826,5,0,0:0:0:0:
432,184,37005,1,8,0:0:0:0:
320,304,37186,2,0,L|244:264,1,80
148,32,37545,5,0,0:0:0:0:
80,180,37724,1,8,0:0:0:0:
192,300,37904,2,0,P|270:296|364:272,1,160
420,124,38443,1,8,0:0:0:0:
296,200,38623,1,0,0:0:0:0:
280,56,38802,1,0,0:0:0:0:
128,64,38982,1,0,0:0:0:0:
128,64,39072,1,0,0:0:0:0:
128,64,39162,2,0,L|100:28,3,40,8|0|0|0,0:0|0:0|0:0|0:0,0:0:0:0:
128,64,39521,6,0,P|136:104|136:160,1,80
260,72,39880,2,0,P|257:112|242:166,1,80,8|0,0:0|0:0,0:0:0:0:
388,116,40239,2,0,P|374:154|346:203,1,80
492,200,40599,2,0,P|469:233|429:273,1,80,8|0,0:0|0:0,0:0:0:0:
312,268,40958,6,0,P|256:240|192:232,1,120
199,231,41317,1,8,0:0:0:0:
80,120,41497,1,0,0:0:0:0:
80,120,41587,1,0,0:0:0:0:
80,120,41677,1,0,0:0:0:0:
40,272,41856,1,0,0:0:0:0:
40,272,41946,1,0,0:0:0:0:
40,272,42036,2,0,L|8:312,3,40,8|0|0|0,0:0|0:0|0:0|0:0,0:0:0:0:
40,272,42395,6,0,P|48:232|48:176,1,80
172,264,42754,2,0,P|169:223|154:169,1,80,8|0,0:0|0:0,0:0:0:0:
300,220,43113,2,0,P|286:181|258:132,1,80
404,136,43473,2,0,P|381:102|341:62,1,80,8|0,0:0|0:0,0:0:0:0:
220,52,43832,6,0,P|172:84|96:96,1,120
111,96,44192,1,8,0:0:0:0:
56,240,44371,1,0,0:0:0:0:
216,224,44551,1,0,0:0:0:0:
358,184,44730,2,0,P|410:188|450:208,1,80,0|8,0:0|0:0,0:0:0:0:
432,336,45090,1,0,0:0:0:0:
324,256,45269,6,0,P|336:220|364:176,1,80
264,76,45629,2,0,P|300:88|344:116,1,80,8|0,0:0|0:0,0:0:0:0:
440,24,45988,2,0,P|428:60|400:104,1,80
504,200,46347,2,0,P|468:188|424:160,1,80,8|0,0:0|0:0,0:0:0:0:
264,76,46707,6,0,P|208:60|136:60,1,120
146,58,47066,1,8,0:0:0:0:
164,236,47245,1,0,0:0:0:0:
196,240,47605,5,0,0:0:0:0:
368,84,47784,1,10,0:0:0:0:
413,306,47964,1,0,0:0:0:0:
184,116,48144,6,0,L|104:92,1,80,4|0,0:0|0:0,0:0:0:0:
96,288,48503,2,0,P|144:280|216:236,1,120,8|0,0:0|0:0,0:0:0:0:
232,228,48862,1,0,0:0:0:0:
328,116,49042,6,0,L|408:92,1,80,0|8,0:0|0:0,0:0:0:0:
304,32,49401,1,0,0:0:0:0:
468,168,49581,1,0,0:0:0:0:
392,312,49760,6,0,P|340:296|288:292,1,80,0|8,0:0|0:0,0:0:0:0:
200,344,50120,1,0,0:0:0:0:
200,344,50210,1,0,0:0:0:0:
200,344,50299,1,0,0:0:0:0:
112,264,50479,1,0,0:0:0:0:
112,264,50659,1,8,0:0:0:0:
332,320,50838,1,0,0:0:0:0:
328,116,51018,6,0,L|408:92,1,80,4|0,0:0|0:0,0:0:0:0:
444,268,51377,2,0,P|392:248|324:244,1,120,8|0,0:0|0:0,0:0:0:0:
288,256,51736,1,0,0:0:0:0:
184,116,51916,6,0,L|104:92,1,80,0|8,0:0|0:0,0:0:0:0:
212,24,52275,1,0,0:0:0:0:
48,136,52455,1,0,0:0:0:0:
124,292,52635,5,0,0:0:0:0:
124,292,52724,1,0,0:0:0:0:
124,292,52814,1,8,0:0:0:0:
264,312,52994,2,0,L|352:296,2,80
124,292,53533,1,8,0:0:0:0:
124,292,53713,1,0,0:0:0:0:
200,156,53892,5,4,0:0:0:0:
384,68,54072,1,0,0:0:0:0:
368,268,54251,2,0,P|304:312|256:312,1,120,8|0,0:0|0:0,0:0:0:0:
220,308,54611,1,0,0:0:0:0:
304,156,54790,5,0,0:0:0:0:
120,68,54970,1,8,0:0:0:0:
136,268,55149,1,0,0:0:0:0:
24,168,55329,1,0,0:0:0:0:
256,192,55509,5,0,0:0:0:0:
456,120,55689,1,8,0:0:0:0:
428,300,55868,1,0,0:0:0:0:
428,300,55958,1,0,0:0:0:0:
428,300,56048,1,0,0:0:0:0:
304,156,56227,1,0,0:0:0:0:
216,328,56407,1,8,0:0:0:0:
196,332,56497,1,0,0:0:0:0:
176,336,56587,1,0,0:0:0:0:
156,340,56677,1,0,0:0:0:0:
136,344,56766,5,2,0:0:0:0:
205,122,56945,1,2,0:0:0:0:
284,277,57125,1,10,0:0:0:0:
53,193,57304,1,2,0:0:0:0:
284,277,57485,1,2,0:0:0:0:
304,284,57575,1,0,0:0:0:0:
324,292,57665,1,0,0:0:0:0:
344,300,57754,1,0,0:0:0:0:
360,308,57844,5,10,0:0:0:0:
491,83,58024,1,2,0:0:0:0:
476,144,58922,6,0,L|428:216,1,80,2|0,0:0|2:0,0:0:0:0:
272,232,59281,2,0,L|336:148,1,80,2|0,0:0|2:0,0:0:0:0:
252,48,59641,6,0,P|200:32|128:32,1,120,6|0,0:0|0:0,0:0:0:0:
68,60,60000,1,10,0:0:0:0:
32,192,60180,2,0,P|104:172|168:172,1,120,2|0,0:0|0:0,0:0:0:0:
211,205,60539,1,2,0:0:0:0:
320,128,60718,2,0,L|412:144,1,80,10|0,0:0|0:0,0:0:0:0:
472,284,61078,6,0,P|380:280|340:292,1,120,2|0,0:0|0:0,0:0:0:0:
289,319,61437,2,0,P|245:331|145:323,1,120,10|0,0:0|0:0,0:0:0:0:
103,304,61796,1,2,0:0:0:0:
140,120,61976,1,0,0:0:0:0:
140,120,62066,1,0,0:0:0:0:
140,120,62156,1,10,0:0:0:0:
328,176,62335,1,0,0:0:0:0:
348,184,62425,1,0,0:0:0:0:
368,192,62515,6,0,P|436:200|496:168,1,120,2|0,0:0|0:0,0:0:0:0:
510,113,62874,1,10,0:0:0:0:
368,36,63054,2,0,P|308:20|248:44,1,120,2|0,0:0|0:0,0:0:0:0:
194,78,63413,1,2,0:0:0:0:
184,212,63593,1,8,0:0:0:0:
184,212,63772,6,0,L|24:172,1,160,2|2,0:0|0:0,0:0:0:0:
40,64,64311,1,10,0:0:0:0:
76,264,64491,1,2,0:0:0:0:
40,64,64671,1,2,0:0:0:0:
216,101,64850,5,0,0:0:0:0:
236,93,64940,1,0,0:0:0:0:
256,101,65030,1,8,0:0:0:0:
272,93,65120,1,0,0:0:0:0:
292,101,65210,1,0,0:0:0:0:
312,93,65299,1,0,0:0:0:0:
328,84,65389,6,0,P|368:72|448:88,1,120,6|0,0:0|0:0,0:0:0:0:
495,135,65748,1,10,0:0:0:0:
496,288,65928,2,0,P|456:300|376:284,1,120,2|0,0:0|0:0,0:0:0:0:
334,230,66287,1,2,0:0:0:0:
200,252,66467,2,0,L|96:228,1,80,10|0,0:0|0:0,0:0:0:0:
52,100,66826,6,0,P|144:104|184:92,1,120,2|0,0:0|0:0,0:0:0:0:
235,66,67185,2,0,P|279:54|379:62,1,120,10|0,0:0|0:0,0:0:0:0:
416,89,67544,1,2,0:0:0:0:
392,244,67724,1,0,0:0:0:0:
392,244,67814,1,0,0:0:0:0:
392,244,67904,1,10,0:0:0:0:
160,248,68084,1,0,0:0:0:0:
160,248,68174,1,0,0:0:0:0:
160,248,68263,6,0,P|148:308|164:368,1,120,2|0,0:0|0:0,0:0:0:0:
162,364,68623,1,10,0:0:0:0:
324,324,68802,1,2,0:0:0:0:
440,168,68982,1,0,0:0:0:0:
468,320,69162,1,2,0:0:0:0:
280,168,69341,1,8,0:0:0:0:
324,324,69521,1,2,0:0:0:0:
332,312,69880,5,2,0:0:0:0:
224,88,70060,1,10,0:0:0:0:
136,264,70239,1,2,0:0:0:0:
392,248,70419,6,0,L|352:232,1,40,4|0,0:0|0:0,0:0:0:0:
272,268,70599,2,0,L|220:284,1,40
156,168,70778,2,0,L|116:160,1,40,8|0,0:0|0:0,0:0:0:0:
56,268,70958,2,0,L|12:276,1,40
164,320,71138,6,0,P|224:316|296:288,1,120,6|0,0:0|0:0,0:0:0:0:
280,296,71497,1,10,0:0:0:0:
380,232,71677,2,0,P|340:192|264:176,1,120,2|0,0:0|0:0,0:0:0:0:
280,175,72036,1,2,0:0:0:0:
112,176,72216,2,0,L|28:204,1,80,10|0,0:0|0:0,0:0:0:0:
184,92,72575,6,0,P|244:76|320:80,1,120,2|0,0:0|0:0,0:0:0:0:
352,160,72934,2,0,P|304:152|223:158,1,120,10|0,0:0|0:0,0:0:0:0:
166,184,73293,1,2,0:0:0:0:
224,320,73473,1,0,0:0:0:0:
224,320,73563,1,0,0:0:0:0:
224,320,73653,1,10,0:0:0:0:
416,264,73832,1,0,0:0:0:0:
416,264,73922,1,0,0:0:0:0:
416,264,74012,6,0,P|488:208|504:176,1,120,2|0,0:0|0:0,0:0:0:0:
511,112,74371,1,10,0:0:0:0:
344,40,74551,2,0,P|288:76|256:132,1,120,2|0,0:0|0:0,0:0:0:0:
264,192,74910,1,2,0:0:0:0:
176,332,75090,1,8,0:0:0:0:
132,144,75269,1,0,0:0:0:0:
132,144,75359,1,0,0:0:0:0:
132,144,75449,6,0,L|112:48,1,80,6|0,0:0|0:0,0:0:0:0:
248,160,75808,2,0,L|276:68,1,80,14|0,0:0|0:0,0:0:0:0:
344,224,76168,2,0,L|420:160,1,80,6|0,0:0|0:0,0:0:0:0:
400,328,76527,2,0,L|492:308,1,80,14|0,0:0|0:0,0:0:0:0:
272,308,76886,6,0,P|216:256|164:240,1,120,6|0,0:0|0:0,0:0:0:0:
104,249,77245,1,10,0:0:0:0:
120,128,77425,2,0,P|184:116|240:136,1,120,2|0,0:0|0:0,0:0:0:0:
234,132,77784,1,2,0:0:0:0:
368,284,77964,1,8,0:0:0:0:
452,108,78144,1,0,0:0:0:0:
296,52,78323,6,0,L|336:124,1,80,2|0,0:0|0:0,0:0:0:0:
176,168,78683,2,0,L|264:212,1,80,10|0,0:0|0:0,0:0:0:0:
184,352,79042,2,0,L|280:336,1,80,2|0,0:0|0:0,0:0:0:0:
312,328,79311,1,0,0:0:0:0:
360,316,79401,2,0,L|388:256,1,40,10|0,0:0|0:0,0:0:0:0:
312,204,79581,2,0,L|336:152,1,40
360,48,79760,6,0,P|284:28|192:36,1,160,2|10,0:0|0:0,0:0:0:0:
0,80,80299,1,0,0:0:0:0:
96,244,80479,2,0,L|200:216,1,80,2|0,0:0|0:0,0:0:0:0:
296,272,80838,2,0,L|204:296,1,80,10|0,0:0|0:0,0:0:0:0:
320,152,81198,6,0,L|376:136,1,40
496,144,81377,2,0,L|444:160,1,40
264,208,81557,6,0,L|320:192,1,40,8|0,0:0|0:0,0:0:0:0:
440,200,81736,2,0,L|388:216,1,40
224,268,81916,6,0,L|280:252,1,40
400,260,82096,2,0,L|348:276,1,40
172,324,82275,1,10,0:0:0:0:
12,248,82455,1,2,0:0:0:0:
172,324,82635,6,0,L|340:284,1,160,6|10,0:0|0:0,0:0:0:0:
488,300,83174,1,2,0:0:0:0:
320,120,83353,6,0,L|140:84,1,160,6|10,0:0|0:0,0:0:0:0:
88,288,83892,1,2,0:0:0:0:
167,167,84072,6,0,L|320:120,1,160,6|8,0:0|0:0,0:0:0:0:
436,260,84611,1,2,0:0:0:0:
320,120,84790,6,0,L|160:88,1,160,2|8,0:0|0:0,0:0:0:0:
60,204,85329,1,0,0:0:0:0:
228,308,85509,5,4,0:0:0:0:
436,260,85689,1,0,0:0:0:0:
443,278,85778,1,0,0:0:0:0:
450,296,85868,1,0,0:0:0:0:
414,100,86048,1,0,0:0:0:0:
220,213,86227,5,4,0:0:0:0:
200,215,86317,1,0,0:0:0:0:
180,217,86407,1,0,0:0:0:0:
112,44,86587,1,0,0:0:0:0:
131,42,86677,1,0,0:0:0:0:
150,40,86766,1,0,0:0:0:0:
169,38,86856,1,0,0:0:0:0:
189,36,86946,5,4,0:0:0:0:
256,192,87036,12,0,89820,2:0:0:0:
