osu file format v9

[General]
AudioFilename: Gundam SEED - Invoke.mp3
AudioLeadIn: 3000
PreviewTime: 50273
Countdown: 0
SampleSet: Normal
StackLeniency: 0.4
Mode: 0
LetterboxInBreaks: 1

[Editor]
Bookmarks: 9226
DistanceSpacing: 1.7
BeatDivisor: 4
GridSize: 4

[Metadata]
Title:Invoke
Artist:T.M. Revolution
Creator:mercury2004
Version:ZGMF-X10A Freedom
Source:Mobile Suit Gundam Seed
Tags:OzzyOzrock

[Difficulty]
HPDrainRate:8
CircleSize:4
OverallDifficulty:7
ApproachRate:9
SliderMultiplier:2.5
SliderTickRate:1

[Events]
//Background and Video events
0,0,"bg.jpg"
//Break Periods
//Storyboard Layer 0 (Background)
//Storyboard Layer 1 (Fail)
//Storyboard Layer 2 (Pass)
//Storyboard Layer 3 (Foreground)
//Storyboard Sound Samples
//Background Colour Transformations
3,100,163,162,255

[TimingPoints]
641.18156694496,612.244897959184,4,2,0,60,1,0
12383,394.736842105263,4,1,1,60,1,0
16429,-100,4,1,1,50,0,0
16626,-100,4,1,1,60,0,0
16823,-100,4,1,1,65,0,0
17021,-100,4,1,1,70,0,0
17218,-100,4,1,1,60,0,0
47218,-100,4,1,1,40,0,0
47905,-100,4,1,1,60,0,0
48007,-100,4,1,1,60,0,0
48698,-100,4,1,1,60,0,0
50277,-76.9230769230769,4,1,1,80,0,1
56494,-76.9230769230769,4,1,1,80,0,0
56593,-76.9230769230769,4,1,1,80,0,1
64483,-76.9230769230769,4,1,1,60,0,1
64878,-76.9230769230769,4,1,1,70,0,1
65273,-76.9230769230769,4,1,1,80,0,1
65968,-76.9230769230769,4,1,1,70,0,0
66065,-76.9230769230769,4,2,1,80,0,1
66165,-166.666666666667,4,2,1,60,0,0
67646,-76.9230769230769,4,2,1,70,0,0
69323,-76.9230769230769,4,1,1,50,0,0
72378,-100,4,1,1,75,0,0
76330,-100,4,1,1,55,0,0
76527,-100,4,1,1,65,0,0
76725,-100,4,1,1,75,0,0
76922,-100,4,1,1,75,0,0
106922,-100,4,1,1,75,0,0
110277,-76.9230769230769,4,1,1,80,0,1
116494,-76.9230769230769,4,1,1,80,0,0
116593,-76.9230769230769,4,1,1,80,0,1
124488,-76.9230769230769,4,1,1,60,0,1
124882,-76.9230769230769,4,1,1,70,0,1
125277,-76.9230769230769,4,1,1,80,0,1
125968,-76.9230769230769,4,1,1,80,0,0
126067,-76.9230769230769,4,2,1,85,0,1
126165,-76.9230769230769,4,2,1,85,0,0
145012,-100,4,2,1,70,0,0
145113,-100,4,2,1,70,0,0
151330,-100,4,2,1,100,0,0
151429,-100,4,1,1,30,0,0
151725,-100,4,1,1,50,0,0
151823,-100,4,1,1,30,0,0
152514,-100,4,1,1,50,0,0
152613,-100,4,1,1,30,0,0
153304,-100,4,1,1,50,0,0
153402,-100,4,1,1,30,0,0
154093,-100,4,1,1,50,0,0
154192,-100,4,1,1,30,0,0
154488,-100,4,2,1,100,0,0
154586,-100,4,1,1,30,0,0
154882,-100,4,1,1,50,0,0
154981,-100,4,1,1,30,0,0
155672,-100,4,1,1,50,0,0
155771,-100,4,1,1,30,0,0
156461,-100,4,1,1,50,0,0
156560,-100,4,1,1,30,0,0
157251,-100,4,1,1,50,0,0
157350,-100,4,1,1,30,0,0
157646,-100,4,2,1,100,0,0
157744,-100,4,1,1,20,0,0
158040,-100,4,1,1,60,0,0
158139,-100,4,1,1,30,0,0
158435,-100,4,1,1,40,0,0
158830,-100,4,1,1,70,0,0
158929,-100,4,1,1,50,0,0
159225,-100,4,1,1,60,0,0
159619,-100,4,1,1,75,0,0
163961,-100,4,2,1,15,0,0
164060,-100,4,1,1,15,0,0
167119,-100,4,1,1,70,0,0
168698,-100,4,2,1,40,0,0
168797,-100,4,2,1,45,0,0
168896,-100,4,2,1,50,0,0
168994,-100,4,2,1,60,0,0
169093,394.736842105263,4,1,1,80,1,1
169093,-76.9230769230769,4,1,1,80,0,1
175310,-76.9230769230769,4,1,1,80,0,0
175406,-76.9230769230769,4,1,1,80,0,1
183304,-76.9230769230769,4,1,1,55,0,1
183698,-76.9230769230769,4,1,1,65,0,1
184093,-76.9230769230769,4,1,1,70,0,1
184784,-76.9230769230769,4,1,1,70,0,0
184879,-76.9230769230769,4,1,1,80,0,1
191100,-76.9230769230769,4,1,1,80,0,0
191198,-76.9230769230769,4,1,1,80,0,1
197909,-166.666666666667,4,1,1,50,0,1
198698,-166.666666666667,4,1,1,60,0,1
199981,-166.666666666667,4,1,1,70,0,1
200573,-166.666666666667,4,1,1,70,0,0
200672,-166.666666666667,4,1,1,80,0,1
200771,-166.666666666667,4,1,1,80,0,0
201264,-100,4,1,1,50,0,0
201461,-100,4,1,1,80,0,0
201659,-100,4,1,1,50,0,0
201856,-100,4,1,1,80,0,0
202054,-100,4,1,1,50,0,0
202251,-100,4,1,1,80,0,0
202448,-100,4,1,1,50,0,0
202646,-100,4,1,1,80,0,0
202843,-100,4,1,1,50,0,0
203040,-100,4,1,1,80,0,0
203238,-100,4,1,1,50,0,0
203435,-100,4,1,1,80,0,0
203632,-100,4,1,1,50,0,0
203830,-100,4,1,1,80,0,0
204027,-100,4,1,1,50,0,0
204225,-100,4,1,1,80,0,0
204422,-100,4,1,1,50,0,0
204619,-100,4,1,1,80,0,0
204817,-100,4,1,1,50,0,0
205014,-100,4,1,1,80,0,0
205211,-100,4,1,1,50,0,0
205409,-100,4,1,1,80,0,0
205606,-100,4,1,1,50,0,0
205804,-100,4,1,1,80,0,0
206001,-100,4,1,1,50,0,0
206198,-100,4,1,1,80,0,0
206396,-100,4,1,1,50,0,0
206593,-100,4,1,1,80,0,0
206790,-100,4,1,1,50,0,0
206988,-100,4,1,1,80,0,0
207185,-100,4,1,1,50,0,0
207382,-100,4,1,1,80,0,0
207580,-100,4,1,1,50,0,0
207777,-100,4,1,1,80,0,0
207975,-100,4,1,1,50,0,0
208172,-100,4,1,1,80,0,0
210146,-100,4,1,1,60,0,0
213304,-100,4,2,1,100,0,0
213402,-100,4,2,1,80,0,0

[Colours]
Combo1 : 213,218,253
Combo2 : 60,26,219
Combo3 : 82,150,224

[HitObjects]
256,192,641,5,2
328,88,947,2,0,B|408:88,2,62.5,0|0|2
200,88,1559,1,0
192,216,1865,2,0,B|112:312,1,125,2|0
280,256,2477,2,0,B|376:336,1,125,2|0
320,168,3090,2,0,B|400:72,1,125,2|0
232,128,3702,2,0,B|136:48,1,125,2|0
208,240,4314,6,0,B|232:272|232:272|280:272|280:272|312:232,2,125,2|0|2
256,136,5233,1,0
256,136,5539,1,2
192,248,5845,1,0
320,248,6151,1,2
320,248,6457,6,0,B|384:296,2,62.5,2|0|2
256,136,7069,2,0,B|256:8,2,125,0|2|0
256,136,7988,1,2
192,248,8294,2,0,B|128:296,2,62.5,2|0|2
256,184,8906,1,0
256,184,9212,1,2
256,192,9365,12,4,12383
136,144,12580,5,0
120,160,12679,1,0
112,184,12777,1,8
256,152,12975,1,0
372,132,13172,1,0
388,116,13271,1,0
396,92,13369,1,0
296,16,13567,1,8
152,100,13764,5,0
116,200,13961,1,2
204,268,14159,1,0
288,208,14356,1,8
260,104,14554,1,0
116,200,14751,5,0
140,208,14850,1,0
164,216,14948,1,0
188,224,15047,1,0
212,232,15146,1,10
176,352,15343,1,0
48,320,15540,5,0
72,200,15738,1,0
176,264,15935,1,10
192,144,16133,1,0
304,208,16330,1,0
312,80,16527,2,0,B|368:48,6,62.5,0|0|8|0|0|0|0
140,214,17383,5,0
357,91,17646,1,0
256,319,17909,1,0
206,74,18172,1,0
382,250,18435,1,0
76,71,18698,5,4
40,192,18896,1,0
80,312,19093,2,0,B|112:352|152:360|232:304,1,125,10|0
296,264,19488,2,0,B|264:224|224:216|144:272,1,125,0|0
176,256,19784,1,0
168,264,19882,1,10
296,264,20080,1,0
416,224,20277,5,8
424,96,20475,2,0,B|376:48|288:48,2,125,0|10|0
416,224,21067,1,0
320,288,21264,1,0
320,288,21363,1,0
320,288,21461,2,0,B|360:350|449:347,2,125,10|0|0
256,192,22054,5,0
128,192,22251,2,0,B|224:96,1,125,10|0
384,192,22646,2,0,B|280:296,1,125,0|0
256,192,23040,5,10
256,192,23238,1,0
216,62,23435,5,0
385,152,23632,1,0
295,321,23830,1,10
126,231,24027,1,0
256,192,24225,5,0
256,312,24422,1,0
256,312,24521,1,0
256,312,24619,1,10
256,64,24817,1,0
256,312,25014,6,0,B|128:376,1,125,10|0
256,192,25409,2,0,B|384:128,1,125,0|0
80,88,25804,6,0,B|144:216,1,125,10|0
312,304,26198,2,0,B|248:176,1,125
256,64,26593,5,10
384,144,26790,1,0
336,288,26988,1,8
176,288,27185,1,0
128,144,27382,1,10
256,192,27580,1,8
256,192,27679,1,0
256,192,27777,1,10
128,64,27975,5,0
256,192,28172,1,0
384,64,28369,1,0
360,272,28567,6,0,B|336:344|248:336,1,125,10|0
216,224,28961,1,0
152,336,29159,1,0
88,224,29356,1,10
88,224,29554,2,0,B|88:120|184:104,1,125,0|0
256,60,29948,1,0
256,184,30146,2,0,B|312:248|408:160,1,125,10|0
256,184,30540,1,10
256,184,30639,1,0
256,184,30738,1,0
344,48,30935,5,10
160,48,31132,1,0
344,48,31330,6,8,B|480:128,1,125,14|0
400,224,31725,2,0,B|304:320,1,125
224,224,32119,2,0,B|88:344,1,125,10|0
32,160,32514,2,0,B|128:64,1,125,0|0
224,160,32909,2,0,B|344:60,1,125,10|0
432,160,33304,1,8
316,80,33501,1,0
228,256,33698,1,8
144,76,33896,5,0
144,76,33994,1,0
144,76,34093,1,0
52,160,34290,1,0
148,240,34488,1,10
224,160,34685,1,0
152,240,34882,1,10
224,312,35080,2,0,B|304:328|336:232,1,125,0|0
396,156,35475,1,0
292,88,35672,1,10
192,208,35869,5,0
96,88,36067,1,8
96,88,36165,1,0
96,88,36264,1,0
96,88,36363,1,0
96,88,36461,1,10
192,208,36659,5,8
96,336,36856,1,0
96,336,36955,1,0
96,336,37054,1,0
96,336,37152,1,0
96,336,37251,1,10
64,240,37448,6,0,B|152:240|144:152,1,125,0|10
256,112,37843,1,0
256,240,38040,1,2
445,239,38238,2,0,B|360:240|367:166,1,125,0|8
256,240,38632,1,0
256,44,38830,1,10
176,136,39027,6,0,B|144:168|144:216|184:256,1,125,0|8
344,248,39422,2,0,B|376:216|376:168|336:128,1,125,0|10
176,136,39817,5,0
344,136,40014,1,8
256,240,40211,1,0
120,232,40409,5,2
392,232,40606,1,0
256,336,40804,1,10
256,80,41001,1,0
80,160,41198,5,2
208,168,41396,1,0
200,40,41593,1,8
432,224,41790,5,0
304,216,41988,1,2
312,344,42185,1,0
256,232,42383,5,8
368,112,42580,2,0,B|416:160,2,62.5,0|0|10
144,112,42975,2,0,B|96:160,2,62.5,0|0|0
256,296,43369,1,0
256,280,43468,1,0
256,264,43567,1,2
256,128,43764,1,0
64,128,43961,6,0,B|192:128,1,125,4|0
400,224,44356,2,0,B|272:224,1,125,10|0
184,312,44751,1,0
304,352,44948,1,0
320,360,45047,1,0
336,352,45146,1,10
456,312,45343,1,0
448,128,45540,6,0,B|320:128,1,125,4|0
112,224,45935,2,0,B|240:224,1,125,10|0
328,312,46330,1,0
208,352,46527,1,0
192,360,46626,1,0
176,352,46725,1,10
56,312,46922,1,0
196,192,47119,5,4
196,176,47218,1,0
196,160,47317,1,0
204,152,47415,1,0
212,144,47514,1,2
220,136,47613,1,0
232,132,47711,1,0
244,128,47810,1,0
256,128,47909,5,6
268,132,48008,1,0
280,136,48106,1,0
288,144,48205,1,0
296,152,48304,1,2
300,164,48402,1,0
300,176,48501,1,0
300,188,48600,1,0
300,200,48698,5,0
408,324,48945,1,2
176,144,49241,5,0
48,256,49488,1,2
304,96,49734,5,0
420,216,50031,1,2
256,176,50277,5,12
96,176,50475,2,0,B|16:176,2,81.2499985471368,0|0|2
96,176,50869,1,0
256,176,51067,2,0,B|448:176,1,162.499997094274,12|0
304,256,51461,1,2
304,96,51659,1,0
64,64,51856,6,0,B|240:64,1,162.499997094274,14|0
480,192,52251,2,0,B|272:192,1,162.499997094274,6|0
64,320,52646,2,0,B|240:320,1,162.499997094274,14|0
384,192,53040,5,10
248,100,53238,2,0,B|220:60|148:48|80:84,1,162.499997094274,0|10
264,284,53632,2,0,B|292:324|364:336|432:300,1,162.499997094274
176,272,54027,2,0,B|88:248,2,81.2499985471368,0|0|8
336,272,54422,2,0,B|424:248,2,81.2499985471368,0|0|8
176,272,54817,1,0
336,272,55014,1,12
256,144,55211,6,0,B|256:64,2,81.2499985471368,0|0|10
128,176,55606,1,0
112,168,55705,1,0
96,160,55804,1,8
128,288,56001,1,0
144,296,56100,1,0
160,304,56198,1,10
320,264,56396,1,0
336,248,56494,1,0
352,232,56593,6,0,B|424:160|424:160|424:80,1,162.499997094274,12|0
256,32,56988,1,0
120,120,57185,1,0
120,120,57284,1,0
120,120,57382,2,0,B|120:200|120:200|200:288,1,162.499997094274,10|0
320,328,57777,6,0,B|536:328,1,162.499997094274
168,264,58172,2,0,B|0:264,1,162.499997094274,12|0
384,192,58567,1,2
96,128,58764,1,0
256,32,58961,1,12
256,32,59060,1,0
256,32,59159,1,0
256,32,59258,1,0
256,32,59356,1,10
176,128,59554,5,0
176,288,59751,1,12
304,208,59948,1,0
392,72,60146,2,0,B|359:17|293:0|230:19,2,162.499997094274,2|0|8
352,208,60738,5,0
256,288,60935,1,10
160,208,61133,1,0
184,88,61330,5,12
160,96,61429,1,0
144,112,61527,1,0
136,136,61626,1,0
136,160,61725,1,10
376,160,61922,1,8
376,136,62021,1,0
368,112,62119,1,12
352,96,62218,1,0
328,88,62317,5,0
136,160,62514,5,2
376,160,62711,1,0
256,304,62909,1,12
136,336,63106,5,0
384,336,63304,1,2
256,192,63501,1,0
256,192,63600,1,0
256,192,63698,1,8
256,32,63896,1,0
180,288,64093,6,0,B|260:348|356:272,1,162.499997094274,8|0
392,176,64488,1,8
387,151,64586,1,0
374,129,64685,1,0
361,108,64784,1,0
342,92,64883,1,8
320,79,64981,1,0
296,71,65080,1,0
271,67,65179,1,0
246,69,65277,1,8
221,71,65376,1,0
196,73,65475,1,0
172,80,65573,1,0
151,93,65672,1,8
135,111,65771,1,0
126,133,65869,1,8
118,156,65968,1,8
115,181,66067,1,4
352,192,66264,6,0,B|400:192,2,37.5000008940697,0|0|2
208,275,66659,2,0,B|184:316,2,37.5000008940697,0|0|2
208,108,67054,2,0,B|183:67,2,37.5000008940697,0|0|2
64,192,67448,2,0,B|16:192,2,37.5000008940697,0|0|2
192,192,67843,5,0
288,112,68040,1,2
400,64,68238,1,0
320,192,68435,1,2
448,192,68633,1,0
288,272,68830,1,2
400,320,69027,1,0
192,192,69225,5,4
192,192,69422,1,0
264,336,69619,2,8,B|264:272|308:228|404:196,1,162.499997094274,8|0
356,214,69915,1,0
356,214,70014,1,0
440,76,70211,1,0
440,76,70409,2,0,B|356:116|260:72,1,162.499997094274,8|0
282,81,70705,1,0
282,81,70804,1,0
80,144,71001,5,0
80,144,71198,2,0,B|152:180|256:140,1,162.499997094274,8|0
396,192,71593,1,8
372,212,71692,1,0
344,224,71790,1,0
312,232,71889,1,0
280,232,71988,1,8
148,324,72185,1,8
272,324,72382,6,0,B|336:320|412:264,1,125,4|0
404,252,72679,1,0
416,224,72777,2,0,B|412:160|372:108,1,125,10|0
280,192,73172,1,2
252,176,73271,1,0
236,148,73369,1,0
228,116,73468,1,0
240,88,73567,1,10
364,104,73764,1,0
280,192,73961,5,0
176,296,74159,1,0
52,320,74356,1,10
4,204,74554,1,0
92,116,74751,1,0
120,132,74850,1,0
148,144,74948,1,0
176,160,75047,1,0
204,176,75146,1,10
256,292,75343,1,0
380,280,75540,5,0
284,204,75737,1,0
228,92,75935,1,10
172,204,76132,1,0
76,280,76330,1,0
96,304,76429,1,0
120,324,76527,1,0
148,336,76626,1,0
176,344,76725,1,10
208,348,76823,1,0
240,348,76922,1,0
256,192,77119,6,0,B|256:20,1,166.666666666667,0|2
352,224,77646,2,0,B|504:344,1,166.666666666667,0|2
160,224,78172,2,0,B|8:360,1,166.666666666667,0|2
80,192,78698,5,4
200,104,78896,2,0,B|64:104,1,125,0|2
280,216,79290,2,0,B|136:216|152:216,1,125,0|8
368,320,79685,2,0,B|240:320,1,125,0|2
412,192,80080,1,0
300,76,80277,5,8
160,192,80475,1,0
288,320,80672,1,10
396,256,80869,5,0
396,132,81067,1,8
160,192,81264,5,0
172,192,81363,1,0
184,192,81461,1,10
412,192,81659,1,0
184,192,81856,5,0
412,192,82054,1,0
48,88,82251,6,0,B|184:88,1,125,10|0
200,192,82646,2,0,B|181:192|325:192,1,125,0|0
48,296,83040,2,0,B|176:296,1,125,10|0
448,256,83435,5,8
352,96,83633,1,0
288,256,83830,1,2
192,96,84027,1,0
128,256,84225,1,8
32,96,84422,1,0
32,96,84521,1,0
32,96,84619,1,10
128,192,84817,5,0
384,192,85014,1,8
376,328,85211,6,0,B|248:208,1,125,0|2
136,328,85606,2,0,B|264:208,1,125,0|8
48,192,86001,2,0,B|216:192,1,125,0|10
464,192,86396,2,0,B|296:192,1,125,0|8
176,32,86790,2,0,B|152:56|152:144|184:168,1,125,0|10
328,152,87185,2,8,B|352:128|352:40|320:16,1,125,0|8
256,288,87580,1,0
256,288,87679,1,0
256,288,87777,1,2
136,312,87975,1,0
64,224,88172,6,0,B|64:152|128:112,1,125,8|0
208,32,88567,1,10
316,88,88764,2,0,B|400:88|428:184,1,125,0|8
440,272,89159,1,0
352,360,89356,1,10
320,240,89554,1,0
440,272,89751,1,0
264,336,89948,5,0
248,336,90047,1,0
232,336,90146,1,10
48,192,90343,1,0
64,192,90442,1,0
80,192,90540,1,0
352,288,90738,1,0
160,288,90935,1,10
288,288,91133,5,0
160,288,91330,1,4
88,184,91527,1,0
224,192,91725,1,8
280,80,91922,1,0
152,80,92119,1,2
408,80,92317,6,0,B|480:80|480:184,1,125,0|10
408,304,92711,1,0
408,304,92909,2,0,B|480:304|480:200,1,125,0|0
360,40,93304,5,10
176,136,93501,1,0
360,40,93698,1,8
176,136,93896,1,2
176,136,93994,1,0
174,140,94093,6,0,B|128:152|128:216|176:240,1,125,10|0
353,243,94488,2,0,B|400:232|400:168|352:144,1,125,8|0
208,96,94883,2,0,B|232:48|296:48|320:120,2,125,10|0|0
120,216,95475,2,0,B|0:288,1,125,0|10
256,224,95869,2,0,B|256:352,1,125,0|0
392,216,96264,2,0,B|512:288,1,125,0|10
352,96,96659,5,0
352,96,96758,1,0
352,96,96856,1,8
160,96,97054,1,0
160,96,97152,1,0
160,96,97251,1,8
256,168,97448,1,0
284,328,97646,6,0,B|364:308|376:224,1,125,14|0
204,104,98040,2,0,B|124:124|112:208,1,125,8|0
248,212,98435,1,2
336,124,98633,2,0,B|400:64,2,62.5,0|0|8
248,212,99027,5,0
96,304,99225,2,0,B|127:380|212:380,1,125,2|0
416,80,99619,2,0,B|385:4|300:4,1,125,8|0
248,212,100014,1,2
408,248,100211,5,0
408,248,100310,1,0
408,248,100409,2,0,B|408:320|288:320,1,125,10|0
280,200,100804,1,0
200,296,101001,2,0,B|128:264|168:176,1,125,0|10
256,128,101396,1,0
256,128,101593,1,8
176,40,101790,2,0,B|96:40|72:112,2,125,0|10|0
176,40,102383,5,12
76,100,102580,1,0
76,100,102679,1,0
76,100,102777,1,10
112,248,102975,1,0
112,248,103073,1,0
112,248,103172,1,0
256,304,103369,2,0,B|256:368,2,62.5,0|0|2
160,224,103764,6,0,B|32:152,1,125,4|8
256,176,104159,2,0,B|256:40,1,125,4|2
352,224,104554,2,0,B|480:152,1,125,4|8
288,288,104948,1,8
256,304,105047,1,0
224,288,105146,1,10
352,160,105343,6,0,B|480:232,1,125,4|8
256,208,105738,2,0,B|256:344,1,125,4|10
160,160,106133,2,0,B|32:232,1,125,4|8
224,96,106527,1,8
256,80,106626,1,0
288,96,106725,1,10
192,128,106922,5,0
192,256,107119,1,0
320,256,107317,1,0
320,128,107514,1,10
138,192,107711,5,0
255,310,107909,1,0
373,192,108106,1,0
256,75,108304,1,10
140,192,108501,1,0
336,320,108698,6,0,B|536:320,1,166.666666666667,0|2
192,192,109225,2,0,B|-8:192,1,166.666666666667,0|2
328,64,109751,2,0,B|512:64,1,166.666666666667,0|2
176,320,110277,5,12
184,64,110475,1,0
64,192,110672,1,2
480,192,110869,5,0
480,192,110968,1,0
480,192,111067,2,0,B|264:192,1,162.499997094274,8|0
64,192,111461,1,2
320,192,111659,1,0
175,118,111856,1,8
156,102,111955,1,0
138,85,112054,1,4
136,248,112251,5,6
272,336,112448,1,4
368,204,112646,1,12
384,188,112744,1,0
400,172,112843,1,0
416,156,112942,1,0
432,140,113040,1,10
256,64,113238,6,0,B|344:56|344:56|452:156,1,162.499997094274,0|8
472,248,113633,1,0
336,296,113830,2,0,B|248:304|248:304|140:204,1,162.499997094274,0|0
192,256,114126,1,0
192,256,114225,1,12
352,192,114422,5,0
192,192,114619,1,10
424,192,114817,5,0
120,192,115014,1,12
352,192,115211,5,0
192,192,115409,1,10
352,192,115606,2,0,B|460:192,2,81.2499985471368,0|0|8
120,196,116001,1,8
96,196,116100,1,0
72,196,116198,1,8
416,320,116396,6,0,B|304:320|304:200,1,162.499997094274,0|4
464,192,116790,2,0,B|464:88|328:88,1,162.499997094274,0|10
192,96,117185,2,0,B|88:96|88:208,1,162.499997094274,0|4
224,320,117580,2,0,B|328:320|328:200,1,162.499997094274,0|8
160,64,117975,6,0,B|56:64|56:176,1,162.499997094274,0|4
288,352,118369,2,0,B|392:352|392:240,1,162.499997094274,0|8
304,160,118764,1,0
296,136,118863,1,0
276,120,118961,1,8
252,116,119060,1,0
228,120,119159,1,0
212,140,119258,1,0
208,164,119356,1,10
408,56,119554,5,0
248,176,119751,1,8
120,56,119948,1,0
104,56,120047,1,0
88,56,120146,1,10
64,216,120343,1,8
176,328,120540,1,8
336,328,120738,1,0
456,216,120935,1,10
352,48,121133,5,0
168,48,121330,1,12
352,224,121527,5,8
368,208,121626,1,0
376,184,121724,1,2
368,160,121823,1,0
352,144,121922,1,0
160,152,122119,1,8
144,168,122218,1,0
136,192,122316,1,0
144,216,122415,1,0
160,232,122514,1,0
256,128,122711,5,0
256,320,122909,1,12
352,223,123106,1,0
160,224,123304,1,0
256,56,123501,1,0
256,56,123600,1,0
256,56,123698,1,8
256,320,123896,1,0
184,48,124093,2,0,B|264:-8|360:64,1,162.499997094274,10|0
392,208,124488,5,8
387,233,124586,1,0
374,255,124685,1,0
361,276,124784,1,0
342,292,124883,1,8
320,305,124981,1,0
296,313,125080,1,0
271,317,125179,1,0
246,315,125277,1,8
221,313,125376,1,0
196,311,125475,1,0
172,304,125573,1,0
151,291,125672,1,8
135,273,125771,1,0
126,251,125869,1,8
118,228,125968,1,8
115,203,126067,1,4
400,192,126264,5,0
400,192,126363,1,0
400,192,126461,1,2
268,100,126659,1,0
268,100,126758,1,0
268,100,126856,1,2
252,260,127054,1,0
252,260,127152,1,0
252,260,127251,1,2
136,152,127448,5,0
120,152,127547,1,0
104,160,127646,1,2
216,312,127843,1,0
216,328,127942,1,0
224,344,128040,1,2
376,232,128238,1,0
392,232,128336,1,0
408,224,128435,1,2
296,72,128633,1,0
296,56,128731,1,0
288,40,128830,1,2
176,192,129027,5,0
336,192,129225,1,6
256,192,129323,12,4,132383
96,88,132580,5,2
224,88,132777,2,0,B|308:88,1,81.2499985471368,0|2
392,160,133073,2,0,B|292:160,1,81.2499985471368,0|2
144,168,133369,1,2
232,232,133567,2,0,B|316:232,1,81.2499985471368,0|2
400,296,133863,2,0,B|264:296,1,81.2499985471368,0|2
104,288,134159,5,2
104,160,134356,2,0,B|104:80,1,81.2499985471368,0|2
216,160,134652,2,0,B|216:72,1,81.2499985471368,0|2
336,136,134948,1,2
408,240,135146,2,0,B|408:328,1,81.2499985471368,0|2
304,240,135442,2,0,B|304:332,1,81.2499985471368,0|2
144,240,135738,5,2
48,160,135935,1,0
48,136,136034,1,2
144,40,136231,1,0
144,64,136330,1,2
240,160,136527,1,2
336,80,136725,1,0
360,80,136823,1,2
472,160,137021,1,0
448,160,137119,1,2
352,256,137317,5,2
224,256,137514,2,0,B|124:256,1,81.2499985471368,0|2
64,184,137810,1,0
88,184,137909,1,2
224,112,138106,1,2
336,64,138304,2,0,B|436:64,1,81.2499985471368,0|2
336,272,138600,1,0
336,272,138698,6,0,B|336:104,1,162.499997094274,2|0
176,112,139093,2,0,B|176:280,1,162.499997094274,2|0
448,240,139488,2,0,B|448:64,1,162.499997094274,2|0
64,144,139883,2,0,B|64:320,1,162.499997094274,2|0
256,144,140277,6,0,B|88:144,1,162.499997094274,2|0
256,240,140672,2,0,B|424:240,1,162.499997094274,2|0
304,32,141067,2,0,B|128:32,1,162.499997094274,2|0
208,352,141461,2,0,B|384:352,1,162.499997094274,2|0
256,64,141856,5,2
256,64,142054,1,0
128,272,142251,1,2
128,272,142448,1,0
384,272,142646,1,2
384,272,142843,1,0
256,168,143040,5,2
176,312,143238,1,0
336,312,143435,1,2
256,168,143633,1,0
128,272,143830,1,2
32,192,144027,1,0
128,96,144225,1,2
224,192,144422,1,0
128,272,144619,5,2
128,96,144817,1,0
64,192,145014,6,0,B|204:192,1,125,4|0
232,72,145409,1,2
280,192,145606,1,0
232,304,145804,1,0
352,328,146001,1,0
384,208,146198,2,0,B|464:208|456:112,1,125,2|0
328,136,146593,2,0,B|248:136|256:232,1,125,0|0
120,264,146988,5,2
44,164,147185,1,0
152,88,147383,1,0
216,192,147580,1,0
120,264,147777,1,2
216,192,147975,1,0
360,176,148171,6,0,B|446:118,2,62.5,0|0|0
256,256,148566,2,0,B|256:344,2,62.5,2|0|0
144,176,148961,2,0,B|80:128,2,62.5,0|0|0
144,248,149357,6,0,B|64:312,2,62.5,2|0|0
256,160,149751,2,0,B|256:64,2,62.5
368,248,150146,2,0,B|456:320,2,62.5,2|0|0
184,192,150540,5,0
168,192,150639,1,0
152,192,150738,1,0
328,192,150935,1,2
344,192,151034,1,0
360,192,151133,1,0
428,60,151330,6,0,B|364:60,1,62.5,4|0
340,60,151527,2,0,B|264:100,1,62.5
260,88,151725,2,0,B|192:48,1,62.5,8|0
184,48,151922,2,0,B|120:60,1,62.5
104,44,152119,2,0,B|32:24,1,62.5
28,44,152317,2,0,B|-16:88,1,62.5
0,108,152514,2,0,B|0:176,1,62.5,8|0
12,192,152711,2,0,B|32:260,1,62.5
56,256,152909,2,0,B|120:280,1,62.5
136,292,153106,2,0,B|169:346,1,62.5
192,352,153304,2,0,B|264:376,1,62.5,8|0
276,368,153501,2,0,B|352:332,1,62.5
352,324,153698,2,0,B|416:264,1,62.5
404,256,153896,2,0,B|324:208,1,62.5
364,204,154093,2,0,B|428:184,1,62.5,8|0
420,160,154290,2,0,B|352:132,1,62.5
364,112,154488,6,0,B|444:72,1,62.5,4|0
412,60,154685,2,0,B|344:36,1,62.5
328,44,154882,2,0,B|260:80,1,62.5,8|0
256,92,155080,2,0,B|176:68,1,62.5
172,80,155277,2,0,B|76:120,1,62.5
92,112,155475,2,0,B|24:120,1,62.5
24,144,155672,2,0,B|-12:200,1,62.5,8|0
0,232,155869,2,0,B|0:308,1,62.5
8,320,156067,2,0,B|64:356,1,62.5
84,360,156264,2,0,B|176:344,1,62.5
156,328,156461,2,0,B|140:252,1,62.5,8|0
156,244,156659,2,0,B|200:176,1,62.5
216,196,156856,2,0,B|288:212,1,62.5
288,232,157054,2,0,B|316:292,1,62.5
340,292,157251,2,0,B|412:312,1,62.5,8|0
416,292,157448,2,0,B|480:240,1,62.5
424,116,157646,5,0
380,92,157744,1,0
336,64,157843,1,0
296,36,157942,1,0
252,12,158040,2,0,B|224:4|180:28,1,62.5,8|0
100,64,158238,5,0
108,112,158336,1,0
124,160,158435,1,0
152,204,158534,1,0
188,240,158632,1,0
232,260,158731,1,0
280,272,158830,2,0,B|312:272|356:232,1,62.5,8|0
372,148,159027,5,0
360,100,159126,1,0
324,68,159224,1,0
276,56,159323,1,0
224,60,159422,1,0
188,92,159520,1,0
168,136,159619,2,0,B|150:206|198:247,1,62.5,8|0
232,296,159817,5,0
273,322,159915,1,0
320,320,160014,1,8
332,268,160113,6,0,B|339:205|300:164,1,62.5,0|8
352,64,160310,6,0,B|384:88|389:140,1,62.5,8|8
464,268,160507,6,0,B|481:219|458:158,1,62.5,8|8
352,64,160804,5,0
192,128,161001,1,8
352,192,161198,1,0
192,256,161396,1,8
368,360,161593,5,0
128,312,161790,1,8
368,240,161988,1,0
128,184,162185,1,8
376,80,162382,5,0
176,48,162580,1,8
152,248,162777,1,0
352,272,162975,1,8
264,96,163172,5,0
112,224,163368,1,8
248,368,163566,1,8
400,240,163763,1,8
256,240,163961,5,0
256,64,167119,5,0
320,288,167382,1,2
144,160,167646,1,2
368,160,167909,1,2
192,288,168172,1,0
256,64,168435,1,2
256,192,168698,6,0,B|256:240,8,31.25,0|0|0|0|0|0|0|0|4
112,192,169290,5,0
148,32,169488,1,2
280,152,169685,1,0
280,152,169784,1,0
280,152,169882,1,12
248,320,170080,1,2
112,192,170277,1,0
392,208,170475,5,0
392,208,170573,1,4
392,208,170672,1,8
64,208,170869,1,0
64,208,170968,1,0
64,208,171067,1,2
392,208,171264,1,0
392,208,171363,1,4
392,208,171461,1,12
216,208,171659,5,0
44,132,171856,1,10
140,292,172054,1,0
168,108,172251,1,12
36,244,172448,1,0
216,208,172645,1,2
392,160,172843,1,0
412,192,172942,1,0
392,228,173040,1,12
304,304,173238,6,0,B|120:304,1,162.499997094274,0|2
272,160,173632,2,0,B|456:160,1,162.499997094274,0|12
304,16,174027,2,0,B|120:16,1,162.499997094274,0|2
336,160,174422,2,0,B|536:160,1,162.499997094274,0|12
232,304,174817,2,0,B|48:304,1,162.499997094274,0|10
68,192,175211,5,0
68,192,175310,1,0
68,192,175409,1,12
216,104,175606,1,0
216,280,175804,1,0
320,64,176001,1,0
320,320,176198,1,12
320,320,176297,1,0
320,320,176396,1,0
440,192,176593,1,6
320,64,176790,1,0
320,320,176988,1,12
112,192,177185,5,0
328,192,177382,1,2
144,240,177580,1,0
280,152,177777,1,12
300,136,177876,1,0
320,120,177975,1,0
340,104,178073,1,0
356,88,178172,1,10
223,28,178369,6,0,B|175:13|93:63|99:131,1,162.499997094274
92,224,178764,2,0,B|77:272|127:354|195:348,1,162.499997094274,0|10
288,355,179159,2,0,B|336:370|418:320|412:252,1,162.499997094274
419,159,179554,2,0,B|434:111|384:29|316:35,1,162.499997094274,0|10
80,192,179948,5,0
80,192,180146,1,12
256,192,180343,1,0
280,192,180441,1,0
304,192,180540,1,10
468,192,180737,1,8
444,192,180836,1,0
420,192,180935,1,4
396,192,181033,1,0
372,192,181132,1,8
256,136,181330,5,10
256,152,181429,1,0
256,168,181527,1,0
256,328,181725,1,12
368,232,181922,6,0,B|368:144|368:144|288:72,1,162.499997094274
144,152,182317,2,0,B|144:240|144:240|224:312,1,162.499997094274,0|8
256,52,182711,1,0
176,296,182909,2,0,B|244:336|344:288,1,162.499997094274,8|0
392,176,183304,5,8
387,151,183402,1,0
374,129,183501,1,0
361,108,183600,1,0
342,92,183699,1,8
320,79,183797,1,0
296,71,183896,1,0
271,67,183995,1,0
246,67,184093,1,8
221,67,184192,1,0
196,73,184291,1,0
172,80,184389,1,0
151,93,184488,1,8
135,111,184587,1,0
126,133,184685,1,8
118,156,184784,1,8
115,180,184882,5,12
397,180,185080,1,0
256,48,185277,1,2
116,184,185475,1,0
132,200,185573,1,0
152,220,185672,1,8
356,160,185869,1,0
256,320,186067,1,2
88,272,186264,1,0
256,120,186461,5,8
272,104,186560,1,0
288,88,186659,1,4
368,256,186856,1,2
256,120,187054,1,0
136,248,187251,1,12
120,264,187350,1,0
104,280,187449,1,4
88,296,187547,1,0
72,312,187646,1,12
200,296,187843,6,0,B|72:176,1,162.499997094274,0|12
312,296,188238,2,0,B|430:184,1,162.499997094274,0|12
256,32,188632,1,0
256,32,188731,1,0
256,32,188830,1,8
256,216,189027,1,0
128,88,189224,1,12
288,64,189422,5,0
416,192,189619,1,4
224,320,189817,1,0
96,192,190014,1,10
288,128,190211,5,0
416,192,190408,1,4
224,256,190606,1,0
96,192,190803,1,14
96,192,191001,5,0
72,192,191099,1,0
48,192,191198,1,12
224,96,191396,2,0,B|296:24,2,81.2499985471368,0|0|2
328,208,191790,1,0
328,208,191988,1,12
184,272,192185,5,0
168,288,192284,1,0
152,304,192382,1,10
328,208,192580,1,0
344,224,192679,1,0
360,240,192777,1,12
184,120,192975,1,0
168,136,193073,1,0
152,152,193172,1,14
332,64,193369,5,12
316,48,193468,1,0
300,40,193567,1,4
284,32,193665,1,0
268,32,193764,1,8
252,32,193863,1,0
236,32,193961,1,10
64,192,194159,5,0
208,112,194356,1,12
304,248,194554,1,0
472,192,194751,2,0,B|280:192,1,162.499997094274,10|0
128,192,195146,5,0
240,192,195343,1,0
64,192,195540,1,10
240,192,195738,1,0
0,192,195935,1,12
240,192,196132,6,0,B|136:192,2,81.2499985471368,0|0|10
448,192,196527,2,0,B|536:192,2,81.2499985471368,8|0|8
320,272,196922,1,0
240,96,197119,1,2
176,320,197317,1,0
80,64,197514,1,12
88,197,197909,5,12
93,218,198007,1,0
103,233,198106,1,0
114,249,198205,1,0
130,265,198304,1,12
151,275,198402,1,0
172,281,198501,1,0
193,286,198600,1,0
214,286,198698,1,4
235,286,198797,1,0
256,286,198896,1,0
276,286,198994,1,0
297,286,199093,1,12
318,286,199192,1,0
340,283,199290,1,0
360,281,199389,1,0
376,270,199488,1,4
392,260,199586,1,0
408,244,199685,1,0
418,223,199784,1,0
434,202,199882,1,12
444,181,199981,6,0,B|477:124,7,37.5000008940697,0|0|0|12|0|0|0|4
192,256,201067,5,10
192,256,201264,1,0
320,256,201461,1,0
320,256,201659,1,0
320,128,201856,1,10
320,128,202054,1,0
192,128,202251,1,0
192,128,202448,1,0
192,256,202646,1,10
192,256,202843,1,0
320,256,203040,1,8
320,256,203238,1,0
320,128,203435,1,10
320,128,203632,1,8
128,192,203830,5,4
128,192,204027,1,0
256,320,204225,1,10
256,320,204422,1,0
384,192,204619,1,0
384,192,204817,1,0
256,64,205014,1,10
256,64,205211,1,0
128,192,205409,1,0
128,192,205606,1,0
256,320,205804,1,10
256,320,206001,1,0
384,192,206198,1,8
384,192,206396,1,0
256,64,206593,1,10
256,64,206790,1,8
128,320,206988,5,4
128,320,207185,1,0
384,320,207382,1,10
384,320,207580,1,0
384,64,207777,1,0
384,64,207975,1,0
128,64,208172,1,10
128,64,208369,1,0
448,64,208567,5,12
256,64,208764,1,0
256,192,208961,2,0,B|152:192,2,62.5,10|0|0
444,192,209356,1,12
256,320,209554,1,0
440,320,209751,1,10
256,192,209948,1,8
432,192,210146,5,4
416,192,210244,1,0
400,192,210343,1,0
384,192,210442,1,0
368,192,210540,1,10
352,192,210639,1,0
336,192,210738,1,0
320,192,210836,1,0
304,192,210935,1,0
288,192,211034,1,0
272,192,211132,1,0
256,192,211231,1,0
240,192,211330,1,10
224,192,211429,1,0
208,192,211527,1,0
192,192,211626,1,0
176,192,211725,1,0
160,192,211823,1,0
144,192,211922,1,0
128,192,212021,1,0
112,192,212119,6,0,B|48:192,3,62.5,8|0|0|0
112,192,212514,2,0,B|72:120,3,62.5,0|0|0|0
112,192,212908,2,0,B|72:256,4,62.5,8|0|0|0|4
200,160,213501,6,0,B|264:112|336:176,2,125,0|2|0
32,192,214093,5,0
256,320,214488,1,2
480,192,214882,1,0
256,64,215277,1,2
256,320,215672,1,0
32,64,215869,5,2
32,80,215968,1,0
32,96,216067,1,0
136,192,216264,1,2
256,128,216461,1,0
416,192,216659,1,2
416,208,216757,1,0
416,224,216856,1,2
480,64,217054,5,2
480,80,217152,1,0
480,96,217251,1,0
368,192,217448,1,2
256,128,217646,1,0
96,192,217843,1,2
96,208,217942,1,0
96,224,218040,1,0
160,352,218238,6,0,B|96:352,2,62.5,2|0|0
352,288,218632,2,0,B|416:288,2,62.5,2|0|0
160,224,219027,1,2
352,160,219225,1,2
160,96,219422,1,0
256,32,219619,5,6
336,200,219915,2,0,B|248:272|152:192,1,187.5,0|2
256,128,220409,1,0
96,160,220804,5,2
96,320,221198,1,0
416,224,221593,1,2
416,64,221988,1,0
416,288,222185,6,0,B|288:288,1,125,0|2
96,288,222580,2,0,B|224:288,1,125
320,192,222975,6,0,B|445:192,1,125,0|2
192,192,223369,2,0,B|67:192,1,125
480,96,223764,6,0,B|352:96,1,125,0|2
32,96,224159,2,0,B|160:96,1,125,0|0
256,16,224554,1,0
256,144,224751,5,2
256,160,224850,1,0
256,176,224948,1,0
256,192,225047,1,0
256,208,225146,1,2
256,224,225244,1,0
256,240,225343,1,0
256,256,225442,1,0
256,272,225540,1,2
256,288,225639,1,0
256,304,225738,1,0
256,320,225836,1,0
256,336,225935,1,4
256,192,226034,12,0,232251
