osu file format v12

[General]
AudioFilename: Kakumeiki Valvrave OP _ Opening Preserved Roses.mp3
AudioLeadIn: 1511
PreviewTime: 58442
Countdown: 0
SampleSet: Normal
StackLeniency: 0.2
Mode: 0
LetterboxInBreaks: 1
WidescreenStoryboard: 1

[Editor]
Bookmarks: 78562
DistanceSpacing: 1
BeatDivisor: 4
GridSize: 4

[Metadata]
Title:Preserved Roses (TV Size)
TitleUnicode:Preserved Roses (TV Size)
Artist:T.M Revolution ft Nana Mizuki
ArtistUnicode:T.M Revolution ft Nana Mizuki
Creator:Kasuga
Version:Normal
Source:Kakumeiki Valvrave
Tags:the liberator anime mecha vampire sunrise studios
BeatmapID:310419
BeatmapSetID:116485

[Difficulty]
HPDrainRate:3
CircleSize:3
OverallDifficulty:3
ApproachRate:5
SliderMultiplier:1
SliderTickRate:2

[Events]
//Background and Video events
Video,-507,"mpc-hc 2013-5-10-14-6-16-809.avi"
0,0,"1e5e4cbd03797ff4c190a9770d265c671365698327_full.jpg",0,0
//Break Periods
//Storyboard Layer 0 (Background)
//Storyboard Layer 1 (Fail)
//Storyboard Layer 2 (Pass)
//Storyboard Layer 3 (Foreground)
//Storyboard Sound Samples
//Background Colour Transformations
3,100,163,162,255

[TimingPoints]
239,359.281437125748,4,1,0,70,1,0
4550,-100,4,2,0,70,0,0
5987,-100,4,1,0,40,0,0
16137,-100,4,1,0,42,0,0
16227,-100,4,1,0,45,0,0
16316,-100,4,1,0,47,0,0
16406,-100,4,1,0,50,0,0
16496,-100,4,1,0,52,0,0
16586,-100,4,1,0,55,0,0
16676,-100,4,1,0,57,0,0
16765,-100,4,1,0,60,0,0
16855,-100,4,1,0,62,0,0
16945,-100,4,1,0,65,0,0
17035,-100,4,1,0,67,0,0
17125,-100,4,1,0,70,0,0
57724,-100,4,2,0,70,0,0
59161,-100,4,1,0,70,0,1
86466,-100,4,1,0,70,0,0
89340,-100,4,1,0,5,0,0

[Colours]
Combo1 : 0,0,255
Combo2 : 249,0,0
Combo3 : 0,255,0
Combo4 : 255,0,255
Combo5 : 230,230,0

[HitObjects]
256,128,239,2,0,P|256:72|232:28,2,100,2|0|2,0:0|0:0|0:0,0:0:0:0:
256,227,1316,2,0,P|256:283|292:328,2,100,0|2|0,0:0|0:0|0:0,0:0:0:0:
185,156,2394,5,2,0:0:0:0:
255,85,2753,1,0,0:0:0:0:
325,155,3113,1,2,0:0:0:0:
254,225,3472,1,0,0:0:0:0:
154,225,3831,2,0,P|105:225|64:188,2,100,2|0|2,0:0|0:0|0:0,0:0:0:0:
154,225,5987,6,0,P|217:225|248:180,1,100,2|0,0:0|0:0,0:0:0:0:
332,97,6706,2,0,P|392:108|408:148,1,100,2|0,0:0|0:0,0:0:0:0:
407,238,7424,2,0,L|285:238,3,100,2|0|2|0,0:0|0:0|0:0|0:0,0:0:0:0:
164,278,8861,6,0,P|148:252|148:172,1,100,2|0,0:0|0:0,0:0:0:0:
214,113,9580,2,0,P|229:134|237:226,1,100,2|0,0:0|0:0,0:0:0:0:
341,205,10298,2,0,P|337:155|313:112,3,100,2|0|2|0,0:0|0:0|0:0|0:0,0:0:0:0:
212,112,11736,6,0,P|190:152|190:220,1,100,2|0,0:0|0:0,0:0:0:0:
186,305,12454,2,0,L|300:305,1,100,2|0,0:0|0:0,0:0:0:0:
386,305,13173,2,0,P|365:250|330:216,1,100,2|0,0:0|0:0,0:0:0:0:
266,150,13891,2,0,P|218:115|170:105,1,100,2|0,0:0|0:0,0:0:0:0:
108,176,14610,5,2,0:0:0:0:
178,246,14969,1,0,0:0:0:0:
277,246,15328,1,2,0:0:0:0:
347,175,15688,1,0,0:0:0:0:
256,192,16047,12,4,17484,0:0:0:0:
256,192,18203,5,4,0:0:0:0:
256,192,18921,6,0,P|208:192|160:236,1,100,2|0,0:0|0:0,0:0:0:0:
238,292,19640,2,0,P|286:292|332:252,1,100,2|0,0:0|0:0,0:0:0:0:
256,192,20358,12,2,21436,0:0:0:0:
256,192,21795,6,0,P|216:192|164:156,1,100,2|0,0:0|0:0,0:0:0:0:
237,89,22514,2,0,L|341:89,1,100,2|0,0:0|0:0,0:0:0:0:
407,159,23233,2,0,P|408:208|356:248,1,100,2|0,0:0|0:0,0:0:0:0:
274,242,23951,2,0,L|169:242,1,100,2|0,0:0|0:0,0:0:0:0:
103,171,24670,5,2,0:0:0:0:
173,100,25029,1,0,0:0:0:0:
243,170,25388,1,2,0:0:0:0:
313,99,25747,1,0,0:0:0:0:
383,169,26107,6,0,L|383:269,1,100,2|0,0:0|0:0,0:0:0:0:
312,339,26825,2,0,P|272:316|248:248,1,100,2|0,0:0|0:0,0:0:0:0:
248,168,27544,6,0,L|136:168,1,100,2|0,0:0|0:0,0:0:0:0:
77,238,28262,2,0,P|112:280|172:280,1,100,2|0,0:0|0:0,0:0:0:0:
204,285,28801,2,0,L|314:285,2,100,0|2|0,0:0|0:0|0:0,0:0:0:0:
204,184,29879,6,0,L|204:80,1,100,2|0,0:0|0:0,0:0:0:0:
304,84,30598,2,0,L|304:200,1,100,2|0,0:0|0:0,0:0:0:0:
403,184,31316,2,0,L|404:80,3,100,2|0|2|0,0:0|0:0|0:0|0:0,0:0:0:0:
353,84,32574,2,0,P|324:100|292:164,1,100,2|0,0:0|0:0,0:0:0:0:
292,257,33292,6,0,P|254:290|186:302,1,100,2|0,0:0|0:0,0:0:0:0:
106,302,34011,2,0,L|106:186,1,100,2|0,0:0|0:0,0:0:0:0:
106,151,34550,2,0,L|106:31,2,100,0|2|0,0:0|0:0|0:0,0:0:0:0:
206,151,35628,6,0,L|312:151,1,100,2|0,0:0|0:0,0:0:0:0:
405,151,36346,2,0,P|424:196|405:251,1,100,2|0,0:0|0:0,0:0:0:0:
310,243,37065,2,0,L|194:243,1,100,2|0,0:0|0:0,0:0:0:0:
159,243,37604,5,2,0:0:0:0:
159,143,37963,1,0,0:0:0:0:
229,72,38322,1,2,0:0:0:0:
329,72,38682,1,0,0:0:0:0:
399,142,39041,6,0,L|399:255,1,100,2|0,0:0|0:0,0:0:0:0:
299,242,39759,2,0,L|190:242,1,100,2|0,0:0|0:0,0:0:0:0:
128,171,40478,2,0,P|160:136|220:136,1,100,2|0,0:0|0:0,0:0:0:0:
280,202,41197,2,0,P|246:237|197:241,1,100,2|0,0:0|0:0,0:0:0:0:
97,241,41915,5,2,0:0:0:0:
167,170,42274,1,0,0:0:0:0:
237,240,42634,1,2,0:0:0:0:
307,169,42993,1,0,0:0:0:0:
377,239,43352,6,0,L|377:322|377:347,1,100,2|0,0:0|0:0,0:0:0:0:
326,339,43891,1,0,0:0:0:0:
275,339,44071,2,0,P|232:311|212:263,1,100,2|0,0:0|0:0,0:0:0:0:
204,168,44789,6,0,P|212:116|244:72,1,100,2|0,0:0|0:0,0:0:0:0:
304,156,45508,2,0,L|396:194,1,100,2|0,0:0|0:0,0:0:0:0:
496,184,46227,2,0,P|488:232|452:280,3,100,2|0|2|0,0:0|0:0|0:0|0:0,0:0:0:0:
359,273,47664,6,0,L|252:273,1,100,2|0,0:0|0:0,0:0:0:0:
159,273,48382,2,0,L|90:186,1,100,2|0,0:0|0:0,0:0:0:0:
64,156,48921,5,0,0:0:0:0:
134,85,49280,2,0,P|192:68|240:92,1,100,2|0,0:0|0:0,0:0:0:0:
304,155,49999,2,0,P|328:188|328:256,1,100,2|0,0:0|0:0,0:0:0:0:
296,281,50538,5,2,0:0:0:0:
225,351,50897,1,2,0:0:0:0:
154,280,51256,2,0,P|156:236|184:176,1,100,2|0,0:0|0:0,0:0:0:0:
212,149,51795,5,0,0:0:0:0:
282,78,52155,2,0,P|324:55|376:57,1,100,2|0,0:0|0:0,0:0:0:0:
440,132,52873,2,0,P|433:180|401:220,1,100,2|0,0:0|0:0,0:0:0:0:
377,270,53412,5,2,0:0:0:0:
277,270,53771,1,0,0:0:0:0:
206,199,54131,2,0,B|180:156|180:156|208:112,1,100,2|0,0:0|0:0,0:0:0:0:
256,114,54670,5,0,0:0:0:0:
355,114,55029,1,2,0:0:0:0:
355,213,55388,2,0,L|355:268,3,50,0|0|2|0,0:0|0:0|0:0|0:0,0:0:0:0:
254,263,56286,6,0,L|148:263,1,100,2|0,0:0|0:0,0:0:0:0:
154,162,57005,2,0,L|154:54,2,100,2|0|2,0:0|0:0|0:0,0:0:0:0:
154,162,59161,5,2,0:0:0:0:
224,91,59520,1,8,0:0:0:0:
294,161,59879,1,2,0:0:0:0:
364,90,60238,1,8,0:0:0:0:
434,160,60598,2,0,P|420:216|380:248,1,100,2|8,0:0|0:0,0:0:0:0:
337,328,61316,2,0,P|306:296|290:241,1,100,2|8,0:0|0:0,0:0:0:0:
290,144,62035,5,2,0:0:0:0:
219,214,62394,1,8,0:0:0:0:
148,143,62753,1,2,0:0:0:0:
77,213,63113,1,8,0:0:0:0:
6,142,63472,5,2,0:0:0:0:
28,100,63831,1,8,0:0:0:0:
72,72,64191,1,2,0:0:0:0:
120,64,64550,1,8,0:0:0:0:
168,64,64909,6,0,P|216:80|244:120,1,100,2|8,0:0|0:0,0:0:0:0:
243,219,65628,2,0,P|264:256|320:288,1,100,2|8,0:0|0:0,0:0:0:0:
411,286,66346,5,2,0:0:0:0:
432,240,66706,1,8,0:0:0:0:
432,190,67065,1,2,0:0:0:0:
411,144,67424,1,8,0:0:0:0:
380,104,67783,6,0,P|344:80|280:80,1,100,2|8,0:0|0:0,0:0:0:0:
188,92,68502,2,0,P|140:100|100:140,1,100,2|8,0:0|0:0,0:0:0:0:
174,204,69221,5,2,0:0:0:0:
209,239,69580,1,8,0:0:0:0:
244,274,69939,1,2,0:0:0:0:
279,309,70298,1,8,0:0:0:0:
314,344,70658,6,0,L|392:264,1,100,2|8,0:0|0:0,0:0:0:0:
383,172,71376,2,0,L|311:99,1,100,2|8,0:0|0:0,0:0:0:0:
212,100,72095,2,0,L|108:100,2,100,2|8|2,0:0|0:0|0:0,0:0:0:0:
282,170,73173,1,8,0:0:0:0:
211,240,73532,6,0,P|172:240|116:212,2,100,2|8|2,0:0|0:0|0:0,0:0:0:0:
311,240,74610,1,8,0:0:0:0:
410,240,74969,5,2,0:0:0:0:
410,190,75328,1,8,0:0:0:0:
410,139,75688,1,2,0:0:0:0:
410,89,76047,1,8,0:0:0:0:
410,39,76406,6,0,P|384:40|320:88,1,100,2|8,0:0|0:0,0:0:0:0:
253,151,77125,2,0,P|220:180|152:184,1,100,2|8,0:0|0:0,0:0:0:0:
65,187,77843,2,0,L|65:293,2,100,2|8|2,0:0|0:0|0:0,0:0:0:0:
135,116,78921,1,8,0:0:0:0:
234,116,79280,6,0,P|288:196|224:276,1,200,2|2,0:0|0:0,0:0:0:0:
136,271,80358,1,8,0:0:0:0:
256,192,80718,12,4,82155,0:0:0:0:
256,192,82873,5,4,0:0:0:0:
256,192,83592,2,0,P|224:192|168:232,1,100,2|8,0:0|0:0,0:0:0:0:
240,300,84310,2,0,P|272:300|328:260,1,100,2|8,0:0|0:0,0:0:0:0:
397,191,85029,6,0,L|397:82,3,100,2|8|2|8,0:0|0:0|0:0|0:0,0:0:0:0:
256,192,86466,12,4,89340,0:0:0:0:
