osu file format v13

[General]
AudioFilename: Kakumeiki Valvrave OP _ Opening Preserved Roses.mp3
AudioLeadIn: 1511
PreviewTime: 58442
Countdown: 0
SampleSet: Normal
StackLeniency: 0.6
Mode: 0
LetterboxInBreaks: 1
WidescreenStoryboard: 1

[Editor]
DistanceSpacing: 1
BeatDivisor: 4
GridSize: 4
TimelineZoom: 1.4

[Metadata]
Title:Preserved Roses (TV Size)
TitleUnicode:Preserved Roses (TV Size)
Artist:T.M Revolution ft Nana Mizuki
ArtistUnicode:T.M Revolution ft Nana Mizuki
Creator:Kasuga
Version:Insane
Source:Kakumeiki Valvrave
Tags:the liberator anime mecha vampire sunrise studios
BeatmapID:300529
BeatmapSetID:116485

[Difficulty]
HPDrainRate:6
CircleSize:4
OverallDifficulty:7
ApproachRate:9
SliderMultiplier:1.8
SliderTickRate:2

[Events]
//Background and Video events
Video,-507,"mpc-hc 2013-5-10-14-6-16-809.avi"
0,0,"1e5e4cbd03797ff4c190a9770d265c671365698327_full.jpg",0,0
//Break Periods
//Storyboard Layer 0 (Background)
//Storyboard Layer 1 (Fail)
//Storyboard Layer 2 (Pass)
//Storyboard Layer 3 (Foreground)
//Storyboard Sound Samples

[TimingPoints]
239,359.281437125748,4,1,0,70,1,0
17484,-133.333333333333,4,1,0,70,0,0
18921,-100,4,1,0,70,0,0
59161,-100,4,1,0,70,0,1
86466,-100,4,1,0,70,0,0
89340,-100,4,1,0,5,0,0

[Colours]
Combo1 : 0,0,255
Combo2 : 249,0,0
Combo3 : 0,255,0
Combo4 : 255,0,255
Combo5 : 230,230,0

[HitObjects]
28,87,239,5,6,0:0:0:0:
80,159,418,1,0,0:0:0:0:
152,103,598,1,0,0:0:0:0:
204,175,777,1,0,0:0:0:0:
256,100,957,2,0,L|256:55,3,45,2|0|0|0,0:0|0:0|0:0|0:0,0:0:0:0:
256,100,1316,5,2,0:0:0:0:
308,175,1496,1,0,0:0:0:0:
360,103,1675,1,0,0:0:0:0:
432,159,1855,1,0,0:0:0:0:
484,87,2034,5,2,0:0:0:0:
380,232,2394,1,4,0:0:0:0:
484,87,2753,1,0,0:0:0:0:
380,232,3113,6,0,P|320:232|272:216,1,90,6|0,0:0|0:0,0:0:0:0:
123,172,3472,2,0,P|168:170|212:180,1,90
380,232,3831,1,2,0:0:0:0:
380,232,4191,1,0,0:0:0:0:
124,172,4370,1,4,0:0:0:0:
116,192,5268,5,0,2:0:0:0:
116,216,5628,1,0,2:0:0:0:
120,240,5987,6,0,L|208:264,1,90,2|0,0:0|0:0,0:0:0:0:
366,231,6346,2,0,L|280:208,1,90,0|0,0:0|0:0,0:0:0:0:
192,164,6706,1,2,0:0:0:0:
197,73,6885,1,0,0:0:0:0:
285,54,7065,1,0,0:0:0:0:
331,128,7244,1,0,0:0:0:0:
280,208,7424,6,0,L|224:280,1,90,2|0,0:0|0:0,0:0:0:0:
81,347,7783,2,0,L|136:276,1,90
184,200,8143,2,0,P|168:168|160:140,3,45,2|0|0|0,0:0|0:0|0:0|0:0,0:0:0:0:
184,200,8502,2,0,L|268:248,1,90
352,244,8771,1,0,0:0:0:0:
352,244,8861,6,0,P|388:208|412:76,1,180,2|0,0:0|0:0,0:0:0:0:
324,72,9400,1,0,0:0:0:0:
324,72,9580,2,0,L|208:88,1,90,2|0,0:0|0:0,0:0:0:0:
108,180,9939,1,0,0:0:0:0:
196,168,10119,1,0,0:0:0:0:
284,152,10298,6,0,P|328:146|376:132,1,90,2|0,0:0|0:0,0:0:0:0:
216,208,10658,2,0,P|261:200|308:200,1,90,0|0,0:0|0:0,0:0:0:0:
144,264,11017,2,0,P|188:258|231:244,1,90,2|0,0:0|0:0,0:0:0:0:
64,308,11376,2,0,P|109:300|156:300,1,90,0|0,0:0|0:0,0:0:0:0:
244,312,11646,1,0,0:0:0:0:
244,312,11736,6,0,P|332:312|416:240,1,180,2|0,0:0|0:0,0:0:0:0:
388,172,12274,1,0,0:0:0:0:
340,96,12454,1,2,0:0:0:0:
256,60,12634,1,0,0:0:0:0:
268,152,12813,1,0,0:0:0:0:
340,96,12993,1,0,0:0:0:0:
256,60,13173,6,0,L|164:128,1,90,2|0,0:0|0:0,0:0:0:0:
96,128,13532,2,0,L|144:203,1,90
108,288,13891,2,0,L|216:324,1,90,2|0,0:0|0:0,0:0:0:0:
272,360,14250,2,0,L|364:304,1,90
420,256,14520,1,0,0:0:0:0:
420,256,14610,5,4,2:2:0:0:
304,120,14969,1,0,2:2:0:0:
400,268,15328,1,2,2:2:0:0:
323,107,15508,1,0,2:2:0:0:
378,275,15688,1,0,2:2:0:0:
345,100,15867,1,0,2:2:0:0:
354,277,16047,5,4,2:2:0:0:
332,272,16137,1,0,2:2:0:0:
312,264,16227,1,0,2:2:0:0:
292,252,16316,1,0,2:2:0:0:
276,236,16406,5,2,2:2:0:0:
260,220,16496,1,0,2:2:0:0:
244,204,16586,1,0,2:2:0:0:
224,192,16676,1,0,2:2:0:0:
204,184,16765,5,2,2:2:0:0:
180,180,16855,1,0,2:2:0:0:
156,180,16945,1,0,2:2:0:0:
132,180,17035,1,0,2:2:0:0:
108,184,17125,2,0,L|44:208,3,45,2|0|0|0,2:2|2:2|2:2|2:2,2:2:0:0:
108,184,17484,6,0,L|260:132,1,135.000005149842,4|0,0:0|0:0,0:0:0:0:
364,96,18023,1,0,0:0:0:0:
364,96,18203,2,0,L|312:236,1,135.000005149842,4|0,0:0|0:0,0:0:0:0:
268,348,18741,1,0,0:0:0:0:
268,348,18921,6,0,P|248:312|248:264,1,90,6|0,0:0|0:0,0:0:0:0:
395,228,19280,2,0,P|372:265|333:287,1,90,0|0,0:0|0:0,0:0:0:0:
228,175,19640,2,0,P|272:177|310:200,1,90,2|0,0:0|0:0,0:0:0:0:
395,228,19999,1,0,0:0:0:0:
268,348,20179,1,0,0:0:0:0:
228,175,20358,6,0,P|272:168|314:151,1,90,6|0,0:0|0:0,0:0:0:0:
164,240,20718,2,0,P|204:224|250:216,1,90,0|0,0:0|0:0,0:0:0:0:
92,296,21077,2,0,P|136:288|178:272,1,90,2|0,0:0|0:0,0:0:0:0:
264,292,21436,1,0,0:0:0:0:
288,296,21526,1,0,0:0:0:0:
312,300,21616,1,0,0:0:0:0:
336,304,21706,1,0,0:0:0:0:
356,308,21795,6,0,P|317:275|296:236,1,90,6|0,0:0|0:0,0:0:0:0:
238,85,22155,2,0,P|272:113|296:151,1,90,0|0,0:0|0:0,0:0:0:0:
207,241,22514,2,0,L|117:239,1,90,2|0,0:0|0:0,0:0:0:0:
386,152,22873,2,0,L|476:152,1,90
472,244,23233,5,6,0:0:0:0:
384,260,23412,1,0,0:0:0:0:
296,272,23592,1,0,0:0:0:0:
208,280,23771,1,0,0:0:0:0:
260,356,23951,5,2,0:0:0:0:
296,272,24131,1,0,0:0:0:0:
336,192,24310,1,0,0:0:0:0:
372,108,24490,1,0,0:0:0:0:
424,180,24670,5,6,0:0:0:0:
336,192,24849,1,0,0:0:0:0:
200,128,25029,1,0,0:0:0:0:
288,116,25208,1,0,0:0:0:0:
184,216,25388,5,2,0:0:0:0:
96,228,25567,1,0,0:0:0:0:
124,144,25747,1,0,0:0:0:0:
184,216,25927,1,0,0:0:0:0:
148,300,26107,6,0,L|66:338,1,90,6|0,0:0|0:0,0:0:0:0:
273,222,26466,2,0,L|184:216,1,90,0|0,0:0|0:0,0:0:0:0:
414,210,26825,2,0,L|340:160,1,90,2|0,0:0|0:0,0:0:0:0:
492,260,27185,1,0,0:0:0:0:
472,268,27274,1,0,0:0:0:0:
452,280,27364,1,0,0:0:0:0:
432,288,27454,1,0,0:0:0:0:
412,296,27544,6,0,L|316:284,1,90,6|0,0:0|0:0,0:0:0:0:
236,308,27903,2,0,L|164:244,1,90
144,160,28262,1,2,0:0:0:0:
192,84,28442,1,0,0:0:0:0:
276,56,28622,1,0,0:0:0:0:
364,72,28801,5,2,0:0:0:0:
284,232,29161,1,0,0:0:0:0:
364,72,29520,1,0,0:0:0:0:
284,232,29879,5,0,0:0:0:0:
364,72,30059,1,0,0:0:0:0:
460,220,30238,2,0,P|376:188|292:124,1,180
364,72,30777,5,0,0:0:0:0:
284,232,30957,2,0,P|212:240|84:224,1,180
72,144,31496,1,0,0:0:0:0:
48,324,31676,2,0,P|137:334|226:326,1,180
312,296,32215,5,0,0:0:0:0:
392,332,32394,1,0,0:0:0:0:
452,264,32574,2,0,L|496:248,3,45,0|0|0|0,0:0|0:0|0:0|0:0,0:0:0:0:
452,264,32933,2,0,L|352:220,1,90
294,136,33292,6,0,L|384:140,1,90,4|0,0:0|0:0,0:0:0:0:
489,55,33652,2,0,L|400:52,1,90
308,52,34011,1,0,0:0:0:0:
220,72,34191,1,0,0:0:0:0:
88,172,34370,1,0,0:0:0:0:
176,152,34550,5,0,0:0:0:0:
328,248,34909,1,0,0:0:0:0:
176,152,35268,1,0,0:0:0:0:
328,248,35628,5,0,0:0:0:0:
175,322,35807,1,0,0:0:0:0:
176,152,35987,2,0,P|240:128|356:132,1,180
175,322,36526,5,0,0:0:0:0:
184,112,36706,2,0,P|248:88|364:92,1,180
436,140,37244,1,0,0:0:0:0:
472,224,37424,1,0,0:0:0:0:
386,289,37604,6,0,L|258:265,1,90,0|0,0:0|0:0,0:0:0:0:
149,188,37963,2,0,L|237:204,1,90
386,289,38322,1,0,0:0:0:0:
337,137,38502,1,0,0:0:0:0:
386,289,38682,1,0,0:0:0:0:
436,140,38861,1,0,0:0:0:0:
386,289,39041,6,0,P|344:312|260:320,1,90,4|0,0:0|2:0,0:0:0:0:
141,240,39400,2,0,L|224:276,1,90,0|0,0:0|2:0,0:0:0:0:
69,116,39759,2,0,L|152:152,1,90,0|0,0:0|2:0,0:0:0:0:
320,212,40119,1,0,0:0:0:0:
344,208,40209,1,0,0:0:0:0:
368,204,40298,1,0,0:0:0:0:
392,200,40388,1,0,0:0:0:0:
416,196,40478,6,0,P|364:192|320:168,1,90,0|0,0:0|2:0,0:0:0:0:
170,103,40837,2,0,P|215:105|256:124,1,90,0|0,0:0|2:0,0:0:0:0:
448,228,41197,2,0,L|340:244,1,90,0|0,0:0|2:0,0:0:0:0:
140,72,41556,2,0,L|248:56,1,90,0|0,0:0|2:0,0:0:0:0:
480,260,41915,6,0,L|380:280,1,90
300,272,42274,1,0,0:0:0:0:
173,182,42454,1,0,0:0:0:0:
312,132,42634,1,0,0:0:0:0:
212,260,42814,1,0,0:0:0:0:
224,120,42993,1,0,0:0:0:0:
349,205,43173,1,0,0:0:0:0:
173,182,43352,6,0,P|128:164|92:140,1,90
264,80,43712,2,0,L|356:72,1,90
464,216,44071,2,0,P|432:240|360:252,1,90
220,324,44430,1,0,0:0:0:0:
204,308,44520,1,0,0:0:0:0:
188,292,44609,1,0,0:0:0:0:
172,276,44699,1,0,0:0:0:0:
156,260,44789,6,0,L|244:278,1,90
420,278,45149,2,0,L|332:260,1,90,0|0,0:0|0:0,0:0:0:0:
148,268,45508,2,0,L|236:286,1,90
432,268,45867,2,0,L|343:249,1,90,0|0,0:0|0:0,0:0:0:0:
136,280,46227,6,0,L|224:298,1,90
132,156,46586,2,0,L|200:216,1,90
191,50,46945,2,0,L|220:136,1,90
280,304,47304,1,0,0:0:0:0:
191,50,47664,6,0,L|285:50,1,90
371,50,48023,2,0,P|288:80|240:192,1,180
196,232,48562,1,0,0:0:0:0:
196,232,48741,2,0,P|244:244|296:228,1,90
172,256,49280,6,0,P|220:268|272:252,1,90
340,224,49640,2,0,P|383:215|426:227,1,90
380,304,49999,1,0,0:0:0:0:
332,204,50268,1,0,0:0:0:0:
324,184,50358,1,0,0:0:0:0:
316,164,50448,1,0,0:0:0:0:
308,144,50538,6,0,P|269:192|256:232,1,90
236,308,50897,2,0,L|180:104,1,180
236,56,51436,1,0,0:0:0:0:
324,76,51616,1,0,0:0:0:0:
400,28,51795,1,0,0:0:0:0:
416,44,52155,6,0,L|392:140,1,90,0|0,0:0|0:0,0:0:0:0:
416,220,52514,2,0,P|368:220|332:198,1,90
284,124,52873,1,0,0:0:0:0:
228,220,53143,1,0,0:0:0:0:
212,236,53233,1,0,0:0:0:0:
196,252,53322,1,0,0:0:0:0:
180,268,53412,6,0,L|84:268,1,90
0,268,53771,2,0,P|60:264|152:180,1,180
192,108,54310,1,0,0:0:0:0:
284,124,54490,1,0,0:0:0:0:
328,44,54670,2,0,L|308:240,1,180
240,280,55209,6,0,L|192:188,1,90
66,120,55568,1,0,0:0:0:0:
66,120,55747,2,0,L|108:200,1,90,0|0,0:0|0:0,0:0:0:0:
120,216,56286,6,0,L|188:152,1,90
248,88,56646,2,0,L|308:156,1,90
408,248,57005,1,0,0:0:0:0:
408,248,57364,1,0,0:0:0:0:
248,88,57544,1,0,0:0:0:0:
236,112,58442,5,0,2:0:0:0:
236,132,58801,1,0,2:0:0:0:
244,152,59161,6,0,L|324:220,1,90
472,278,59520,2,0,L|404:220,1,90
312,210,59879,1,0,0:0:0:0:
256,280,60059,1,0,0:0:0:0:
300,360,60238,1,0,0:0:0:0:
348,284,60418,1,0,0:0:0:0:
256,280,60598,6,0,P|208:280|160:272,1,90
34,189,60957,2,0,P|79:189|124:196,1,90
256,280,61316,1,0,0:0:0:0:
232,284,61406,1,0,0:0:0:0:
208,288,61496,1,0,0:0:0:0:
188,292,61586,1,0,0:0:0:0:
168,296,61676,1,0,0:0:0:0:
124,344,61765,5,0,0:0:0:0:
144,304,61855,1,0,0:0:0:0:
132,260,61945,1,0,0:0:0:0:
128,216,62035,6,0,P|136:184|160:132,1,90
372,208,62394,2,0,P|360:251|340:291,1,90
244,100,62753,2,0,P|287:111|327:131,1,90
260,324,63113,2,0,P|228:316|176:292,1,90
128,216,63472,5,0,0:0:0:0:
300,160,63652,1,0,0:0:0:0:
128,216,63831,1,0,0:0:0:0:
312,180,64011,1,0,0:0:0:0:
128,216,64191,1,0,0:0:0:0:
316,204,64370,1,0,0:0:0:0:
128,216,64550,1,0,0:0:0:0:
148,212,64640,1,0,0:0:0:0:
168,208,64730,1,0,0:0:0:0:
192,204,64819,1,0,0:0:0:0:
216,200,64909,6,0,B|260:160|290:143|290:143|316:144|376:160,1,180
360,248,65448,1,0,0:0:0:0:
360,248,65628,2,0,P|320:268|260:268,1,90
188,260,65987,2,0,P|143:263|103:283,1,90
168,348,66256,1,0,0:0:0:0:
168,348,66346,5,0,0:0:0:0:
200,172,66706,1,0,0:0:0:0:
168,348,67065,1,0,0:0:0:0:
200,172,67424,1,0,0:0:0:0:
168,348,67604,1,0,0:0:0:0:
172,324,67694,1,0,0:0:0:0:
176,304,67783,6,0,L|284:284,1,90
284,376,68143,2,0,L|392:356,1,90
252,196,68502,2,0,L|360:176,1,90
432,184,68861,1,0,0:0:0:0:
488,256,69041,1,0,0:0:0:0:
484,348,69221,5,0,0:0:0:0:
336,244,69400,1,0,0:0:0:0:
484,348,69580,1,0,0:0:0:0:
340,224,69759,1,0,0:0:0:0:
484,348,69939,1,0,0:0:0:0:
344,204,70118,1,0,0:0:0:0:
484,348,70298,1,0,0:0:0:0:
348,180,70478,1,0,0:0:0:0:
484,348,70658,6,0,L|392:340,1,90
312,304,71017,2,0,L|220:296,1,90
70,352,71376,2,0,L|160:360,1,90
224,208,71736,2,0,L|132:200,1,90
48,176,72095,6,0,L|148:100,1,90
327,256,72454,2,0,L|255:310,1,90
209,121,72813,2,0,L|263:192,1,90
164,310,73173,2,0,L|88:210,1,90
209,121,73442,1,0,0:0:0:0:
209,121,73532,6,0,B|264:88|296:80|296:80|336:84|396:108,1,180
348,188,74071,1,0,0:0:0:0:
348,188,74250,2,0,P|304:200|256:196,1,90
176,168,74610,1,0,0:0:0:0:
88,176,74789,1,0,0:0:0:0:
112,264,74969,5,0,0:0:0:0:
64,92,75328,1,0,0:0:0:0:
112,264,75688,1,0,0:0:0:0:
64,92,76047,1,0,0:0:0:0:
241,142,76227,1,0,0:0:0:0:
112,264,76406,6,0,L|136:152,1,90
296,208,76765,2,0,L|210:235,1,90
160,92,77125,2,0,L|226:152,1,90
296,208,77484,1,0,0:0:0:0:
112,264,77664,1,0,0:0:0:0:
160,92,77843,6,0,L|248:60,1,90,0|0,0:0|2:0,0:0:0:0:
312,124,78203,2,0,L|396:93,1,90,0|0,0:0|2:0,0:0:0:0:
183,234,78562,2,0,L|268:204,1,90,0|0,0:0|2:0,0:0:0:0:
352,176,78921,1,0,0:0:0:0:
372,188,79011,1,0,0:0:0:0:
392,200,79101,1,0,0:0:0:0:
412,212,79191,1,0,0:0:0:0:
432,220,79280,6,0,L|336:248,1,90
256,268,79640,1,0,0:0:0:0:
172,300,79819,1,0,0:0:0:0:
244,356,79999,1,0,0:0:0:0:
256,268,80179,1,0,0:0:0:0:
264,180,80358,1,0,0:0:0:0:
272,92,80538,1,0,0:0:0:0:
344,144,80718,5,0,0:0:0:0:
324,152,80807,1,0,0:0:0:0:
304,160,80897,1,0,0:0:0:0:
284,168,80987,1,0,0:0:0:0:
264,180,81077,6,0,L|196:180,1,45
144,132,81256,2,0,L|96:164,1,45
28,204,81436,2,0,L|68:260,1,45
96,320,81616,2,0,L|156:308,1,45
220,272,81795,2,0,L|284:308,1,45
344,328,81975,2,0,L|412:280,1,45
448,240,82155,6,0,L|480:40,1,180
296,72,82694,1,0,0:0:0:0:
296,72,82873,2,0,L|337:151,1,90
155,87,83233,2,0,L|232:136,1,90
50,172,83592,6,0,P|112:180|232:252,1,180
188,320,84131,1,0,0:0:0:0:
188,320,84310,2,0,P|240:264|372:236,1,180
388,308,84849,1,0,0:0:0:0:
388,308,85029,6,0,L|440:212,1,90
428,140,85388,1,0,0:0:0:0:
380,64,85568,1,0,0:0:0:0:
259,177,85747,2,0,L|367:180,1,90
428,140,86106,1,0,0:0:0:0:
475,62,86286,1,0,0:0:0:0:
256,192,86466,12,0,89340,0:0:0:0:
