osu file format v5

[General]
AudioFilename: T.I. - What You Know About That.mp3
AudioLeadIn: 0
PreviewTime: -1
Countdown: 0
SampleSet: Normal
StackLeniency: 0.7
Mode: 0
LetterboxInBreaks: 1
EditorBookmarks: 6579,26115,52468,65390,78414,91336,104259,130612

[Metadata]
Title:What You Know About That
Artist:T.I.
Creator:bmin11
Version:Hard(sliders)
Source:
Tags:

[Difficulty]
HPDrainRate:9
CircleSize:6
OverallDifficulty:7
SliderMultiplier:1.6
SliderTickRate:1

[Events]
//Background and Video events
0,0,"TIWhatYouKnow.jpg"
//Break Periods
2,91279,103540
//Storyboard Layer 0 (Background)
//Storyboard Layer 1 (Failing)
//Storyboard Layer 2 (Passing)
//Storyboard Layer 3 (Foreground)
//Storyboard Sound Samples
//Background Colour Transformations
3,100,163,162,255

[TimingPoints]
6558,409.546230537409,4,1,0,100,1

[Colours]
Combo1 : 167,79,176
Combo2 : 179,179,206
Combo3 : 104,191,234
Combo4 : 88,2,247

[HitObjects]
0,64,6557,2,0,B|128:192,1,160
192,64,7377,2,0,B|320:192,1,160
352,64,8196,6,2,B|480:192,1,160
384,288,9015,2,0,B|271:175,2,160
256,320,10243,2,2,B|128:192,3,160
64,128,11882,2,0,B|192:256,2,160
192,96,13110,6,0,B|320:224,1,160
224,128,13929,2,0,B|352:256,3,160
256,160,15568,2,0,B|384:288,2,160
384,224,16796,5,0
384,64,17205,2,2,B|384:256,1,160
288,320,18025,2,2,B|160:192,1,160
128,320,18844,2,2,B|96:160,1,160
64,64,19663,2,0,B|192:192,1,160
192,32,20482,2,4,B|192:224,2,160
320,64,21710,2,4,B|192:192,3,160
128,288,23349,6,0,B|320:288,1,160
416,288,24168,2,0,B|224:288,1,160
181,183,24986,5,0
64,64,25397,2,0,B|192:192,1,160
256,192,26164,12,0,26978
224,256,27444,6,0,B|320:256,2,80
160,160,28263,2,0,B|160:256,1,80
160,160,28646,2,0,B|352:160,1,160
320,32,29492,6,0,B|320:224,1,160
320,352,30311,6,0,B|320:160,1,160
160,192,31130,6,0,B|352:192,1,160
480,192,31949,2,2,B|288:192,1,160
64,32,32768,6,0,B|160:96,1,80
64,64,33178,2,0,B|0:128,1,80
64,96,33588,6,0,B|64:288,1,160
256,320,34407,6,0,B|192:256,1,80
256,288,34817,2,0,B|352:224,1,80
256,256,35227,6,0,B|256:96,1,160
384,32,36045,6,0,B|480:96,1,80
384,64,36455,2,0,B|320:128,1,80
384,96,36865,6,0,B|384:288,1,160
288,224,37683,6,0,B|244:291,1,80
256,224,38092,2,0,B|231:149,1,80
224,224,38502,2,0,B|32:224,1,160
256,192,39219,12,0,40440
416,288,40959,6,0,B|384:192,1,80
320,224,41369,2,0,B|224:224,1,80
160,224,41778,2,0,B|128:160,3,40
128,64,42495,6,0,B|320:64,1,160
128,64,43314,6,0,B|320:64,1,160
128,64,44133,6,0,B|320:64,1,160
128,64,44952,2,0,B|320:64,1,160
192,64,45772,2,0,B|192:160,2,80
96,128,46386,2,0,B|96:224,2,80
96,192,47000,5,4
224,192,47410,2,0,B|320:192,4,80
224,192,48638,5,4
384,64,49048,6,0,B|288:64,1,80
384,160,49457,2,2,B|384:256,1,80
288,128,49867,2,4,B|192:96|192:224,1,160
64,224,50686,6,2,B|160:224,1,80
160,320,51095,2,2,B|256:320,1,80
256,224,51505,2,2,B|352:224,1,80
192,256,51914,5,4
64,128,52529,6,0,B|160:128,1,80
192,64,52939,6,0,B|288:64,1,80
384,96,53553,6,0,B|480:96,2,80
448,192,54167,2,0,B|352:192,1,80
384,288,54577,2,0,B|480:288,1,80
192,128,55191,1,0
192,224,55395,6,2,B|288:224,1,80
256,320,55805,1,0
160,352,56009,2,0,B|64:352,1,80
128,256,56419,2,2,B|128:160,1,80
32,192,56829,1,0
32,96,57034,6,2,B|128:96,1,80
192,32,57444,2,0,B|288:32,1,80
256,128,57853,2,0,B|256:224,1,80
160,256,58263,2,0,B|160:128,1,120
352,32,58877,5,0
352,32,59082,2,0,B|448:32,1,80
448,128,59491,2,0,B|448:224,1,80
352,288,60003,2,0,B|352:384,1,80
192,352,60515,6,0,B|96:352,1,80
96,256,60925,6,0,B|32:192,1,80
96,128,61334,2,0,B|192:128,1,80
256,224,61846,1,8
256,192,62153,12,0,65002
96,224,65430,6,0,B|116:195|140:192|224:288|94:276|104:305|130:264|187:224|192:288,1,160
352,256,66249,6,0,B|352:160,2,80
32,32,67068,6,0,B|128:32,1,80
128,128,67478,2,2,B|224:128,2,80
208,224,68092,2,2,B|288:224,1,80
96,192,68706,6,0,B|96:288,2,80
192,160,69293,2,2,B|192:64,1,80
288,192,69703,2,2,B|288:288,1,80
384,160,70140,6,2,B|384:64,2,80
448,256,70727,2,2,B|352:256,1,80
288,320,71163,2,2,B|192:320,2,80
108,109,71983,6,0,B|172:109|140:173,1,80
180,210,72392,2,0,B|206:161|142:161,1,80
180,211,72802,2,0,B|244:211|224:340,1,120
426,124,73621,6,0,B|365:113|371:199,1,80
353,225,74030,2,0,B|310:150|401:178,1,80,0|0
352,227,74440,2,0,B|266:217|306:338,1,120
256,64,75156,5,0
256,144,75360,2,0,B|257:56,1,80
259,144,75771,2,0,B|258:279,2,120
256,192,76694,12,0,78424
160,288,78842,6,0,B|279:289,2,80
36,190,79662,2,0,B|130:192,1,80
80,92,80071,2,0,B|192:96,1,80
256,64,80480,2,0,B|256:160,1,80
256,192,80838,2,4,B|256:256|360:257|233:119,1,160
320,64,81709,6,0,B|416:64,1,80
384,128,82119,6,0,B|384:224|320:224|320:96,1,160
224,64,82938,6,0,B|128:64,1,80
32,128,83347,2,0,B|128:128,1,80
224,192,83757,2,0,B|128:192,1,80
64,256,84167,6,0,B|128:320|224:320,1,160
64,64,84985,5,0
128,128,85190,1,0
192,64,85395,1,0
256,128,85600,1,2
320,64,85804,1,0
448,128,86214,5,4
384,192,86624,1,0
384,192,86829,1,0
288,192,87033,2,2,B|192:192,1,80
128,192,87443,1,2
32,256,87852,5,4
160,288,88262,1,0
160,288,88466,2,0,B|256:288,1,80
288,288,88876,2,2,B|384:288,1,80
480,288,89490,5,4
384,160,89900,6,0,B|288:160,4,80
256,192,91129,5,4
96,192,104439,5,0
192,192,104643,2,0,B|288:192,1,80
416,192,105258,1,0
416,256,105463,2,0,B|416:96,1,120
96,96,106180,6,0,B|192:96,1,80
288,96,106589,2,0,B|224:160,1,80
128,160,106999,2,0,B|160:256,2,80
384,256,107818,6,0,B|384:160,2,80
256,96,108637,6,0,B|160:96,2,80
192,288,109456,6,0,B|192:192,1,80
256,288,109866,6,0,B|256:192,1,80
320,288,110275,6,0,B|320:192,1,80
320,128,110685,6,4,B|128:128,1,160
480,288,111940,2,0,B|320:320,1,160
192,320,112732,6,0,B|96:320,2,80
128,224,113347,2,0,B|128:128,1,80
256,192,113988,1,0
32,32,114371,6,0,B|128:32,1,80
128,128,114780,2,0,B|224:128,1,80
160,32,115190,2,0,B|256:32,1,80
384,224,115804,6,0,B|288:224,5,80
128,224,117237,5,0
64,64,117647,6,0,B|160:64,1,80
224,64,118056,2,0,B|224:160,2,80
224,256,118875,5,8
192,160,119285,6,0,B|288:160,1,80
352,160,119695,2,0,B|256:160,1,80
352,160,120104,2,0,B|448:160,1,80
448,256,120540,6,2,B|352:256,1,80
288,256,120950,6,0,B|192:256,1,80,0|0
128,320,121360,2,2,B|32:320,1,80
128,224,121769,2,0,B|128:128,1,80
192,64,122179,6,2,B|96:64,1,80
64,160,122588,2,0,B|160:160,1,80
224,224,122998,2,2,B|224:320,1,80
320,320,123381,6,0,B|320:128,1,160
192,160,124404,5,0
256,160,124609,6,0,B|352:160,1,80
320,64,125018,2,2,B|320:160,1,80
384,224,125429,1,0
320,288,125633,2,2,B|240:288,1,80
160,224,126041,1,0
128,128,126247,2,2,B|224:128,1,80
224,224,126657,2,0,B|320:224,2,80
288,128,127271,2,2,B|208:128,1,80
128,64,127681,2,0,B|71:121,1,80
160,96,128090,2,2,B|224:192,1,80
128,128,128500,2,0,B|128:224,1,80
224,224,128909,2,2,B|224:144,1,80
320,160,129319,2,10,B|320:256,1,80
256,320,129702,2,10,B|176:320,1,80
256,320,130111,1,4
178,320,130343,1,4
