osu file format v5

[General]
AudioFilename: T.I ft Justin Timberlake - Dead and Gone.mp3
AudioLeadIn: 0
PreviewTime: 28219
Countdown: 1
SampleSet: Soft
StackLeniency: 0.7
Mode: 0
LetterboxInBreaks: 1
EditorBookmarks: 14398,15286,15953,16175,18398,19286,21064,21731,21953,22398,22842,23509,23731,23953,24398,24842,25286,25953,26842,27731,28620,29509,32620,33509,35286,35953,36175,36620,37064,37509,37731,37953,38175,38398,38842,39286,39731,42620,43509,43731,44620,44842,45953,47286,47509,47731,48175,49509,50175,50620,51286,51509,51731,52175,52842,53286,53509,55064,55731,56842,57064,58175,59509,59731,60398,60620,62175,62398,63731,63953,64175,64398,64620,64842,65286,65509,69953,70175,70398,70620,71286,71509,71731,71953,72398,72620,72842,73064,73509,74175,74398,75064,75286,76175,76398,77064,77286,77509,77731,77953,78175,78398,99731,100620,103064,103509,103731,104175,104620,105064,105286,106398,107064,107286,107731,108175,108620,108842,109064,109509,109953,110398,110842,111286,111731,112175,113953,114842,115509,115731,117286,117509,117953,118398,118842,119286,119509,120620,121286,121509,121953,122398,123064,123286,123509,123953,124398,124842,125509,126398,127286
EditorDistanceSpacing: 1.10000002384186

[Metadata]
Title:Dead And Gone
Artist:T.I ft Justin Timberlake
Creator:chel007
Version:Still Alive
Source:
Tags:Justin Timberlake Dead And Gone

[Difficulty]
HPDrainRate:3
CircleSize:4
OverallDifficulty:5
SliderMultiplier:2
SliderTickRate:2

[Events]
//Background and Video events
0,0,"T.I._-_Dead_and_Gone.jpg"
//Break Periods
2,78597,98531
//Storyboard Layer 0 (Background)
//Storyboard Layer 1 (Failing)
//Storyboard Layer 2 (Passing)
//Storyboard Layer 3 (Foreground)
//Storyboard Sound Samples
//Background Colour Transformations
3,100,163,162,255

[TimingPoints]
14398,888.888888888889,4,2,0,100,1,0
18620,-100,4,2,1,90,0,0
19064,-100,4,2,0,100,0,0
32842,-100,4,2,1,90,0,0
33286,-100,4,2,0,100,0,0

[Colours]
Combo1 : 255,250,23
Combo2 : 5,240,5
Combo3 : 5,5,240
Combo4 : 240,5,5
Combo5 : 255,150,0

[HitObjects]
168,160,14398,2,0,B|232:104|312:104|360:184,1,200,2|8
424,240,15731,1,0
440,296,15953,2,0,B|384:296,1,50
280,296,16620,1,0
232,296,16842,1,0
176,296,17064,1,8
120,200,17509,1,0
176,184,17731,2,0,B|240:184,1,50
225,294,18398,6,0,B|353:302|425:206,1,200,2|0
449,190,19509,5,0
441,134,19731,2,0,B|417:78,1,50
377,54,20175,1,0
321,54,20398,1,0
265,54,20620,1,8
153,54,21064,2,0,B|97:54|97:54|41:150,1,150
49,190,21953,2,0,B|193:190,2,100,2|8|0
49,78,23286,5,0
105,78,23509,2,0,B|169:78,2,50
105,134,24175,1,8
105,190,24398,2,0,B|249:190,3,100
257,190,25953,6,0,B|305:190|329:214|409:230|425:294,2,200,8|0|8
89,166,28398,5,0
129,206,28620,2,0,B|129:-42,1,200,2|8
241,22,29953,5,0
241,78,30175,2,0,B|241:158,1,50
351,128,30842,1,0
351,184,31064,1,0
351,240,31286,1,8
351,350,31731,1,0
296,351,31953,2,0,B|224:351,1,50
135,348,32620,6,0,B|127:268|143:220|183:156,1,200,2|0
216,115,33731,5,0
263,87,33953,2,0,B|326:65,1,50
365,67,34398,1,0
418,80,34620,1,0
460,114,34842,1,8
462,223,35286,2,0,B|462:287|462:287|414:287|414:287|414:223|414:223,1,150
414,193,36175,2,0,B|310:193,2,100,2|8|0
410,82,37509,6,0,B|354:82,1,50
362,136,37953,2,0,B|426:136,1,50
413,191,38398,2,0,B|277:191,3,100,8|0|0|0
256,192,40175,12,4,41953
224,120,42620,6,0,B|288:120,4,50
224,176,43731,2,0,B|296:176,4,50,8|0|0|0|0
224,232,44842,6,0,B|296:232,5,50,0|0|0|8|0|0
256,120,46398,5,0
288,168,46620,1,0
232,168,46842,1,0
256,272,47286,6,0,B|256:200,2,50,8|0|0
232,168,48175,6,0,B|296:168,6,50,0|0|0|0|8|0|0
256,64,49953,5,0
312,64,50175,2,0,B|312:136,2,50
368,64,50842,5,8
368,120,51064,1,0
368,176,51286,2,0,B|368:248,1,50
328,264,51731,6,0,B|400:264,2,50
272,264,52397,1,0
216,264,52620,1,8
160,264,52842,2,0,B|80:264,2,50
112,232,53509,6,0,B|112:152,1,50
168,192,53953,2,0,B|168:120,1,50
224,144,54398,2,0,B|224:72,1,50,8|0
272,112,54842,2,0,B|272:32,1,50
320,80,55286,5,0
320,136,55509,1,0
368,112,55731,2,0,B|368:184,1,50
416,144,56175,2,0,B|416:216,1,50
416,248,56620,1,0
376,280,56842,1,0
320,288,57064,6,0,B|248:288,1,50
280,232,57509,2,0,B|208:232,1,50
208,184,57953,2,0,B|304:184,1,50,8|0
304,152,58397,1,0
360,152,58620,1,0
416,152,58842,1,0
448,192,59064,1,0
415,236,59286,1,0
359,237,59509,2,0,B|359:309,1,50,0|8
413,288,59953,1,0
467,286,60175,1,0
467,231,60397,6,0,B|467:135,1,50
468,125,60842,1,0
468,125,61064,1,0
413,120,61286,1,0
413,120,61509,1,8
360,112,61731,1,0
360,112,61953,1,0
304,104,62175,6,0,B|216:104,1,50
200,104,62620,1,0
144,104,62842,1,0
96,128,63064,1,0
96,128,63286,1,8
104,184,63509,1,0
136,232,63731,2,0,B|136:328,3,50
192,272,64620,6,0,B|272:272,1,50
296,272,65064,1,8
352,272,65286,2,0,B|352:352,1,50,0|4
256,192,65953,12,0,69064
136,128,69509,5,0
192,128,69731,1,0
248,128,69953,2,0,B|344:128,1,50
352,128,70398,2,0,B|424:128,1,50
448,160,70842,1,0
416,208,71064,5,0
368,232,71286,2,0,B|272:232,3,50
264,232,72175,5,8
208,232,72398,2,0,B|176:232|160:240|152:248,1,50
120,280,72842,2,0,B|128:304|152:320|168:320,1,50
192,352,73286,1,0
248,352,73509,2,0,B|336:328,1,50
344,320,73953,1,8
392,296,74175,2,0,B|424:280|448:216,1,50
448,208,74620,1,0
448,152,74842,5,0
416,104,75064,2,0,B|368:56,1,50
328,48,75509,1,0
272,40,75731,1,8
216,56,75953,1,0
184,104,76175,2,0,B|184:168,1,50
208,200,76620,1,0
248,232,76842,1,0
304,224,77064,2,0,B|360:192,1,50
320,152,77509,2,0,B|248:112,1,50,8|0
272,72,77953,2,0,B|336:72,2,50,0|0|4
152,136,99731,6,0,B|184:160|192:216|208:224|248:216|272:144|352:184,1,200,2|8
424,176,101064,1,0
440,224,101286,2,0,B|384:224,1,50
432,328,101953,1,0
384,352,102175,1,0
328,352,102398,1,8
216,352,102842,1,0
272,352,103064,2,0,B|272:216,1,100
312,216,103731,6,0,B|312:320,2,100,2|8|0
368,216,104842,5,0
424,216,105064,2,0,B|424:128,1,50
456,120,105509,1,0
424,72,105731,1,0
368,72,105953,1,8
296,152,106398,2,0,B|224:160|168:160|128:160,1,150,0|0
144,216,107286,6,0,B|256:216,2,100,2|8|0
112,264,108398,5,0
160,290,108620,2,0,B|224:290,2,50,0|0|0
160,235,109286,1,0
215,235,109509,2,0,B|351:235,3,100,8|0|0|0
336,344,111286,2,8,L|296:312|256:344|216:312|168:360,2,200,8|0|8
336,176,113731,5,0
336,232,113953,2,0,B|272:312|160:216|264:144|264:144,1,200,2|8
336,88,115286,5,0
336,144,115509,2,0,B|336:216,1,50
336,303,116175,1,0
280,303,116398,1,0
224,303,116620,1,8
114,304,117064,1,0
59,303,117286,2,0,B|59:223,1,50
62,142,117953,6,0,B|198:142,2,100,2|8|0
62,197,119064,5,0
62,253,119286,2,0,B|126:253,1,50
166,253,119731,1,0
222,253,119953,1,0
278,253,120175,1,8
390,253,120620,2,0,B|390:165|390:165|342:77,1,150
302,93,121509,6,0,B|222:213,2,100,2|8|0
190,77,122842,5,0
190,133,123064,2,0,B|110:133,2,50
190,189,123731,1,8
190,245,123953,2,0,B|310:245,2,100,0|0|0
344,184,125509,2,0,B|384:200|432:216|432:320|376:360,2,200,8|0|6
