osu file format v9

[General]
AudioFilename: 01. Yayaya.mp3
AudioLeadIn: 0
PreviewTime: 54720
Countdown: 0
SampleSet: Normal
StackLeniency: 0.7
Mode: 0
LetterboxInBreaks: 1

[Editor]
DistanceSpacing: 0.8
BeatDivisor: 4
GridSize: 8

[Metadata]
Title:Yayaya
Artist:T-ara
Creator:Tanmak
Version:Hard
Source:
Tags:K-Pop girl group

[Difficulty]
HPDrainRate:6
CircleSize:5
OverallDifficulty:6
ApproachRate:6
SliderMultiplier:1.4
SliderTickRate:2

[Events]
//Background and Video events
0,0,"yayaya.jpg"
//Break Periods
2,37330,39715
2,112444,114829
2,159849,173455
//Storyboard Layer 0 (Background)
//Storyboard Layer 1 (Fail)
//Storyboard Layer 2 (Pass)
//Storyboard Layer 3 (Foreground)
//Storyboard Sound Samples
//Background Colour Transformations
3,100,160,216,120

[TimingPoints]
460,458.015267175572,4,1,2,70,1,0
176337,-100,4,1,2,70,0,1
198322,-100,4,1,2,70,0,0

[Colours]
Combo1 : 37,184,140
Combo2 : 4,202,4
Combo3 : 60,159,74
Combo4 : 155,167,52
SliderBorder : 172,255,0

[HitObjects]
120,80,8933,2,0,B|208:80|208:80,2,70
120,136,9620,2,0,B|184:200|184:200,1,70,4|0
169,185,10078,2,0,B|224:240|224:240,1,70
320,192,10765,6,0,B|360:192|360:192|392:160|392:160,1,70
416,128,11223,1,0
416,72,11452,2,0,B|320:72|320:72,3,70
248,72,12597,5,0
192,72,12826,1,0
136,72,13055,1,0
136,128,13284,2,0,B|136:208|136:208,1,70
136,256,13742,2,0,B|136:344|136:344,1,70
248,328,14429,6,0,B|304:272|304:272,1,70
352,280,14887,1,0
408,280,15116,2,0,B|480:208|480:208,3,70
408,128,16261,5,0
352,128,16490,2,0,B|280:128|280:128,1,70
224,128,16948,1,4
184,88,17177,2,0,B|160:64|160:64|112:104|112:104,1,70
96,128,17635,1,0
96,240,18093,5,0
152,240,18322,1,0
208,240,18551,1,0
264,240,18780,2,0,B|344:240|344:240,3,70
432,192,19925,5,0
376,192,20154,1,0
320,192,20383,1,0
264,192,20612,6,0,B|32:192|32:192,1,210,4|0
56,80,21757,1,0
224,80,22444,6,0,B|224:312|224:312,1,210
224,288,23360,1,0
336,288,23818,1,0
256,192,25650,5,6
424,192,26337,6,0,B|424:264|424:264,2,70,0|8|0
480,192,27024,2,0,B|408:120|408:120,1,70
392,104,27482,2,0,B|336:160|336:160,1,70,8|0
288,152,27940,1,0
248,112,28169,1,0
208,152,28398,1,8
168,112,28627,1,0
112,112,28856,2,0,B|64:120|64:224|120:232|120:232,2,140,2|10|0
168,112,30001,6,0,B|216:160|216:160|232:176|232:176,1,70,0|8
256,200,30460,1,0
312,200,30689,2,0,B|368:144|368:144,1,70
416,152,31147,2,0,B|416:240|416:240,1,70,8|0
416,280,31605,2,0,B|384:296|384:296|344:272|344:272,1,70
296,280,32063,1,8
240,280,32292,1,0
184,280,32521,2,0,B|188:270|180:326|76:326|68:278,2,140,2|10|4
184,224,33666,5,2
184,168,33895,1,0
184,112,34124,1,2
184,56,34353,2,0,B|264:72|264:72,1,70,0|2
304,56,34811,2,0,B|368:128|368:128,1,70,0|2
352,168,35269,5,0
352,224,35498,1,2
352,280,35727,1,0
352,336,35956,1,2
296,336,36185,2,0,B|224:288|224:288,1,70,0|2
184,296,36643,2,0,B|152:224|152:224,1,70,2|10
144,176,37101,1,12
392,64,40765,6,0,B|304:64|304:64,1,70,4|0
264,64,41223,2,0,B|192:64|192:64,1,70
80,64,41910,6,0,B|80:152|80:152,1,70
80,192,42368,1,0
80,248,42597,2,0,B|136:304|136:304,1,70
168,336,43055,2,0,B|224:280|224:280,1,70
256,248,43513,5,0
296,208,43742,2,0,B|328:192|328:192|360:208|360:208,1,70
392,248,44200,1,0
448,248,44429,6,0,B|480:192|464:144|440:96|440:96,1,140,0|2
392,112,45116,1,0
336,112,45345,2,0,B|264:112|264:112,3,70
208,112,46261,6,0,B|176:168|192:216|216:264|216:264,1,140,0|2
232,296,46948,1,0
344,296,47406,2,0,B|264:296|264:296,1,70
160,296,48093,6,0,B|96:232|96:232,1,70,4|0
72,208,48551,2,0,B|144:136|144:136,1,70
200,80,49238,6,0,B|256:136|256:136,1,70
288,168,49696,1,0
336,136,49925,2,0,B|352:168|352:168|328:216|328:216,1,70
304,248,50383,2,0,B|288:280|288:280|312:328|312:328,1,70
360,312,50841,6,0,B|448:312|448:312,3,70
430,312,51757,1,0
256,192,51986,12,0,53360
256,192,53589,12,0,55192
128,192,55421,6,0,B|192:128|192:128,3,70,4|2|8|2
216,104,56337,2,0,B|272:160|272:160,2,70,0|2|8
264,208,57253,2,0,B|208:264|208:264,2,70,0|2|8
160,256,58169,2,0,B|88:184|88:184,2,70,0|2|8
128,88,59314,5,0
184,88,59543,1,0
240,88,59772,1,0
296,88,60001,2,0,B|376:88|376:88,3,70
424,88,60918,2,0,B|464:144|464:144|424:208|424:208,1,140
392,248,61605,1,2
280,248,62063,2,8,B|224:288|224:288|160:240|160:240,1,140,2|2
72,192,62979,5,2
112,152,63208,1,8
152,112,63437,1,2
192,72,63666,2,0,B|248:128|248:128,2,70,0|2|8
304,96,64582,2,0,B|352:176|352:176,2,70,0|2|8
408,144,65498,2,0,B|408:232|408:232,2,70,0|10|10
408,312,66643,5,0
352,312,66872,1,0
296,312,67101,1,2
240,312,67330,2,0,B|152:312|152:312,3,70,0|0|2|2
112,312,68246,2,0,B|72:256|72:256|112:192|112:192,1,140,4|2
144,152,68933,1,10
192,48,69391,2,8,B|304:160|304:160,1,140,2|2
384,88,70307,5,8
384,88,70536,1,8
384,88,70765,1,8
384,88,70994,2,0,B|320:152|320:152,1,70,0|2
296,176,71452,2,0,B|208:176|208:176,1,70,0|2
112,176,72139,5,8
112,176,72368,1,8
112,176,72597,1,8
144,128,72826,2,0,B|168:96|168:96|208:96|208:96,1,70,0|2
256,96,73284,2,0,B|280:64|280:64|320:64|320:64,1,70,0|2
424,72,73971,5,8
424,72,74200,1,8
424,72,74429,1,8
424,128,74658,2,0,B|424:216|424:216,1,70,0|2
424,256,75116,2,0,B|368:312|368:312,1,70,0|2
320,304,75574,6,0,B|256:240|256:240,2,70,0|2|8
208,304,76490,2,0,B|144:240|144:240,2,70,0|2|8
256,200,77406,5,0
256,144,77635,1,8
256,88,77864,1,0
256,32,78093,1,8
200,32,78322,2,0,B|200:200|200:200,1,140
256,168,79009,1,8
312,168,79238,2,0,B|312:328|312:328,1,140
256,312,79925,2,0,B|256:72|256:72,1,210,8|10
144,104,81070,5,4
144,160,81299,1,0
144,216,81528,2,0,B|96:264|96:264|144:320|144:320,1,140,0|8
256,320,82444,2,0,B|304:272|304:272|256:216|256:216,1,140,0|10
256,104,83360,6,0,B|256:24|256:24,4,70,0|8|0|8|2
120,80,85879,6,0,B|208:80|208:80,1,70
248,80,86337,1,0
304,80,86566,2,0,B|376:152|376:152,1,70,4|0
353,129,87024,2,0,B|408:184|408:184,1,70
400,288,87711,6,0,B|320:288|320:288,1,70
272,288,88169,1,0
216,288,88398,2,0,B|128:288|128:288,3,70
144,176,89543,6,0,B|144:104|144:104,2,70
200,176,90230,1,0
256,176,90459,1,0
312,176,90689,2,0,B|384:176|384:176,1,70
376,64,91376,6,0,B|376:136|376:136,1,70
376,192,91834,1,0
376,248,92063,1,0
328,280,92292,2,0,B|296:296|296:296|248:272|248:272,1,70
224,248,92750,1,0
128,192,93208,5,0
128,136,93437,2,0,B|128:64|128:64,1,70
184,64,93895,2,0,B|248:128|248:128,1,70,4|0
272,72,94353,2,0,B|328:128|328:128,1,70
432,120,95040,5,0
432,176,95269,1,0
432,232,95498,1,0
376,232,95727,2,0,B|288:232|288:232,1,70
248,232,96185,2,0,B|312:168|312:168,1,70
376,104,96872,5,0
336,72,97101,1,0
296,104,97330,1,0
240,104,97559,2,0,B|184:104|24:104|24:104,2,210
256,192,99391,12,4,101223
368,192,101452,5,0
312,192,101681,1,8
256,192,101910,1,0
200,192,102139,2,0,B|128:192|128:192,3,70,0|0|8|0
88,224,103055,2,0,B|16:152|16:152,3,70,0|0|8|0
80,136,103971,2,8,B|32:88|32:88|96:24|96:24,2,140,8|8|0
136,136,105116,5,0
192,136,105345,1,8
248,136,105574,1,0
304,136,105803,2,0,B|384:136|384:136,1,70
432,136,106261,2,0,B|392:216|392:216,1,70,8|0
344,200,106719,2,0,B|392:280|392:280,1,70
328,264,107177,2,0,B|232:264|232:264,1,70,8|0
200,264,107635,2,8,B|152:312|152:312|88:248|88:248,2,140,8|8|0
256,264,108780,5,2
312,264,109009,1,0
368,264,109238,1,2
368,208,109467,2,0,B|304:144|304:144,1,70,0|2
264,160,109925,2,0,B|200:96|200:96,1,70,0|2
176,64,110383,6,0,B|248:64|248:64,1,70,0|2
304,64,110841,2,0,B|384:64|384:64,1,70,0|2
432,64,111299,2,0,B|432:160|432:160,3,70,0|2|2|10
432,192,112215,1,12
448,248,115879,6,0,B|360:248|360:248,3,70,4|0|0|0
264,248,117024,5,0
224,208,117253,1,0
184,248,117482,1,0
128,248,117711,2,0,B|72:192|72:192,1,70
24,192,118169,2,0,B|24:104|24:104,1,70
24,64,118627,6,0,B|96:64|96:64,3,70
152,64,119543,2,0,B|224:64|224:64|272:120|272:120,1,140,0|8
304,160,120230,5,0
344,200,120459,2,0,B|408:264|408:264,3,70
400,304,121376,2,0,B|328:304|328:304|272:248|272:248,1,140,0|8
240,216,122063,5,0
128,216,122521,2,0,B|128:144|128:144,1,70
128,32,123208,2,0,B|208:32|208:32,3,70
312,32,124353,5,0
312,88,124582,2,0,B|312:160|312:160|304:160,1,70
312,216,125040,1,0
272,256,125269,2,0,B|240:272|240:272|208:256|208:256,1,70
176,216,125727,1,0
120,216,125956,6,0,B|48:216|48:216,4,70
256,192,127101,12,0,128475
256,192,128704,12,0,130307
80,192,130536,6,0,B|160:192|160:192,3,70,4|2|8|2
208,192,131452,2,0,B|208:112|208:112,1,70,0|2
264,120,131910,1,8
376,120,132368,2,0,B|376:200|376:200,1,70,0|2
320,192,132826,1,8
320,304,133284,2,0,B|240:304|240:304,1,70,0|2
192,304,133742,1,8
72,192,134429,5,0
72,136,134658,2,0,B|72:64|72:64,1,70
128,64,135116,2,0,B|192:128|192:128,1,70
232,112,135574,2,0,B|296:176|296:176,1,70
336,160,136032,2,0,B|408:232|408:232|328:312|328:312,1,210,0|8
224,288,137177,2,8,B|168:336|168:336|120:288|120:288,1,140
176,192,138093,5,0
176,136,138322,1,10
176,80,138551,1,0
232,80,138780,2,0,B|272:80|272:80|304:112|304:112,1,70,0|2
328,144,139238,1,8
392,240,139696,2,0,B|392:280|392:280|360:312|360:312,1,70,0|2
328,336,140154,1,8
216,336,140612,2,0,B|176:336|176:336|144:304|144:304,1,70,0|10
120,272,141070,1,8
120,104,141757,5,0
160,64,141986,1,0
200,104,142215,1,0
240,64,142444,2,0,B|312:64|312:64,3,70
368,64,143360,2,0,B|440:136|440:136|360:216|360:216,1,210,0|8
296,120,144505,2,8,B|240:72|240:72|192:120|192:120,1,140,8|10
80,120,145421,5,8
80,120,145650,1,8
80,120,145879,1,8
120,160,146108,2,0,B|184:224|184:224,1,70,0|2
224,208,146566,2,0,B|288:144|288:144,1,70,0|2
376,112,147253,5,8
376,112,147482,1,8
376,112,147711,1,8
320,112,147940,2,0,B|296:80|296:80|256:80|256:80,1,70,0|2
208,80,148398,2,0,B|184:48|184:48|144:48|144:48,1,70,0|2
96,144,149085,5,8
96,144,149314,1,8
96,144,149543,1,8
136,184,149772,2,0,B|192:240|192:240,1,70,0|2
224,272,150230,2,0,B|280:328|280:328,1,70,0|2
328,320,150689,6,0,B|328:232|328:232,1,70,0|2
328,192,151147,1,8
328,80,151605,2,0,B|328:160|328:160,1,70,0|2
328,208,152063,1,8
424,264,152521,5,0
368,264,152750,1,8
312,264,152979,1,0
256,264,153208,1,8
240,208,153437,2,0,B|464:208|464:208,1,210,0|8
448,152,154353,2,0,B|232:152|232:152,1,210,0|8
72,152,155727,1,10
48,264,156185,5,4
96,288,156414,1,2
144,264,156643,1,0
192,288,156872,1,2
240,264,157101,1,0
352,264,157559,2,0,B|424:264|424:264,2,70,0|2|8
352,152,158475,6,0,B|352:80|352:80,4,70,0|8|0|8|10
256,192,174505,12,0,176108
408,64,176337,6,0,B|328:64|328:64,1,70,4|2
280,64,176795,2,0,B|224:120|224:120,1,70,8|2
176,112,177253,2,0,B|112:176|112:176,1,70,0|2
88,120,177711,1,8
32,24,178169,6,0,B|96:88|96:88,1,70,2|8
120,112,178627,2,0,B|184:176|184:176,1,70,2|8
208,200,179085,2,0,B|264:256|264:256,1,70,2|8
304,216,179543,1,10
344,176,179772,2,0,B|368:160|384:168|400:192|416:176|424:176|424:168|432:160|432:160,1,70,8|0
464,152,180230,5,0
424,112,180460,1,0
384,72,180689,1,0
328,72,180918,2,0,B|264:136|264:136,3,70
224,120,181834,2,0,B|160:160|144:192|152:248|208:280|224:280|224:280,1,210,0|8
336,280,182979,1,12
336,168,183437,1,12
336,56,183895,6,0,B|248:56|248:56,1,70,0|2
264,112,184353,1,8
264,168,184582,2,0,B|192:168|192:168,1,70,2|2
136,168,185040,1,8
80,72,185498,6,0,B|144:136|144:136,1,70,2|8
168,168,185956,2,0,B|224:224|224:224,1,70,2|8
272,216,186414,2,0,B|328:160|328:160,1,70,2|8
360,128,186872,2,0,B|432:200|432:200,1,70,2|8
408,288,187559,5,12
352,288,187788,1,0
296,288,188017,1,0
240,288,188246,2,0,B|160:288|160:288,3,70
112,288,189162,2,0,B|48:248|32:216|40:160|96:128|112:128|112:128,1,210,0|8
224,128,190307,1,12
336,128,190765,1,12
424,64,191223,5,8
424,64,191452,1,8
424,64,191681,1,8
392,112,191910,2,0,B|336:168|336:168,1,70,0|2
304,200,192368,2,0,B|240:136|240:136,1,70,0|2
144,152,193055,5,8
144,152,193284,1,8
144,152,193513,1,8
200,152,193742,2,0,B|224:120|224:120|264:120|264:120,1,70,0|2
312,120,194200,2,0,B|336:88|336:88|376:88|376:88,1,70,0|2
400,192,194887,5,8
400,192,195116,1,8
400,192,195345,1,8
344,192,195574,2,0,B|264:192|264:192,1,70,0|2
216,192,196032,2,0,B|120:192|120:192,1,70,0|2
88,192,196490,5,0
128,152,196719,1,2
168,112,196948,1,8
280,112,197406,1,0
320,152,197635,1,10
360,192,197864,1,10
256,192,198322,12,0,199238
176,144,200154,6,4,B|248:72|248:72,1,70
280,96,200612,2,0,B|352:168|352:168,1,70
