osu file format v12

[General]
AudioFilename: Why are you being like this.mp3
AudioLeadIn: 2000
PreviewTime: 61321
Countdown: 1
SampleSet: Soft
StackLeniency: 0.7
Mode: 0
LetterboxInBreaks: 1
WidescreenStoryboard: 1

[Editor]
DistanceSpacing: 1
BeatDivisor: 2
GridSize: 4

[Metadata]
Title:Why Are You Being Like This
TitleUnicode:왜 이러니
Artist:T-ara
ArtistUnicode:티아라
Creator:kazumikos
Version:Easy
Source:
Tags:Tiara Temptastic Wae Ireoni
BeatmapID:304971
BeatmapSetID:118661

[Difficulty]
HPDrainRate:2
CircleSize:3
OverallDifficulty:2
ApproachRate:3
SliderMultiplier:0.7
SliderTickRate:1

[Events]
//Background and Video events
0,0,"BG.jpg",0,0
//Break Periods
2,11255,19828
2,92757,111743
2,167000,180243
//Storyboard Layer 0 (Background)
//Storyboard Layer 1 (Fail)
//Storyboard Layer 2 (Pass)
//Storyboard Layer 3 (Foreground)
//Storyboard Sound Samples
//Background Colour Transformations
3,100,163,162,255

[TimingPoints]
843,319.148936170213,4,2,1,70,1,0
9938,-100,4,2,1,20,0,0
11055,-100,4,2,1,70,0,1
11215,-100,4,2,1,70,0,0
41374,-100,4,2,1,70,0,0
62119,-100,4,2,1,80,0,1
62279,-100,4,2,1,80,0,0
82545,-100,4,2,1,80,0,1
82704,-100,4,2,1,80,0,0
112864,-100,4,2,1,70,0,0
133608,-100,4,2,1,80,0,1
133768,-100,4,2,1,80,0,0
154034,-100,4,2,1,80,0,1
154194,-100,4,2,1,80,0,0
166800,465.116279069767,4,2,1,70,1,0
181683,319.148936170213,4,2,1,70,1,0
191895,-100,4,2,1,80,0,1
232746,-100,4,2,1,20,0,0

[Colours]
Combo1 : 103,52,44
Combo2 : 255,255,255
Combo3 : 191,98,123
Combo4 : 188,33,37
Combo5 : 245,242,120

[HitObjects]
204,104,843,2,0,P|256:64|308:104,2,140,2|0|2,0:0|0:0|0:0,0:0:0:0:
204,244,2757,2,0,P|256:283|307:243,2,140,0|2|0,0:0|0:0|0:0,0:0:0:0:
128,124,4672,1,2,0:0:0:0:
256,64,5311,1,0,0:0:0:0:
384,124,5949,6,0,P|400:196|360:264,1,140,2|0,0:0|0:0,0:0:0:0:
256,176,7225,1,2,0:0:0:0:
128,124,7864,1,2,0:0:0:0:
192,248,8502,2,0,P|256:276|324:244,1,140,2|0,0:0|0:0,0:0:0:0:
336,112,9779,2,0,P|440:176|424:336,1,280,0|4,0:0|0:0,0:0:0:0:
56,108,21268,6,0,P|52:212|188:304,1,280,4|2,0:0|0:0,0:0:0:0:
184,164,23183,1,0,0:0:0:0:
256,44,23821,2,0,P|324:28|404:56,1,140,2|0,0:0|0:0,0:0:0:0:
320,164,25098,1,2,0:0:0:0:
84,300,26374,6,0,L|224:300,1,140,2|0,0:0|0:0,0:0:0:0:
188,164,27651,2,0,L|328:164,1,140,2|0,0:0|0:0,0:0:0:0:
440,80,28928,2,0,P|464:176|368:324,1,280,2|0,0:0|0:0,0:0:0:0:
176,60,31481,6,0,P|272:152|336:60,1,280,4|2,0:0|0:0,0:0:0:0:
428,164,33396,2,0,P|380:220|316:256,1,140,2|0,0:0|0:0,0:0:0:0:
188,253,34672,2,0,P|128:217|84:164,2,140,2|0|2,0:0|0:0|0:0,0:0:0:0:
52,280,36587,5,2,0:0:0:0:
256,92,37864,1,2,0:0:0:0:
460,280,39140,1,2,0:0:0:0:
328,328,39779,1,0,0:0:0:0:
356,192,40417,1,2,0:0:0:0:
104,72,41694,6,0,P|96:128|132:208,1,140,4|0,0:0|0:0,0:0:0:0:
236,116,42970,1,2,0:0:0:0:
356,44,43608,2,0,L|388:108,1,70,2|8,0:0|0:0,0:0:0:0:
416,168,44247,2,0,P|384:224|184:236,1,280,2|2,0:0|0:0,0:0:0:0:
280,132,46162,5,0,0:0:0:0:
140,132,46800,2,0,P|76:224|172:352,1,280,2|2,0:0|0:0,0:0:0:0:
236,228,48715,2,0,L|312:228,1,70,2|8,0:0|0:0,0:0:0:0:
375,228,49353,6,0,P|439:136|335:12,2,280,2|2|4,0:0|0:0|0:0,0:0:0:0:
256,152,52545,5,0,0:0:0:0:
137,228,53183,1,2,0:0:0:0:
244,316,53821,2,0,L|320:336,1,70,2|8,0:0|0:0,0:0:0:0:
380,348,54460,2,0,P|380:288|408:232,1,105,2|2,0:0|0:0,0:0:0:0:
452,80,55736,2,0,P|396:124|312:124,1,140,2|2,0:0|0:0,0:0:0:0:
256,12,57013,6,0,P|188:100|256:240,1,280,2|2,0:0|0:0,0:0:0:0:
329,129,58928,1,2,0:0:0:0:
256,12,59566,1,2,0:0:0:0:
182,129,60204,1,0,0:0:0:0:
48,84,60843,2,0,P|36:140|64:216,1,140,4|0,0:0|0:0,0:0:0:0:
182,129,62119,6,0,P|204:184|188:272,2,140,4|0|0,0:0|0:0|0:0,0:0:0:0:
316,84,64034,2,0,P|384:68|452:84,1,140,2|2,0:0|0:0,0:0:0:0:
436,212,65311,1,0,0:0:0:0:
336,308,65949,1,2,0:0:0:0:
256,192,66587,6,0,L|112:176,1,140,2|4,0:0|0:0,0:0:0:0:
212,72,67864,2,0,L|356:88,1,140,2|4,0:0|0:0,0:0:0:0:
256,192,69140,2,0,L|112:176,1,140,2|0,0:0|0:0,0:0:0:0:
180,304,70417,2,0,L|324:320,1,140,2|0,0:0|0:0,0:0:0:0:
460,328,71694,5,2,0:0:0:0:
396,204,72332,1,4,0:0:0:0:
319,319,72970,1,2,0:0:0:0:
256,196,73608,1,4,0:0:0:0:
179,311,74247,1,2,0:0:0:0:
112,188,74885,6,0,P|112:128|148:48,1,140,2|0,0:0|0:0,0:0:0:0:
276,96,76162,2,0,P|247:159|245:228,1,140,2|0,0:0|0:0,0:0:0:0:
380,188,77438,1,4,0:0:0:0:
276,96,78077,5,2,0:0:0:0:
156,168,78715,1,4,0:0:0:0:
276,96,79353,1,2,0:0:0:0:
384,188,79991,2,0,P|400:244|400:328,1,140,2|0,0:0|0:0,0:0:0:0:
300,228,81268,6,0,P|344:104|472:160,1,280,0|4,0:0|0:0,0:0:0:0:
432,276,83183,1,0,0:0:0:0:
300,228,83821,1,0,0:0:0:0:
328,368,84460,1,2,0:0:0:0:
328,368,85098,6,0,L|180:368,1,140,2|0,0:0|0:0,0:0:0:0:
104,256,86374,2,0,L|252:256,1,140,2|0,0:0|0:0,0:0:0:0:
384,252,87651,5,2,0:0:0:0:
328,124,88289,1,0,0:0:0:0:
184,124,88928,1,2,0:0:0:0:
128,252,89566,1,0,0:0:0:0:
256,304,90204,2,0,L|256:196,2,105,2|2|2,0:0|0:0|0:0,0:0:0:0:
256,380,91481,1,4,0:0:0:0:
116,84,113183,5,4,0:0:0:0:
256,108,113821,1,0,0:0:0:0:
396,84,114460,1,2,0:0:0:0:
256,108,115098,2,0,P|248:172|296:256,1,140,2|2,0:0|0:0,0:0:0:0:
348,316,116215,2,0,L|164:348,1,175,2|2,0:0|0:0,0:0:0:0:
40,372,117651,5,0,0:0:0:0:
40,372,118289,2,0,P|84:260|24:112,1,280,2|2,0:0|0:0,0:0:0:0:
160,64,120204,2,0,L|312:64,2,140,2|0|2,0:0|0:0|0:0,0:0:0:0:
220,192,122119,2,0,L|68:192,2,140,2|0|4,0:0|0:0|0:0,0:0:0:0:
360,192,124034,5,0,0:0:0:0:
288,312,124672,1,2,0:0:0:0:
220,192,125311,2,0,L|208:120,1,70,2|8,0:0|0:0,0:0:0:0:
200,52,125949,2,0,P|156:84|96:84,1,105,2|2,0:0|0:0,0:0:0:0:
12,236,127225,6,0,P|51:289|51:363,1,140,2|0,0:0|0:0,0:0:0:0:
160,272,128502,2,0,P|296:76|352:272,1,560,2|2,0:0|0:0,0:0:0:0:
460,361,131694,2,0,P|460:292|499:236,1,140,0|4,0:0|0:0,0:0:0:0:
464,100,132970,6,0,L|304:132,1,140,0|4,0:0|0:0,0:0:0:0:
444,204,134247,2,0,L|284:236,1,140,0|4,0:0|0:0,0:0:0:0:
168,256,135523,1,0,0:0:0:0:
220,124,136162,1,2,0:0:0:0:
306,231,136800,1,0,0:0:0:0:
356,100,137438,1,2,0:0:0:0:
444,204,138077,6,0,P|464:272|464:348,1,140,2|4,0:0|0:0,0:0:0:0:
324,328,139353,2,0,P|256:312|188:328,1,140,2|4,0:0|0:0,0:0:0:0:
47,340,140630,2,0,P|48:270|67:204,1,140,2|0,0:0|0:0,0:0:0:0:
128,76,141906,1,2,0:0:0:0:
256,136,142545,1,0,0:0:0:0:
384,76,143183,6,0,L|472:88,2,70,2|8|4,0:0|0:0|0:0,0:0:0:0:
256,136,144460,2,0,L|168:124,2,70,2|8|4,0:0|0:0|0:0,0:0:0:0:
368,216,145736,2,0,L|456:228,2,70,2|8|2,0:0|0:0|0:0,0:0:0:0:
256,136,147013,2,0,P|228:204|248:280,1,140,0|2,0:0|0:0,0:0:0:0:
368,216,148289,6,0,P|396:148|376:72,1,140,2|4,0:0|0:0,0:0:0:0:
256,136,149566,2,0,P|188:164|112:144,1,140,2|4,0:0|0:0,0:0:0:0:
176,20,150843,1,2,0:0:0:0:
256,136,151481,1,0,0:0:0:0:
176,252,152119,1,2,0:0:0:0:
256,368,152757,2,0,L|416:368,1,140
416,228,154034,6,0,P|256:40|96:228,1,560,4|2,0:0|0:0,0:0:0:0:
95,331,157066,2,0,P|143:347|203:347,1,105,2|8,0:0|0:0,0:0:0:0:
267,347,157864,2,0,P|243:283|267:219,1,140,2|0,0:0|0:0,0:0:0:0:
392,284,159140,6,0,P|416:220|392:156,1,140,2|0,0:0|0:0,0:0:0:0:
316,40,160417,1,2,0:0:0:0:
200,120,161055,1,0,0:0:0:0:
176,256,161694,2,0,P|236:276|288:276,2,105,2|2|8,0:0|0:0|0:0,0:0:0:0:
112,208,162970,1,4,0:0:0:0:
364,84,164247,5,4,0:0:0:0:
112,208,165523,1,4,0:0:0:0:
352,348,166800,1,4,0:0:0:0:
216,80,181683,6,0,P|292:80|352:112,2,140
156,204,183597,2,0,P|192:216|232:216,2,70,0|8|0,0:0|0:0|0:0,0:0:0:0:
80,160,184555,2,0,P|64:264|196:352,1,280,8|8,0:0|0:0,0:0:0:0:
256,292,186151,6,0,L|332:280,1,70,0|8,0:0|0:0,0:0:0:0:
400,264,186789,2,0,P|424:196|404:116,1,140,2|0,0:0|0:0,0:0:0:0:
296,52,188065,2,0,P|272:120|292:200,1,140,2|0,0:0|0:0,0:0:0:0:
232,316,189342,2,0,L|84:316,2,140,2|2|4,0:0|0:0|0:0,0:0:0:0:
304,316,190938,1,4,0:0:0:0:
440,156,191895,5,4,0:0:0:0:
336,60,192534,1,2,0:0:0:0:
256,176,193172,1,4,0:0:0:0:
176,60,193810,1,2,0:0:0:0:
72,156,194448,2,0,P|64:244|208:352,1,280,2|4,0:0|0:0,0:0:0:0:
200,212,196363,6,0,L|348:212,1,140,2|4,0:0|0:0,0:0:0:0:
244,108,197640,2,0,L|392:108,1,140,2|4,0:0|0:0,0:0:0:0:
492,196,198917,2,0,P|492:264|452:332,2,140
352,232,200831,5,0,0:0:0:0:
456,136,201470,1,2,0:0:0:0:
332,92,202108,2,0,P|240:148|248:324,1,280,4|4,0:0|0:0,0:0:0:0:
352,232,204023,1,2,0:0:0:0:
456,136,204661,2,0,P|488:200|480:284,1,140,2|0,0:0|0:0,0:0:0:0:
352,232,205938,2,0,P|320:168|328:84,1,140,2|2,0:0|0:0,0:0:0:0:
372,44,206895,6,0,L|456:44,1,70,8|4,0:0|0:0,0:0:0:0:
492,176,207853,2,0,L|408:176,2,70,2|8|4,0:0|0:0|0:0,0:0:0:0:
412,292,209129,1,2,0:0:0:0:
304,380,209768,2,0,P|216:324|216:160,1,280,2|4,0:0|0:0,0:0:0:0:
464,36,212321,6,0,P|428:72|420:124,2,105,4|2|8,0:0|0:0|0:0,0:0:0:0:
500,108,213597,2,0,P|464:192|340:104,1,280,2|2,0:0|0:0,0:0:0:0:
244,160,215353,2,0,L|124:160,1,105,2|8,0:0|0:0,0:0:0:0:
64,160,216151,1,2,0:0:0:0:
344,288,217427,6,0,P|284:272|204:292,1,140,2|0,0:0|0:0,0:0:0:0:
300,180,218704,2,0,P|360:196|440:176,1,140,2|0,0:0|0:0,0:0:0:0:
352,64,219980,2,0,P|296:52|240:68,2,105,2|2|8,0:0|0:0|0:0,0:0:0:0:
428,104,221257,1,4,0:0:0:0:
200,268,222534,6,0,P|144:276|84:276,2,105,4|2|8,0:0|0:0|0:0,0:0:0:0:
276,248,223810,1,2,0:0:0:0:
56,68,225087,2,0,P|44:112|44:176,2,105,2|2|8,0:0|0:0|0:0,0:0:0:0:
136,44,226363,2,0,P|268:104|380:40,1,280,2|2,0:0|0:0,0:0:0:0:
448,160,228278,5,0,0:0:0:0:
396,292,228917,1,2,0:0:0:0:
256,280,229555,2,0,L|256:200,1,70,2|8,0:0|0:0,0:0:0:0:
256,192,230193,12,2,232746,0:0:0:0:
