osu file format v11

[General]
AudioFilename: T-ara - SEXY LOVE.mp3
AudioLeadIn: 0
PreviewTime: 57362
Countdown: 0
SampleSet: Normal
StackLeniency: 0.7
Mode: 0
LetterboxInBreaks: 1

[Editor]
Bookmarks: 85105
DistanceSpacing: 1
BeatDivisor: 2
GridSize: 32

[Metadata]
Title:Sexy Love
TitleUnicode:Sexy Love
Artist:T-ara
ArtistUnicode:T-ara
Creator:Pink Agate
Version:Hard
Source:
Tags:k-pop Core Contents Media QUEEN'S M-net Jeon Bo Ram Lee Q-Ri Park So Yeon Ham Eun Jung Park Hyo Min Park Ji Yeon Lee Ah-Reum
BeatmapID:206157
BeatmapSetID:63233

[Difficulty]
HPDrainRate:6
CircleSize:4
OverallDifficulty:6
ApproachRate:8
SliderMultiplier:2
SliderTickRate:2

[Events]
//Background and Video events
0,0,"063805.jpg"
//Break Periods
2,88037,101479
2,160764,166933
//Storyboard Layer 0 (Background)
//Storyboard Layer 1 (Fail)
//Storyboard Layer 2 (Pass)
//Storyboard Layer 3 (Foreground)
//Storyboard Sound Samples
//Background Colour Transformations
3,100,163,162,255

[TimingPoints]
565,454.545454545455,4,1,0,60,1,0
14201,-100,4,3,0,60,0,0
15110,-100,4,1,0,60,0,0
58746,-100,4,1,0,60,0,1
58860,-100,4,1,0,60,0,0
64201,-200,4,1,0,60,0,0
65110,-100,4,1,0,60,0,0
79428,-100,4,1,0,60,0,0
87837,-100,4,1,0,60,0,1
87951,-100,4,1,0,60,0,0
131474,-100,4,1,0,60,0,1
131587,-100,4,1,0,60,0,0
136928,-200,4,1,0,60,0,0
137837,-100,4,1,0,60,0,0
152155,-100,4,1,0,60,0,0
160565,-100,4,1,0,60,0,1
160678,-100,4,1,0,60,0,0
173746,-100,4,1,0,40,0,0
175110,-100,4,1,0,60,0,1
180565,-200,4,1,0,60,0,1
181474,-100,4,1,0,60,0,1
188746,-100,4,1,0,60,0,1
204201,-100,4,1,0,80,0,0

[Colours]
Combo1 : 255,128,255
Combo2 : 160,66,255
Combo3 : 130,226,255

[HitObjects]
128,176,14201,1,8,0:0:0
208,120,14428,1,8,0:0:0
208,120,14542,1,8,0:0:0
232,216,14769,1,8,0:0:0
402,68,15110,6,0,P|384:192,1,100
232,216,15565,2,0,P|272:192|288:136,1,100,8|0,0:0|0:0,0:0:0
208,120,16019,2,0,P|144:160|40:104,1,200,0|8,0:0|0:0,0:0:0
128,64,16701,1,0,0:0:0
208,120,16928,6,0,P|216:184|200:232,1,100
138,304,17383,2,0,P|242:296,1,100,8|0,0:0|0:0,0:0:0
394,159,17837,2,0,P|336:200|336:320,1,200,0|8,0:0|0:0,0:0:0
408,256,18519,1,0,0:0:0
312,208,18746,6,0,P|272:168|272:112,1,100
421,36,19201,2,0,P|403:90|368:112,1,100,8|0,0:0|0:0,0:0:0
296,40,19655,1,0,0:0:0
464,152,19883,1,0,0:0:0
264,136,20110,1,8,0:0:0
264,136,20337,1,0,0:0:0
168,168,20565,5,0,0:0:0
328,288,21019,1,8,0:0:0
328,288,21246,1,0,0:0:0
328,288,21474,2,0,P|264:304,2,50
432,296,21928,2,0,P|464:256|472:200,1,100,8|0,0:0|0:0,0:0:0
408,136,22383,6,0,P|352:120|312:136,1,100
248,208,22837,2,0,P|210:222|154:206,1,100,8|0,0:0|0:0,0:0:0
192,112,23292,2,0,P|295:108|344:192,1,200,0|8,0:0|0:0,0:0:0
248,208,23974,1,0,0:0:0
321,273,24201,6,0,P|342:241|343:181,1,100
248,208,24655,2,0,P|219:244|216:300,1,100,8|0,0:0|0:0,0:0:0
114,262,25110,1,0,0:0:0
64,168,25337,1,0,0:0:0
114,262,25565,1,8,0:0:0
64,168,25792,1,0,0:0:0
184,88,26019,5,0,0:0:0
320,184,26246,1,0,0:0:0
269,34,26474,1,8,0:0:0
221,181,26701,1,0,0:0:0
346,87,26928,1,0,0:0:0
221,181,27155,1,0,0:0:0
168,272,27383,6,0,P|216:288|265:275,1,100,8|0,0:0|0:0,0:0:0
352,312,27837,2,0,P|352:216|272:160,1,200,0|8,0:0|0:0,0:0:0
263,276,28519,5,0,0:0:0
352,224,28746,2,0,P|408:192,2,50
464,120,29201,2,0,P|432:88|368:88,1,100,8|0,0:0|0:0,0:0:0
168,88,29883,5,0,0:0:0
264,48,30110,1,8,0:0:0
264,48,30337,1,0,0:0:0
168,88,30565,6,0,P|133:187|199:257,1,200,0|8,0:0|0:0,0:0:0
240,168,31246,1,0,0:0:0
336,184,31474,2,0,P|320:240|282:258,1,100
240,168,31928,2,0,P|255:115|299:94,1,100,8|0,0:0|0:0,0:0:0
392,88,32383,1,0,0:0:0
392,88,32610,2,0,P|400:24,2,50,0|0|8,0:0|0:0|0:0,0:0:0
448,168,33065,5,0,0:0:0
432,264,33292,2,0,P|386:280|336:264,1,100
152,216,33746,2,0,P|197:200|246:215,1,100,8|0,0:0|0:0,0:0:0
136,304,34201,2,0,P|76:272|96:148,1,200,0|8,0:0|0:0,0:0:0
192,116,34883,1,0,0:0:0
280,72,35110,2,0,P|253:30|206:18,2,100,0|0|8,0:0|0:0|0:0,0:0:0
192,116,35792,5,0,0:0:0
232,152,35905,1,0,0:0:0
276,164,36019,2,2,P|324:172|384:144,1,100,0|2,0:0|0:0,0:0:0
464,112,36474,2,0,P|432:72|384:56,1,100,8|2,0:0|0:0,0:0:0
296,312,37155,5,0,0:0:0
112,264,37383,2,0,P|168:248|208:264,1,100,8|0,0:0|0:0,0:0:0
296,312,37837,1,0,0:0:0
205,262,38064,1,0,0:0:0
184,168,38292,2,0,P|237:172|276:198,1,100,8|0,0:0|0:0,0:0:0
296,312,38746,2,0,P|384:304|448:208,1,200,0|8,0:0|0:0,0:0:0
452,122,39428,5,0,0:0:0
408,108,39542,1,0,0:0:0
364,117,39655,1,0,0:0:0
341,156,39769,1,0,0:0:0
336,200,39883,2,0,P|291:192|253:154,1,100,0|8,0:0|0:0,0:0:0
176,80,40337,1,0,0:0:0
176,80,40564,5,0,0:0:0
48,152,40792,1,0,0:0:0
173,224,41019,1,8,0:0:0
176,80,41246,1,0,0:0:0
61,58,41474,6,0,P|40:104|48:152,1,100
176,80,41928,2,0,P|209:45|260:33,1,100,8|0,0:0|0:0,0:0:0
336,112,42383,2,0,P|386:114|424:148,2,100,0|0|8,0:0|0:0|0:0,0:0:0
344,216,43064,5,0,0:0:0
248,208,43292,2,0,P|201:183|187:140,1,100
336,112,43746,1,8,0:0:0
352,240,43974,2,0,P|359:313|279:363|200:304,1,200
128,224,44655,5,8,0:0:0
196,284,44883,2,0,P|304:288|344:216,1,200
336,112,45564,1,8,0:0:0
344,16,45792,2,0,P|256:48|232:144,1,200
202,233,46474,1,8,0:0:0
202,233,46701,1,0,0:0:0
240,320,46928,6,0,P|285:341|333:333,2,100,0|0|8,0:0|0:0|0:0,0:0:0
445,336,47610,2,0,P|405:256|304:240,1,200
202,233,48292,1,8,0:0:0
249,143,48519,2,0,P|289:111|297:55,1,100
201,55,48974,2,0,P|161:87|153:143,1,100,0|8,0:0|0:0,0:0:0
249,143,49428,1,0,0:0:0
249,143,49655,6,0,P|289:111|297:55,1,100
201,55,50110,1,8,0:0:0
201,55,50337,1,0,0:0:0
145,135,50564,6,0,P|192:218|288:226,1,200,0|8,0:0|0:0,0:0:0
249,143,51246,2,0,P|128:312,1,200
133,305,51928,1,8,0:0:0
81,229,52155,6,0,P|179:231|224:320,1,200,0|0,0:0|0:0,0:0:0
132,305,52837,1,8,0:0:0
81,229,53064,2,0,P|32:160|80:56,1,200,0|0,0:0|0:0,0:0:0
136,136,53746,5,8,0:0:0
224,176,53974,1,0,0:0:0
272,200,54087,1,0,0:0:0
320,224,54201,1,0,0:0:0
328,128,54428,1,0,0:0:0
208,288,54655,1,8,0:0:0
408,264,55110,5,2,0:0:0
408,264,55564,1,2,0:0:0
256,128,56019,2,0,P|208:144|160:128,1,100,0|0,0:0|0:0,0:0:0
216,48,56474,2,0,P|272:40|345:153,1,200,0|4,0:0|0:0,0:0:0
176,264,57383,6,0,P|224:344|320:336,2,200
184,104,58746,5,0,0:0:0
336,80,58974,1,0,0:0:0
288,224,59201,1,8,0:0:0
336,80,59428,5,0,0:0:0
336,80,59542,1,0,0:0:0
336,80,59655,1,0,0:0:0
328,232,59883,1,0,0:0:0
200,152,60110,1,8,0:0:0
336,80,60337,1,0,0:0:0
187,58,60564,6,0,P|179:106|200:152,1,100
328,232,61019,2,0,P|363:197|373:149,1,100,8|0,0:0|0:0,0:0:0
187,58,61474,6,0,P|136:56|88:96,1,100
328,232,61928,2,0,P|379:234|427:194,1,100,8|0,0:0|0:0,0:0:0
344,144,62383,6,0,P|276:131|217:200|254:280,1,200,4|8,0:0|0:0,0:0:0
336,344,63064,1,0,0:0:0
328,232,63292,2,0,P|288:200|232:200,1,100
160,256,63746,2,0,P|200:288|256:288,1,100,8|0,0:0|0:0,0:0:0
256,192,64201,12,4,65564,0:0:0
112,56,66019,6,0,P|128:104|112:168,1,100
96,248,66474,1,8,0:0:0
48,336,66701,5,0,0:0:0
96,248,66928,1,0,0:0:0
192,256,67155,1,0,0:0:0
270,318,67383,2,0,P|243:357|192:360,1,100,8|0,0:0|0:0,0:0:0
192,256,67837,2,0,P|272:224|368:296,1,200,0|8,0:0|0:0,0:0:0
361,280,68519,5,0,0:0:0
192,256,68746,1,0,0:0:0
288,216,68974,1,0,0:0:0
288,120,69201,2,0,P|242:118|200:160,1,100,8|0,0:0|0:0,0:0:0
288,216,69655,6,0,P|376:160|368:64,1,200,4|8,0:0|0:0,0:0:0
288,120,70337,1,0,0:0:0
192,128,70564,2,0,P|146:126|104:168,1,100,0|0,0:0|0:0,0:0:0
192,256,71019,2,0,P|218:293|276:302,1,100,8|0,0:0|0:0,0:0:0
288,120,71474,5,0,0:0:0
192,256,71701,1,0,0:0:0
288,120,71928,1,8,0:0:0
192,256,72155,1,0,0:0:0
288,232,72383,5,0,0:0:0
368,176,72610,1,0,0:0:0
384,128,72724,1,0,0:0:0
376,80,72837,1,8,0:0:0
344,40,72951,1,0,0:0:0
296,24,73064,1,0,0:0:0
248,32,73178,1,0,0:0:0
208,64,73292,6,0,P|200:120|216:160,1,100,0|0,0:0|0:0,0:0:0
296,328,73746,2,0,P|304:272|288:232,1,100,8|0,0:0|0:0,0:0:0
176,72,74201,2,0,P|168:128|184:168,1,100,0|0,0:0|0:0,0:0:0
264,336,74655,2,0,P|272:280|256:240,1,100,8|0,0:0|0:0,0:0:0
176,72,75110,6,0,P|200:136|232:160,1,100
256,240,75564,2,0,P|296:216|320:160,1,100,8|0,0:0|0:0,0:0:0
223,155,76019,2,0,P|171:233|217:322,1,200,0|8,0:0|0:0,0:0:0
328,296,76701,5,0,0:0:0
256,240,76928,2,0,P|152:216|72:256,2,200,0|8|0,0:0|0:0|0:0,0:0:0
328,296,78064,1,0,0:0:0
328,296,78292,1,8,0:0:0
256,192,78519,12,4,80110,0:0:0
360,64,80564,6,0,P|352:128|320:160,1,100
182,153,81019,2,0,P|160:128|152:64,1,100,8|0,0:0|0:0,0:0:0
329,153,81474,2,0,P|348:260,1,100,0|0,0:0|0:0,0:0:0
165,251,81928,2,0,P|183:153,1,100,8|0,0:0|0:0,0:0:0
346,252,82383,5,0,0:0:0
182,153,82610,1,0,0:0:0
329,152,82837,1,8,0:0:0
165,251,83064,1,0,0:0:0
112,336,83292,2,0,P|200:336|259:244,1,200,0|8,0:0|0:0,0:0:0
256,152,83974,1,0,0:0:0
256,152,84201,6,0,P|298:55|381:48,1,200,0|8,0:0|0:0,0:0:0
376,152,84883,1,0,0:0:0
360,32,85110,6,0,P|277:39|235:136,2,200,0|8|0,0:0|0:0|0:0,0:0:0
328,232,86474,1,8,0:0:0
168,280,86928,5,0,0:0:0
152,264,87042,1,0,0:0:0
136,248,87155,1,0,0:0:0
120,232,87269,1,0,0:0:0
104,216,87383,1,0,0:0:0
88,200,87496,1,0,0:0:0
72,184,87610,1,0,0:0:0
56,168,87724,1,0,0:0:0
40,152,87837,1,4,0:0:0
160,232,102610,5,0,0:0:0
216,312,102837,2,0,P|272:328|320:312,1,100,8|0,0:0|0:0,0:0:0
160,232,103292,2,0,P|120:280|120:328,1,100,0|0,0:0|0:0,0:0:0
216,312,103746,2,0,P|248:224|188:141,1,200,8|0,0:0|0:0,0:0:0
96,120,104428,5,0,0:0:0
216,144,104655,2,0,P|276:223|244:311,1,200,8|0,0:0|0:0,0:0:0
160,232,105337,1,0,0:0:0
264,224,105565,6,0,P|360:184,1,100,8|0,0:0|0:0,0:0:0
328,304,106019,2,0,P|224:344,1,100
264,224,106474,2,0,P|376:224,1,100,8|0,0:0|0:0,0:0:0
328,128,106928,1,0,0:0:0
240,80,107155,1,0,0:0:0
240,80,107383,2,0,P|272:40|320:32,1,100,8|0,0:0|0:0,0:0:0
328,128,107837,2,0,P|248:168|144:120,1,200,0|8,0:0|0:0,0:0:0
240,80,108519,5,0,0:0:0
240,128,108633,1,0,0:0:0
240,176,108746,2,2,P|240:296,1,100,0|2,0:0|0:0,0:0:0
152,328,109201,2,0,P|152:208,1,100,8|2,0:0|0:0,0:0:0
256,48,109883,5,0,0:0:0
256,48,110110,2,0,P|336:112,1,100,8|0,0:0|0:0,0:0:0
416,176,110565,1,0,0:0:0
334,110,110792,1,0,0:0:0
288,200,111019,2,0,P|184:192,1,100,8|0,0:0|0:0,0:0:0
200,288,111474,5,0,0:0:0
176,296,111587,1,0,0:0:0
152,304,111701,1,0,0:0:0
128,312,111815,1,0,0:0:0
104,320,111928,1,8,0:0:0
24,256,112155,1,0,0:0:0
112,216,112383,5,0,0:0:0
88,176,112496,1,0,0:0:0
88,128,112610,1,0,0:0:0
112,88,112724,1,0,0:0:0
160,64,112837,2,0,P|232:64|264:88,1,100,8|0,0:0|0:0,0:0:0
200,152,113292,5,0,0:0:0
376,64,113519,1,0,0:0:0
248,216,113746,1,8,0:0:0
304,24,113974,1,0,0:0:0
296,120,114201,5,0,0:0:0
424,40,114428,1,0,0:0:0
277,71,114655,1,8,0:0:0
429,96,114883,1,0,0:0:0
480,184,115110,2,0,P|432:208|408:256,1,100,0|0,0:0|0:0,0:0:0
304,279,115565,2,0,P|370:341|472:328,1,200,8|0,0:0|0:0,0:0:0
304,280,116246,5,0,0:0:0
256,192,116474,1,8,0:0:0
256,96,116701,2,0,P|190:93|140:173|181:245,1,200
256,192,117383,1,8,0:0:0
344,144,117610,6,0,P|360:96|344:48,1,100
256,96,118065,1,0,0:0:0
256,192,118292,1,8,0:0:0
266,295,118519,2,0,P|352:224|344:144,1,200
343,143,119201,5,8,0:0:0
256,192,119428,12,8,122837,0:0:0
320,128,123292,5,0,0:0:0
261,215,123519,1,0,0:0:0
200,296,123746,1,8,0:0:0
320,128,123974,2,0,P|344:176|344:232,1,100
200,296,124428,2,0,P|176:248|176:192,1,100,0|8,0:0|0:0,0:0:0
216,112,124883,1,0,0:0:0
320,128,125110,1,0,0:0:0
174,202,125337,1,0,0:0:0
320,128,125565,1,8,0:0:0
224,192,125792,6,0,P|226:238|250:286,1,100
368,136,126246,2,0,P|394:90|391:37,1,100,0|8,0:0|0:0,0:0:0
308,68,126701,5,0,0:0:0
308,68,126815,1,0,0:0:0
308,68,126928,1,0,0:0:0
312,224,127155,1,0,0:0:0
448,152,127383,1,8,0:0:0
448,152,127837,5,2,0:0:0
64,152,128292,1,2,0:0:0
192,280,128974,6,0,P|296:224,1,100
272,144,129428,2,0,P|168:200,1,100
376,128,130110,6,0,P|384:72,1,50
424,224,130565,2,0,P|464:280,1,50
312,224,131019,2,0,P|264:256,2,50
288,104,131474,5,0,0:0:0
136,224,131701,1,0,0:0:0
304,280,131928,1,8,0:0:0
304,280,132155,1,0,0:0:0
248,112,132382,5,0,0:0:0
96,232,132609,1,0,0:0:0
264,288,132837,1,8,0:0:0
264,288,133065,1,0,0:0:0
296,184,133292,6,0,P|344:160|376:120,1,100
58,37,133746,2,0,P|88:72|136:96,1,100,8|0,0:0|0:0,0:0:0
296,184,134201,6,0,P|320:136|320:80,1,100
190,90,134655,2,0,P|192:136|216:184,1,100,8|0,0:0|0:0,0:0:0
255,259,135110,5,0,0:0:0
190,90,135337,1,0,0:0:0
369,112,135565,1,8,0:0:0
369,112,135792,1,0,0:0:0
456,72,136019,6,0,P|461:129|445:170,1,100
255,259,136474,2,0,P|243:214|241:161,1,100,8|0,0:0|0:0,0:0:0
256,192,136928,12,4,138292,0:0:0
456,320,138746,6,0,P|416:288|360:288,1,100
344,288,139087,1,0,0:0:0
320,296,139201,1,8,0:0:0
232,336,139428,1,0,0:0:0
97,194,139655,6,0,P|128:232|176:248,1,100
232,336,140110,1,8,0:0:0
320,296,140337,1,0,0:0:0
280,200,140565,5,0,0:0:0
392,40,140792,1,0,0:0:0
474,219,141019,1,8,0:0:0
392,40,141246,5,0,0:0:0
344,56,141360,1,0,0:0:0
320,104,141474,1,0,0:0:0
277,206,141701,1,0,0:0:0
376,192,141928,2,0,P|384:248|360:288,1,100,8|0,0:0|0:0,0:0:0
216,130,142383,6,0,P|328:128|376:192,1,200,4|8,0:0|0:0,0:0:0
277,206,143065,1,0,0:0:0
277,206,143292,6,0,P|211:283,1,100
127,100,143746,2,0,P|120:200,1,100,8|0,0:0|0:0,0:0:0
127,100,144201,5,0,0:0:0
277,205,144428,1,0,0:0:0
116,293,144655,1,8,0:0:0
277,205,144883,1,0,0:0:0
200,264,145110,5,0,0:0:0
296,312,145337,1,0,0:0:0
345,321,145451,1,0,0:0:0
390,299,145565,1,8,0:0:0
413,255,145678,1,0,0:0:0
408,205,145792,1,0,0:0:0
372,170,145905,1,0,0:0:0
328,152,146019,6,0,P|288:120|280:72,1,100
408,204,146474,2,0,P|362:240|323:238,1,100,8|0,0:0|0:0,0:0:0
216,296,146928,2,0,P|207:238|229:205,1,100,0|0,0:0|0:0,0:0:0
237,86,147383,2,0,P|291:107|308:142,1,100,8|0,0:0|0:0,0:0:0
216,296,147837,6,0,P|160:296|128:264,1,100
120,55,148292,2,0,P|170:58|207:90,1,100,8|0,0:0|0:0,0:0:0
168,176,148746,1,0,0:0:0
264,216,148974,1,0,0:0:0
312,232,149087,1,0,0:0:0
360,248,149201,1,8,0:0:0
456,280,149428,1,0,0:0:0
424,184,149655,6,0,P|356:251|381:354,1,200,0|8,0:0|0:0,0:0:0
456,280,150337,1,0,0:0:0
456,280,150565,2,0,P|496:256|519:210,2,100,0|0|8,0:0|0:0|0:0,0:0:0
256,192,151246,12,4,152837,0:0:0
248,232,153292,6,0,P|352:200,1,100
152,152,153746,2,0,P|56:181,1,100,8|0,0:0|0:0,0:0:0
360,232,154201,2,0,P|455:202,1,100
264,152,154655,2,0,P|168:181,1,100,8|0,0:0|0:0,0:0:0
280,56,155110,5,0,0:0:0
359,119,155337,1,0,0:0:0
264,152,155564,1,8,0:0:0
280,56,155792,1,0,0:0:0
376,24,156019,2,0,P|442:68|435:181,1,200,0|8,0:0|0:0,0:0:0
384,256,156701,5,0,0:0:0
384,256,156814,1,0,0:0:0
384,256,156928,2,0,P|304:304|208:256,1,200,0|8,0:0|0:0,0:0:0
296,216,157610,1,0,0:0:0
216,176,157837,2,0,P|121:232|129:309,2,200,0|8|0,0:0|0:0|0:0,0:0:0
416,200,159201,1,8,0:0:0
296,40,159655,5,0,0:0:0
282,57,159769,1,0,0:0:0
268,75,159883,1,0,0:0:0
254,93,159996,1,0,0:0:0
240,111,160110,1,0,0:0:0
226,129,160224,1,0,0:0:0
212,146,160337,1,0,0:0:0
198,164,160451,1,0,0:0:0
184,182,160564,1,4,0:0:0
256,192,167837,12,4,173292,0:0:0
280,120,173746,5,0,0:0:0
154,275,174201,1,0,0:0:0
352,304,174655,1,0,0:0:0
264,248,175110,5,0,0:0:0
144,160,175337,1,0,0:0:0
264,248,175564,1,8,0:0:0
304,104,175792,5,0,0:0:0
304,104,175905,1,0,0:0:0
304,104,176019,1,0,0:0:0
256,296,176246,1,0,0:0:0
96,168,176474,1,8,0:0:0
96,168,176701,1,0,0:0:0
304,280,176928,5,0,0:0:0
120,128,177155,1,0,0:0:0
312,64,177383,1,8,0:0:0
312,64,177610,1,0,0:0:0
391,113,177837,6,0,P|360:152|312:160,1,100
120,270,178292,2,0,P|152:232|200:224,1,100,8|0,0:0|0:0,0:0:0
265,161,178746,6,0,P|288:256|208:320,1,200,0|8,0:0|0:0,0:0:0
176,224,179428,1,0,0:0:0
352,96,179655,1,0,0:0:0
184,84,179883,1,0,0:0:0
344,236,180110,1,8,0:0:0
265,161,180337,1,0,0:0:0
256,192,180564,12,12,181928,0:0:0
208,80,182383,5,0,0:0:0
336,168,182610,1,0,0:0:0
200,232,182837,1,8,0:0:0
208,80,183064,5,0,0:0:0
208,80,183178,1,0,0:0:0
208,80,183292,1,0,0:0:0
184,280,183519,1,0,0:0:0
368,200,183746,1,8,0:0:0
368,200,183974,1,0,0:0:0
128,56,184201,6,0,P|136:112|168:152,1,100
368,200,184655,2,0,P|394:166|402:110,1,100,8|0,0:0|0:0,0:0:0
96,72,185110,6,0,P|104:128|136:168,1,100
334,290,185564,2,0,P|360:256|368:200,1,100,8|0,0:0|0:0,0:0:0
408,112,186019,6,0,P|304:136|272:216,1,200,0|8,0:0|0:0,0:0:0
368,200,186701,1,0,0:0:0
304,128,186928,2,0,P|232:48,1,100
144,80,187383,2,0,P|216:160,1,100,8|0,0:0|0:0,0:0:0
176,248,187837,2,0,P|104:168,1,100,0|0,0:0|0:0,0:0:0
64,264,188292,2,0,P|136:344,1,100,8|0,0:0|0:0,0:0:0
232,328,188746,5,0,0:0:0
328,296,188974,1,0,0:0:0
375,281,189087,1,0,0:0:0
404,240,189201,1,8,0:0:0
406,190,189314,1,0,0:0:0
383,144,189428,1,0,0:0:0
338,120,189542,1,0,0:0:0
288,120,189655,6,0,P|240:144|224:192,1,100
232,288,190110,2,0,P|280:264|296:216,1,100,8|0,0:0|0:0,0:0:0
256,96,190564,2,0,P|208:120|192:168,1,100
248,320,191019,2,0,P|296:296|312:248,1,100,8|0,0:0|0:0,0:0:0
135,87,191474,6,0,P|152:136|192:161,1,100
368,328,191928,2,0,P|351:279|311:254,1,100,8|0,0:0|0:0,0:0:0
278,155,192383,2,0,P|216:256|248:320,1,200,0|8,0:0|0:0,0:0:0
368,328,193064,5,0,0:0:0
368,328,193292,2,0,P|424:264|392:160,1,200,4|8,0:0|0:0,0:0:0
304,224,193974,1,0,0:0:0
304,224,194201,2,0,P|372:177|360:64,1,200,0|8,0:0|0:0,0:0:0
288,128,194883,2,0,P|222:172|233:290,2,200
304,224,196019,5,0,0:0:0
216,184,196246,2,0,P|152:160,2,50,0|0|8,0:0|0:0|0:0,0:0:0
304,224,196701,1,0,0:0:0
216,352,196928,5,0,0:0:0
312,320,197155,1,0,0:0:0
204,244,197383,1,8,0:0:0
112,184,197610,1,0,0:0:0
288,164,197837,1,0,0:3:0
384,92,198064,1,0,0:3:0
216,88,198292,1,8,0:0:0
96,40,198519,1,0,0:0:0
384,92,198746,6,0,P|424:72|436:12,1,100,0|0,0:0|0:0,0:0:0
340,24,199201,2,0,P|236:48,1,100,8|0,0:0|0:0,0:0:0
368,268,199655,2,0,P|416:166|383:90,1,200,0|8,0:0|0:0,0:0:0
304,192,200337,5,0,0:0:0
304,192,200564,2,0,P|350:285|459:291,1,200,0|8,0:0|0:0,0:0:0
416,200,201246,1,0,0:0:0
416,200,201474,2,0,P|352:280|360:376,2,200,0|8|0,0:0|0:0|0:0,0:0:0
240,104,202837,1,8,0:0:0
48,144,203292,5,0,0:0:0
56,165,203405,1,0,0:0:0
65,186,203519,1,0,0:0:0
73,207,203633,1,0,0:0:0
82,227,203746,1,0,0:0:0
91,248,203860,1,0,0:0:0
100,269,203974,1,0,0:0:0
109,290,204087,1,0,0:0:0
118,311,204201,1,4,0:0:0
