osu file format v9

[General]
AudioFilename: Roly Poly - dang Cap Nhat [NCT 07634449839639437500].mp3
AudioLeadIn: 0
PreviewTime: 59860
Countdown: 0
SampleSet: Soft
StackLeniency: 0.7
Mode: 0
LetterboxInBreaks: 0
SkinPreference:Default

[Editor]
DistanceSpacing: 0.8
BeatDivisor: 4
GridSize: 4

[Metadata]
Title:Roly Poly
Artist:T-ara
Creator:kazumikos
Version:Hard
Source:
Tags:John Travolta Wanna be tiara

[Difficulty]
HPDrainRate:7
CircleSize:4
OverallDifficulty:7
ApproachRate:8
SliderMultiplier:2
SliderTickRate:2

[Events]
//Background and Video events
0,0,"Ice_Cream_with_Berries.jpg"
//Break Periods
2,16435,30254
2,92127,105946
2,136435,150254
//Storyboard Layer 0 (Background)
//Storyboard Layer 1 (Fail)
//Storyboard Layer 2 (Pass)
//Storyboard Layer 3 (Foreground)
//Storyboard Sound Samples
//Background Colour Transformations
3,100,163,162,255

[TimingPoints]
1466,461.538461538462,4,2,1,80,1,0
6773,-100,4,2,2,70,0,0
8735,-100,4,2,1,80,0,0
42427,-100,4,2,2,80,0,0
42658,-100,4,2,1,80,0,0
43581,-100,4,2,2,80,0,0
46004,-100,4,2,1,80,0,0
57196,-100,4,2,2,80,0,0
57427,-100,4,2,1,80,0,0
58581,-133.333333333333,4,2,1,80,0,0
59504,-100,4,2,1,80,0,0
60542,-100,4,2,1,80,0,1
60658,-100,4,2,1,80,0,0
75312,-100,4,2,1,70,0,0
76812,-66.6666666666667,4,2,1,80,0,0
77273,-100,4,2,1,80,0,0
78658,-66.6666666666667,4,2,1,80,0,0
79119,-100,4,2,1,80,0,0
84196,-66.6666666666667,4,2,1,80,0,0
84658,-100,4,2,1,80,0,0
91927,-100,4,2,1,60,0,0
92389,-100,4,2,1,80,0,0
112581,-100,4,2,2,80,0,0
112812,-100,4,2,1,80,0,0
121466,-100,4,2,1,80,0,1
121581,-100,4,2,1,80,0,0
156427,-100,4,2,2,80,0,0
158042,-100,4,2,1,80,0,0
165773,-100,4,2,1,90,0,1
182735,-100,4,2,2,90,0,1
182966,-100,4,2,1,90,0,1
186427,-100,4,2,2,90,0,1
186658,-100,4,2,1,90,0,1
195312,-100,4,2,1,90,0,0

[Colours]
Combo1 : 128,0,0
Combo2 : 177,177,177
Combo3 : 80,80,80
Combo4 : 252,112,112
SliderBorder : 240,240,240

[HitObjects]
208,64,7004,1,2
204,76,7466,1,2
200,88,7927,1,2
172,180,8158,1,0
172,180,8389,2,0,B|112:180,2,50,2|0|0
252,180,8850,5,0
328,200,9081,1,0
252,224,9312,1,8
328,132,9542,2,0,B|364:88|364:32,1,100
328,200,10004,1,0
158,205,10235,2,0,B|216:108|330:133,1,200,8|0
404,156,10927,5,0
328,132,11158,1,8
404,156,11389,2,0,B|448:192|448:252,1,100
328,132,11850,1,0
160,84,12081,2,0,B|212:84|264:108,1,100,8|0
76,100,12542,5,0
120,251,12773,2,0,B|91:152,1,100,0|8
272,215,13235,2,0,B|224:204|176:168,1,100
229,57,13696,1,0
120,252,13927,2,0,B|236:217|228:85,1,200,8|0
172,160,14619,5,0
244,192,14850,1,8
268,204,14965,1,0
292,216,15081,1,0
316,228,15196,1,0
340,240,15312,1,0
328,132,15542,5,0
188,268,15773,1,8
328,132,16004,1,0
188,268,16235,1,4
160,244,31004,5,0
160,244,31235,2,0,B|192:200|248:192,1,100,0|8
324,204,31696,1,0
392,248,31927,2,0,B|432:180|372:104|296:128,1,200,0|8
244,188,32619,1,0
324,204,32850,2,0,B|400:176|396:68|316:48,1,200,0|8
300,127,33542,5,0
244,188,33773,2,0,B|208:232|148:232,1,100
300,127,34235,2,0,B|336:172|316:228,1,100,8|0
157,232,34696,2,0,B|220:228|280:172|276:96,1,200,0|8
364,56,35389,5,0
368,164,35619,1,0
292,252,35850,2,0,B|268:204|304:160,1,100,0|8
364,56,36312,2,0,B|332:96|268:96,1,100,0|0
172,80,36773,5,0
292,252,37004,1,8
128,148,37235,1,0
336,184,37466,1,0
172,80,37696,2,0,B|224:112|204:180,1,100,0|8
408,148,38158,2,0,B|380:100|324:108,1,100,0|0
336,184,38619,5,0
292,252,38850,1,8
228,300,39081,2,0,B|192:344|132:332,1,100
228,300,39542,1,0
292,252,39773,2,0,B|340:220|396:260,1,100,8|0
336,316,40235,2,0,B|248:244|300:132,1,200,0|8
200,160,40927,6,0,B|314:132,1,100
180,236,41389,2,0,B|294:208,1,100,0|8
164,312,41850,2,0,B|278:284,1,100,0|2
180,236,42312,2,0,B|68:212|40:92,1,200
120,56,43004,2,0,B|148:108|116:160,2,100,0|0|8
44,200,43696,2,0,B|16:148|48:96,1,100
120,152,44158,5,0
312,252,44389,2,0,B|256:252|212:216,1,100,2|0
424,264,44850,1,2
218,221,45081,1,0
424,264,45312,5,2
408,260,45427,1,0
396,256,45542,1,0
384,252,45658,1,0
372,248,45773,1,4
176,104,46235,6,0,B|260:104|304:172,2,150,8|2|0
248,68,47158,1,8
328,68,47389,1,0
404,92,47619,2,0,B|460:112|464:172,1,100
392,196,48081,6,0,B|368:252|304:252,1,100,8|0
340,284,48427,2,0,B|300:212|212:212,1,150,2|0
140,232,49004,1,8
216,212,49235,2,0,B|320:188,2,100
268,276,49927,1,8
140,232,50158,5,0
140,232,50389,1,0
64,204,50619,1,0
64,204,50850,1,8
104,136,51081,2,0,B|168:48|280:48,1,200
275,48,51773,1,8
275,48,52004,1,0
248,124,52235,1,0
216,196,52466,6,0,B|196:248|148:268,1,100,0|8
228,276,52927,1,0
216,196,53158,2,0,B|212:144|168:104,1,100
56,96,53619,6,0,B|112:36|208:56,2,150,8|2|0
48,176,54542,2,0,B|112:180|132:124,1,100,8|0
56,96,55004,2,0,B|56:208|144:272,1,200,0|8
140,269,55812,1,2
273,35,56158,5,0
277,115,56389,1,8
321,183,56619,1,0
388,228,56850,2,0,B|421:184|413:103|333:59|265:99|241:131|241:187,1,300
261,255,57773,6,0,B|313:239|321:179,1,100
164,232,58235,2,0,B|168:172|236:156,1,100,8|0
192,332,58696,2,0,B|260:380|364:340|360:240,1,224.999993294478
392,180,59619,1,0
392,180,59850,1,0
304,156,60081,1,8
304,156,60196,1,0
304,156,60312,1,0
304,156,60427,1,0
304,156,60542,6,0,B|252:128|252:68,1,100,4|0
272,248,61004,2,0,B|324:276|324:336,1,100,8|0
304,156,61466,1,0
324,328,61696,1,0
204,176,61927,1,8
224,348,62158,1,0
304,156,62389,2,0,B|304:212|272:248,1,100
421,57,62850,6,0,B|392:100|392:156,1,100,8|0
420,56,63312,1,0
348,88,63542,1,0
276,120,63773,2,0,B|176:160,1,100,8|0
276,120,64235,1,0
348,156,64466,1,0
368,168,64581,1,0
392,180,64696,1,8
288,256,64927,5,0
392,180,65158,1,0
276,120,65389,1,0
392,200,65619,1,8
268,244,65850,1,0
292,104,66081,6,2,B|232:104|200:56,1,100,0|0
296,184,66542,2,2,B|248:208|184:188,1,100,8|0
324,256,67004,2,2,B|292:300|224:300,1,100,0|0
84,216,67466,6,0,B|116:260|180:252,1,100,8|0
88,120,67927,2,0,B|140:64|232:92|232:176,1,200,0|8
152,172,68619,1,0
84,216,68850,2,0,B|116:260|180:260,1,100,0|0
80,240,69312,2,0,B|112:284|176:284,1,100,8|0
340,160,69773,2,0,B|244:104|152:172,1,200,0|8
216,220,70466,5,0
144,252,70696,1,0
152,172,70927,2,0,B|196:136|256:136,1,100,0|8
144,252,71389,1,0
315,209,71619,2,0,B|263:205|213:221,1,100
216,220,71966,1,0
216,220,72081,1,8
308,288,72312,6,0,B|348:328|412:336,2,100
216,220,73004,1,8
148,124,73235,1,0
256,88,73466,6,2,B|316:88|360:132,1,100,0|0
124,256,73927,2,2,B|180:256|224:212,1,100,8|0
348,120,74389,2,2,B|312:88|252:88,1,100,0|0
176,96,74850,1,8
176,96,75081,1,0
176,96,75312,1,0
108,172,75542,5,0
108,172,75658,1,0
108,172,75773,1,8
188,228,76004,2,0,B|228:276|292:248,1,100
292,176,76466,1,0
188,228,76696,1,8
204,104,76927,2,0,B|220:52|280:32|332:64,1,149.999995529652
280,132,77389,6,0,B|248:180,2,50,0|0|8
204,104,77850,1,0
136,180,78081,2,0,B|104:228|40:232,1,100
136,180,78542,1,8
88,312,78773,2,0,B|172:292|212:220,1,149.999995529652
304,176,79235,5,0
304,176,79350,1,0
304,176,79466,1,8
336,96,79696,1,0
188,88,79927,1,0
304,176,80158,1,0
264,40,80389,1,8
216,168,80619,1,0
188,88,80850,5,2
268,340,81312,1,10
232,76,81773,1,2
52,272,82235,1,10
308,192,82696,1,0
252,248,82927,5,0
236,264,83042,1,0
220,280,83158,1,8
164,336,83389,2,0,B|56:336,1,100
220,280,83850,2,0,B|128:232,1,100,0|8
276,228,84312,2,0,B|204:92,1,149.999995529652
308,132,84773,6,0,B|356:156,1,50
388,128,85004,2,0,B|376:180|404:232,1,100,8|0
464,124,85465,2,0,B|456:68|404:52,1,100
400,224,85927,1,8
308,132,86158,1,0
404,52,86389,1,0
404,52,86619,5,0
356,64,86735,1,0
304,76,86850,2,0,B|192:100,1,100,8|0
72,200,87312,2,0,B|184:176,1,100
340,232,87773,2,0,B|228:256,1,100,8|0
206,97,88235,6,0,B|318:73,1,100
356,64,88581,1,0
404,52,88696,1,8
304,76,88927,1,0
206,97,89158,1,2
206,97,89619,1,2
256,192,89850,12,4,91927
184,100,106696,5,4
184,100,106927,1,0
184,100,107158,2,0,B|208:152|264:164,1,100,8|0
292,128,107504,2,0,B|240:160|240:232,1,100,2|0
256,240,107850,5,0
292,128,108081,1,8
184,100,108312,1,0
152,208,108542,2,0,B|136:264|84:292,2,100,0|0|8
184,100,109235,1,0
212,72,109350,1,2
388,72,109696,6,0,B|284:104,1,100,0|8
388,72,110158,1,0
344,248,110389,2,0,B|368:152,1,100
344,248,110850,1,8
308,76,111081,6,0,B|308:128|268:164,1,100
144,184,111542,2,0,B|144:132|184:96,1,100,0|8
308,76,112004,2,0,B|312:144|236:212|160:200,2,200
328,152,113158,1,0
348,228,113389,5,0
364,308,113619,2,0,B|312:320|272:260,1,100,8|0
348,228,114081,2,0,B|420:220|448:128|380:76,1,200,0|8
348,228,114889,1,2
348,228,115235,5,0
256,216,115465,1,8
168,184,115696,1,0
92,132,115927,1,0
256,216,116389,2,0,B|328:252|404:240,2,150,8|2|0
276,144,117312,6,0,B|328:144|368:104,1,100,8|0
200,152,117773,2,0,B|148:128|152:64,1,100
276,144,118235,1,8
152,72,118465,1,0
120,202,118696,2,0,B|176:202|200:152,1,100
60,128,119158,1,8
256,192,119389,12,0,121004
324,104,121465,6,0,B|264:120|256:132|236:196|228:208|152:224,2,200,4|8|0
160,140,122619,1,0
340,184,122850,1,8
168,220,123081,1,0
324,104,123312,2,0,B|264:120|256:132|236:196|228:208|152:224,1,200,0|8
240,256,124004,5,0
276,184,124235,1,0
204,148,124465,1,0
168,220,124696,1,8
252,140,124927,1,0
336,224,125158,1,0
252,300,125389,1,0
252,300,125504,1,0
252,300,125619,1,8
252,140,125850,5,0
176,120,126081,1,0
252,220,126312,1,0
256,60,126542,1,8
104,172,126773,1,0
256,60,127004,6,2,B|308:44|368:56,1,100,0|0
176,120,127465,2,2,B|124:128|80:160,1,100,8|0
260,176,127927,2,2,B|316:176|368:192,1,100,0|0
176,120,128389,5,8
360,188,128619,1,0
232,56,128850,2,0,B|172:12|80:52|92:136,2,200,0|8|0
160,240,130004,1,0
280,48,130235,1,8
208,232,130465,1,0
232,56,130696,2,0,B|172:12|80:52|92:136,1,200,0|8
176,120,131389,6,0,B|224:160|288:128,2,100
328,64,132081,2,0,B|280:36|232:56,2,100,8|0|0
270,137,132773,1,0
252,160,132889,1,0
236,180,133004,1,8
184,240,133235,5,0
236,180,133465,1,0
364,128,133696,1,0
320,192,133927,1,8
184,240,134158,1,0
236,180,134389,6,2,B|268:136|268:80,1,100,0|0
184,240,134850,2,2,B|224:280|288:280,1,100,8|0
164,164,135312,2,2,B|116:176|84:224,1,100,0|0
236,180,135773,1,8
84,222,136004,1,0
120,68,136235,1,0
316,32,151004,6,0,B|260:128,1,100,0|0
236,288,151465,2,0,B|292:192,1,100,2|0
316,32,151927,1,0
408,196,152158,1,0
236,288,152389,1,2
144,132,152619,2,0,B|116:84,2,50,0|0|0
344,108,153081,6,0,B|236:116,1,100,0|2
336,280,153542,1,0
244,116,153773,1,0
408,196,154004,2,0,B|300:204,1,100,0|2
328,160,154350,2,0,B|308:248|200:260,1,150,0|0
136,248,154927,5,0
224,256,155158,1,0
184,172,155389,1,0
144,88,155619,1,0
128,64,155735,1,0
184,172,155965,1,0
200,200,156081,1,0
352,140,156542,6,0,B|300:140|256:192,1,100,2|0
396,80,157004,2,0,B|348:64|292:84,1,100,2|0
468,72,157465,2,0,B|444:20,1,50,2|0
352,140,157812,2,0,B|320:180,1,50
264,236,158158,5,0
144,296,158389,1,0
264,236,158619,1,0
144,296,158850,1,8
264,236,159081,1,0
332,192,159312,2,0,B|432:136|432:20,1,200,0|8
360,64,160004,5,0
292,104,160235,2,0,B|196:148,1,100
332,192,160696,2,0,B|428:148,1,100,8|0
200,145,161158,1,0
304,32,161619,5,8
236,72,161850,1,0
200,144,162081,2,0,B|176:192|132:220,1,100
200,144,162542,1,8
236,72,162773,1,0
300,120,163004,2,0,B|340:164|348:216,1,100
352,288,163466,2,0,B|412:280|428:216,1,100,8|0
412,148,163927,1,4
180,188,165312,6,0,B|88:240,1,100,0|0
280,160,165773,2,0,B|104:256,1,200,4|8
180,188,166466,1,0
280,160,166696,2,0,B|380:160,1,100,0|0
180,188,167158,2,0,B|292:188,1,100,8|0
80,220,167619,2,0,B|196:220|228:104,1,200,0|8
248,256,168312,5,0
112,120,168542,1,0
280,188,168773,2,0,B|328:212|388:212,1,100,0|8
192,176,169235,2,0,B|204:224|248:256,1,100
112,120,169696,2,0,B|76:84,2,50,0|0|8
248,256,170158,5,0
328,304,170389,2,0,B|376:328|436:320,1,100
328,208,170850,2,0,B|376:184|436:192,1,100,8|0
248,256,171312,6,2,B|144:288,1,100,0|0
328,208,171773,2,2,B|232:172,1,100,8|0
332,300,172235,2,2,B|252:232|144:244,1,200,0|8
264,124,172927,5,0
336,92,173158,2,0,B|392:76|424:40,1,100
276,44,173619,2,0,B|168:32|96:120,1,200,8|0
116,196,174312,1,0
188,160,174542,1,8
264,124,174773,1,0
336,92,175004,2,0,B|392:76|424:40,1,100
276,44,175466,6,0,B|224:40|168:68,2,100,8|0|0
178,62,176158,1,0
92,116,176389,1,8
24,192,176619,1,0
92,116,176850,2,0,B|140:144|140:204,1,100
136,224,177196,1,0
128,248,177312,1,8
224,236,177542,5,0
288,160,177773,1,0
312,276,178004,1,0
196,112,178235,1,8
224,236,178466,1,0
288,160,178696,6,2,B|216:244,1,100,0|0
292,80,179158,2,2,B|196:112,1,100,8|0
304,236,179619,2,2,B|404:204,1,100,0|0
368,128,180081,1,8
368,128,180312,1,0
368,128,180542,5,4
64,212,181004,1,8
452,216,181466,1,4
44,324,181927,1,8
368,128,182389,1,0
296,76,182619,2,0,B|212:16|96:36,1,200
148,120,183312,6,0,B|168:168|220:208,1,100
296,76,183773,1,8
148,120,184004,1,0
296,172,184235,2,0,B|352:192|384:228,1,100
404,248,184581,1,0
432,276,184696,2,0,B|464:232|460:180,1,100,8|0
448,84,185158,6,0,B|396:84|344:108,1,100
296,172,185619,2,0,B|244:172|200:148,1,100,8|0
248,84,186081,2,0,B|296:124|300:184|260:236|216:256|152:236|124:200|120:160,2,300,0|0|8
200,148,187696,1,0
352,112,187927,6,0,B|408:100|444:64,1,100,4|0
284,204,188389,2,0,B|336:204|388:236,1,100,8|0
216,292,188850,2,0,B|172:318|120:318,1,100,4|0
284,204,189312,2,0,B|320:171|372:159,1,100,8|0
216,292,189773,1,0
372,160,190004,1,0
44,96,190466,5,0
44,96,190696,2,0,B|44:152|76:200,1,100
372,120,191158,2,0,B|372:180|332:228,1,100,8|0
140,160,191619,2,0,B|140:216|172:260,1,100
188,288,191966,2,0,B|224:336,1,50,0|8
248,224,192312,6,0,B|268:176|268:120,2,100
344,144,193004,1,8
160,128,193235,1,0
264,36,193466,5,2
76,288,193927,1,2
392,324,194389,1,2
120,100,194850,1,0
256,136,195081,1,0
392,172,195312,1,4
