osu file format v9

[General]
AudioFilename: Roly Poly - dang Cap Nhat [NCT 07634449839639437500].mp3
AudioLeadIn: 0
PreviewTime: 59860
Countdown: 0
SampleSet: Soft
StackLeniency: 0.7
Mode: 0
LetterboxInBreaks: 0
SkinPreference:Default

[Editor]
DistanceSpacing: 0.8
BeatDivisor: 4
GridSize: 4

[Metadata]
Title:Roly Poly
Artist:T-ara
Creator:kazumikos
Version:Easy
Source:
Tags:John Travolta Wanna be tiara

[Difficulty]
HPDrainRate:3
CircleSize:3
OverallDifficulty:3
ApproachRate:4
SliderMultiplier:1.4
SliderTickRate:2

[Events]
//Background and Video events
0,0,"Ice_Cream_with_Berries.jpg"
//Break Periods
2,16435,29684
2,92127,105376
2,136435,149684
//Storyboard Layer 0 (Background)
//Storyboard Layer 1 (Fail)
//Storyboard Layer 2 (Pass)
//Storyboard Layer 3 (Foreground)
//Storyboard Sound Samples
//Background Colour Transformations
3,100,163,162,255

[TimingPoints]
1466,461.538461538462,4,2,1,80,1,0
6773,-100,4,2,2,70,0,0
8042,-100,4,2,1,70,0,0
8273,-100,4,2,2,70,0,0
8504,-100,4,2,1,70,0,0
8735,-100,4,2,1,80,0,0
11042,-100,4,2,2,60,0,0
11273,-100,4,2,1,80,0,0
13812,-100,4,2,2,60,0,0
14042,-100,4,2,1,80,0,0
32273,-100,4,2,2,60,0,0
32504,-100,4,2,1,80,0,0
33196,-100,4,2,2,60,0,0
33427,-100,4,2,1,80,0,0
43350,-100,4,2,2,60,0,0
43581,-100,4,2,1,80,0,0
45542,-100,4,2,1,60,0,0
46004,-100,4,2,1,80,0,0
50735,-100,4,2,2,60,0,0
50966,-100,4,2,1,80,0,0
51658,-100,4,2,2,60,0,0
51889,-100,4,2,1,80,0,0
60542,-100,4,2,1,80,0,1
60658,-100,4,2,1,80,0,0
63658,-100,4,2,2,80,0,0
63889,-100,4,2,1,80,0,0
64581,-100,4,2,2,80,0,0
64812,-100,4,2,1,80,0,0
75312,-100,4,2,1,70,0,0
91927,-100,4,2,1,60,0,0
92389,-100,4,2,1,80,0,0
112581,-100,4,2,2,60,0,0
112812,-100,4,2,1,80,0,0
118119,-100,4,2,2,60,0,0
118350,-100,4,2,1,80,0,0
121466,-100,4,2,1,80,0,1
121581,-100,4,2,1,80,0,0
126427,-100,4,2,2,80,0,0
126658,-100,4,2,1,80,0,0
132899,-100,4,2,2,60,0,0
133119,-100,4,2,1,80,0,0
156312,-100,4,2,2,80,0,0
156773,-100,4,2,1,80,0,0
165773,-100,4,2,1,90,0,1
169812,-100,4,2,2,90,0,1
170042,-100,4,2,1,90,0,1
177196,-100,4,2,2,90,0,1
177427,-100,4,2,1,90,0,1
186427,-100,4,2,2,90,0,1
186658,-100,4,2,1,90,0,1
195312,-100,4,2,1,90,0,0

[Colours]
Combo1 : 128,0,0
Combo2 : 177,177,177
Combo3 : 80,80,80
Combo4 : 252,112,112
SliderBorder : 220,220,220

[HitObjects]
368,148,7004,1,2
256,164,7466,1,2
172,236,7927,2,0,B|100:236|44:180,2,140,2|2|0
256,164,9312,6,0,B|332:184|360:260,1,140,8|0
248,276,10235,1,8
156,216,10696,2,0,B|132:144|160:48|272:32|332:80,1,280
256,164,12081,6,0,B|268:232|356:272,1,140,8|0
368,156,13004,1,8
304,64,13465,2,0,B|148:64|64:204,1,280
176,228,14850,5,8
276,176,15312,1,0
388,176,15773,1,8
336,76,16235,1,4
136,240,31004,6,0,B|216:216|276:248,1,140,0|8
348,160,31927,2,0,B|216:92|68:148,2,280
440,228,34235,1,8
336,272,34696,1,0
256,64,35619,5,0
72,188,36542,1,0
164,124,37004,2,0,B|204:192|156:264,3,140,8|0|8|0
272,248,38850,5,8
324,148,39312,1,0
424,200,39773,1,8
372,300,40235,1,0
256,108,41158,5,0
464,192,42081,1,0
284,324,43004,2,0,B|284:244|80:264|80:152,1,280
188,124,44389,5,8
296,92,44850,1,0
396,40,45312,1,8
452,136,45773,1,4
344,192,46235,6,0,B|336:308|208:352|136:264,1,280,8|8
232,204,47619,1,0
276,100,48081,2,0,B|348:52|440:84|476:164|448:236,1,280,8|8
344,192,49466,1,0
192,120,50158,6,0,B|136:164|136:252,2,140
284,180,51542,2,0,B|312:244|408:272|464:208,1,210
384,128,52696,2,0,B|344:68|260:68,1,140,8|0
284,180,53619,6,0,B|316:268|268:328|180:360|112:296,1,280,8|8
72,204,55004,1,0
184,216,55466,1,8
400,132,56389,5,8
300,84,56850,2,0,B|300:236,1,140,0|8
388,292,57773,1,0
284,340,58235,2,0,B|168:328|128:216,2,210,8|0|0
296,228,60081,5,0
220,148,60542,1,4
128,216,61004,1,8
48,136,61466,5,0
140,72,61927,1,8
220,148,62389,1,0
316,88,62850,1,8
220,148,63312,6,0,B|224:224|248:244|392:236|412:260|420:328,2,280
444,160,66081,1,0
348,100,66542,1,8
240,68,67004,1,0
100,244,67927,6,0,B|180:244|232:304,1,140,0|8
332,260,68850,2,0,B|296:196|220:156,1,140,0|8
124,132,69773,2,0,B|168:68|256:56,1,140,0|8
344,100,70696,5,0
124,132,71619,1,0
344,100,72542,2,0,B|344:176|292:232,1,140,0|8
212,300,73466,1,0
104,276,73927,2,0,B|124:196|212:188,1,140,8|0
184,80,74850,2,0,B|112:80,2,70,8|0|0
296,80,75773,5,8
388,144,76235,1,0
432,248,76696,1,8
224,328,77619,5,8
144,248,78081,1,0
112,144,78542,1,8
320,232,79466,5,8
388,144,79927,2,0,B|248:144,1,140,0|8
152,204,80850,2,0,B|264:312,3,140,0|8|0|8
92,144,83158,5,8
168,64,83619,2,0,B|224:108|312:108,1,140,0|8
248,328,85004,5,8
188,232,85465,2,0,B|264:232|320:184,1,140,0|8
140,324,86850,6,0,B|68:280|92:196,2,140,8|0|8
344,228,88696,1,10
264,152,89158,1,2
180,76,89619,1,8
256,192,90081,12,4,91927
360,160,106696,6,0,B|328:96|256:72,1,140,4|8
64,192,108081,2,0,B|140:192|192:244,1,140,8|0
288,296,109004,1,8
256,76,109927,2,0,B|272:152|344:180,1,140,8|0
124,232,111312,6,0,B|200:256|228:340,1,140,0|8
272,300,112004,2,0,B|364:196,2,140
304,136,113619,6,0,B|160:136,1,140,8|0
52,136,114542,1,8
260,224,115465,2,0,B|108:224,1,140,8|0
52,136,116389,1,8
276,116,117312,5,8
344,204,117773,2,0,B|332:280|272:320|272:320|192:320|140:268,1,280
84,176,119158,2,0,B|132:76|256:60,2,210,8|0|0
276,296,121465,5,4
264,184,121927,1,8
164,136,122389,2,0,B|164:216|200:284,3,140,0|8|0|8
264,184,124235,5,0
356,120,124696,1,8
464,152,125158,1,0
272,272,126081,2,0,B|260:196|188:136|96:172|60:232,1,280
160,284,127465,1,8
272,272,127927,1,0
416,100,128850,6,0,B|396:168|396:168|340:216,1,140,0|8
300,108,129773,2,0,B|248:156|248:156|176:156,2,140,0|8|0
204,48,131158,1,8
180,156,131619,5,0
212,264,132081,1,8
296,340,132542,2,0,B|352:288|336:192|260:160,1,210
268,108,133465,2,0,B|340:76|408:124,1,140,0|8
324,200,134389,5,2
404,280,134850,1,8
484,196,135312,1,2
400,120,135773,1,8
300,68,136235,1,0
216,140,151004,6,0,B|272:80|348:80,1,140,0|2
384,180,151927,2,0,B|332:240|252:240,1,140,0|2
216,140,152850,5,0
148,228,153312,1,2
108,124,153773,1,0
180,36,154235,1,2
216,140,154696,6,0,B|236:240|288:300|360:308|424:280|456:216|452:104,1,420
340,156,156542,2,0,B|304:60|180:36,2,210,2|0|0
256,228,158389,5,0
160,172,158850,1,8
92,264,159312,1,0
92,264,160235,5,0
188,320,160696,1,8
256,228,161158,1,0
444,104,162081,5,0
332,104,162542,1,8
392,200,163004,1,0
280,200,163466,1,8
332,300,163927,1,4
96,92,165773,6,0,B|164:136|164:216,1,140,4|8
56,232,166696,1,0
148,296,167158,1,8
244,236,167619,2,0,B|252:160|212:92,1,140,0|8
328,96,168542,6,0,B|468:96,1,140,0|8
416,196,169466,2,0,B|208:196,1,210
148,196,170389,2,0,B|188:250|188:328,2,140,0|8|0
56,136,171773,1,8
124,44,172235,1,0
344,92,173158,5,0
280,184,173619,1,8
192,116,174081,1,0
124,204,174542,1,8
212,276,175004,1,0
280,184,175466,1,8
344,92,175927,6,0,B|420:92|484:148,1,140,0|8
420,236,176850,2,0,B|344:308|344:308|168:308,1,280
248,228,178235,2,0,B|316:228|316:228|372:172,1,140,8|0
260,144,179158,2,0,B|192:144|192:144|136:200,2,140,8|0|8
324,52,180542,5,4
212,52,181004,1,8
324,52,181466,1,4
416,116,181927,1,8
416,228,182389,2,0,B|356:284,1,70
252,148,183312,6,0,B|144:248,1,140,0|8
56,184,184235,1,0
236,56,185158,2,0,B|284:112|368:112,1,140,0|8
396,220,186081,2,0,B|264:152|124:220,1,280
324,304,187927,5,4
396,220,188389,1,8
472,136,188850,1,4
360,108,189312,1,8
288,196,189773,1,0
108,64,190696,6,0,B|184:88|208:168,2,140,0|8|0
92,176,192081,2,0,B|100:248|140:312,1,140,8|0
248,308,193004,1,8
284,200,193466,5,2
396,200,193927,1,2
432,92,194389,1,2
396,200,194850,2,0,B|324:160|328:72,1,140,2|4
