osu file format v12

[General]
AudioFilename: T-ara - NUMBER NINE ( No.9).mp3
AudioLeadIn: 0
PreviewTime: 66327
Countdown: 1
SampleSet: Normal
StackLeniency: 0.7
Mode: 0
LetterboxInBreaks: 1
EpilepsyWarning: 1
WidescreenStoryboard: 1

[Editor]
DistanceSpacing: 1
BeatDivisor: 4
GridSize: 8

[Metadata]
Title:Number 9
TitleUnicode:넘버나인
Artist:T-ara
ArtistUnicode:티아라
Creator:K1dPoker
Version:Normal
Source:Again
Tags:kpop k-pop t-ara Nine
BeatmapID:314600
BeatmapSetID:123126

[Difficulty]
HPDrainRate:3
CircleSize:4
OverallDifficulty:3
ApproachRate:5
SliderMultiplier:1.3
SliderTickRate:2

[Events]
//Background and Video events
0,0,"T-ara no.9.jpg",0,0
Video,0,"T-ara no.9.avi"
//Break Periods
2,96515,109646
2,186515,197302
//Storyboard Layer 0 (Background)
//Storyboard Layer 1 (Fail)
//Storyboard Layer 2 (Pass)
//Storyboard Layer 3 (Foreground)
//Storyboard Sound Samples
//Background Colour Transformations
3,100,163,162,255

[TimingPoints]
21315,468.75,4,1,0,40,1,0
66315,-100,4,1,0,60,0,1
80846,-100,4,1,0,50,0,0
110846,-100,4,1,0,40,0,0
141315,-100,4,1,0,60,0,1
155846,-100,4,1,0,50,0,0
170846,-100,4,1,0,40,0,0
201315,-100,4,1,0,60,0,1
216315,-100,4,1,0,40,0,0

[Colours]
Combo1 : 128,128,192
Combo2 : 255,0,128
Combo3 : 255,255,0
Combo4 : 0,0,255
Combo5 : 0,255,0

[HitObjects]
64,192,21315,1,0,0:0:0:0:
160,104,21783,1,0,0:0:0:0:
256,192,22252,1,0,0:0:0:0:
352,104,22721,2,0,P|416:88|480:104,2,130
256,192,24127,1,0,0:0:0:0:
256,192,24596,1,0,0:0:0:0:
160,280,25065,6,0,P|96:296|32:280,2,130
256,192,26471,1,0,0:0:0:0:
344,96,26940,1,0,0:0:0:0:
432,192,27408,1,0,0:0:0:0:
344,96,27877,1,0,0:0:0:0:
216,64,28346,1,0,0:0:0:0:
96,120,28815,6,0,P|40:80|24:16,2,130
160,136,29986,1,0,0:0:0:0:
224,152,30221,2,0,P|272:192|296:264,2,130
264,24,31627,1,0,0:0:0:0:
360,112,32096,1,0,0:0:0:0:
360,112,32565,2,0,L|480:32,2,130
256,192,33971,12,0,35377,0:0:0:0:
32,96,35846,5,0,0:0:0:0:
120,192,36315,2,4,P|184:208|256:184,1,130
360,136,37252,2,0,P|368:200|352:264,1,130
248,336,38190,1,0,0:0:0:0:
152,248,38658,1,0,0:0:0:0:
56,336,39127,1,0,0:0:0:0:
152,248,39596,6,0,P|112:200|136:128,1,130
216,48,40533,2,0,P|256:96|232:168,2,130
88,56,41940,1,0,0:0:0:0:
24,168,42408,1,0,0:0:0:0:
88,280,42877,1,0,0:0:0:0:
208,328,43346,6,0,P|280:312|320:256,1,130
336,208,44049,1,0,0:0:0:0:
360,144,44283,2,0,L|400:16,1,130
256,32,45221,1,0,0:0:0:0:
152,112,45690,1,0,0:0:0:0:
264,168,46158,2,0,P|216:224|144:232,1,130
64,144,47096,5,0,0:0:0:0:
96,88,47330,2,0,P|184:48|272:88,1,195
336,200,48502,1,0,0:0:0:0:
336,200,48971,1,0,0:0:0:0:
256,192,49440,12,0,51315,0:0:0:0:
152,160,51783,6,0,P|192:104|256:88,2,130
144,288,53190,1,0,0:0:0:0:
272,296,53658,2,0,B|336:320|336:320|392:288,1,130
416,232,54361,1,0,0:0:0:0:
416,168,54596,1,0,0:0:0:0:
416,104,54830,2,0,B|352:72,1,65
232,56,55533,6,0,B|168:72|168:72|96:56,2,130
360,64,56940,1,0,0:0:0:0:
336,192,57408,2,0,P|336:256|376:312,1,130
432,336,58111,1,0,0:0:0:0:
496,312,58346,1,0,0:0:0:0:
504,248,58580,2,0,P|488:208|456:184,1,65
392,88,59283,6,0,P|328:56|264:64,1,130
224,112,59986,2,0,P|192:176|104:208,2,162.5
112,208,61627,5,0,0:0:0:0:
192,312,62096,2,0,P|248:336|320:312,2,130
96,224,63502,1,0,0:0:0:0:
96,224,63971,1,0,0:0:0:0:
256,192,64440,12,0,65846,0:0:0:0:
112,304,66315,5,0,0:0:0:0:
112,304,66783,1,0,0:0:0:0:
136,176,67252,1,0,0:0:0:0:
136,176,67721,1,0,0:0:0:0:
256,128,68190,1,0,0:0:0:0:
256,128,68658,1,0,0:0:0:0:
248,256,69127,6,0,P|352:232|384:152,2,195
120,232,71002,1,0,0:0:0:0:
32,144,71471,2,0,P|80:64|184:48,1,195
320,144,72643,5,0,0:0:0:0:
360,200,72877,2,0,P|360:256|304:296,1,130
176,296,73815,2,0,P|112:304|40:296,1,130
48,168,74752,2,0,P|112:160|184:168,1,130
304,296,75690,2,0,P|240:304|168:296,1,130
176,168,76627,6,0,P|240:144|304:184,1,130
336,224,77330,2,0,P|384:272|464:264,2,130
256,192,78736,12,0,80846,0:0:0:0:
80,96,81315,5,0,0:0:0:0:
304,136,81783,1,0,0:0:0:0:
184,168,82252,2,0,B|200:240|128:248|152:304,2,130
120,56,83658,2,0,P|184:40|256:64,2,130
104,184,85065,6,0,L|176:184,1,65
168,184,85533,2,0,L|200:248,1,65
232,296,86002,2,0,P|288:336|360:320,2,130
272,168,87408,2,0,P|336:168|392:216,2,130
144,208,88815,5,0,0:0:0:0:
56,304,89283,1,0,0:0:0:0:
184,336,89752,1,0,0:0:0:0:
56,304,90221,1,0,0:0:0:0:
144,208,90690,1,0,0:0:0:0:
40,128,91158,6,0,P|144:64|264:136,1,260
280,184,92330,1,0,0:0:0:0:
312,240,92565,2,0,P|376:248|440:200,2,130
256,192,93971,12,0,96315,0:0:0:0:
432,288,110846,5,0,0:0:0:0:
304,320,111315,2,0,P|240:336|176:312,1,130
72,248,112252,1,0,0:0:0:0:
72,120,112721,1,0,0:0:0:0:
72,248,113190,1,0,0:0:0:0:
72,120,113658,2,0,P|136:96|192:128,1,130
248,240,114596,5,0,0:0:0:0:
328,336,115065,2,0,P|400:312|416:248,1,130
416,136,116002,1,0,0:0:0:0:
320,48,116471,1,0,0:0:0:0:
416,136,116940,1,0,0:0:0:0:
320,48,117408,2,0,P|272:96|192:96,1,130
80,88,118346,5,0,0:0:0:0:
80,152,118580,2,0,L|80:288,1,130
80,344,119283,1,0,0:0:0:0:
208,312,119752,2,0,P|256:272|328:280,1,130
368,312,120455,1,0,0:0:0:0:
416,352,120690,2,0,P|472:336|488:272,2,130
304,288,122096,5,0,0:0:0:0:
304,288,122330,2,0,P|288:200|184:192,1,195
96,264,123502,1,0,0:0:0:0:
40,144,123971,2,0,P|48:96|112:48,1,130
232,88,124908,1,0,0:0:0:0:
232,88,125377,1,0,0:0:0:0:
312,192,125846,2,0,P|368:216|448:200,1,130
432,80,126783,6,0,P|368:72|304:112,2,130
408,208,128190,1,0,0:0:0:0:
328,304,128658,2,0,P|271:334|208:326,1,130
144,312,129361,1,0,0:0:0:0:
88,280,129596,1,0,0:0:0:0:
40,232,129830,2,0,B|32:200|40:160,1,65
128,80,130533,6,0,P|192:96|264:80,3,130
384,72,132408,1,0,0:0:0:0:
384,72,132877,1,0,0:0:0:0:
408,200,133346,2,0,L|472:216,2,65
280,168,134283,5,0,0:0:0:0:
160,216,134752,1,0,0:0:0:0:
160,216,135221,2,0,P|160:280|208:328,2,130
288,232,136627,5,0,0:0:0:0:
384,312,137096,2,0,L|432:264,1,65
464,208,137565,2,0,P|464:144|424:96,1,130
296,56,138502,1,0,0:0:0:0:
296,56,138971,1,0,0:0:0:0:
256,192,139440,12,0,140846,0:0:0:0:
192,72,141315,6,0,P|128:56|80:104,1,130
176,192,142252,2,0,P|240:208|288:160,1,130
296,40,143190,2,0,P|360:24|408:72,1,130
400,192,144127,5,0,0:0:0:0:
400,192,144596,1,0,0:0:0:0:
312,288,145065,1,0,0:0:0:0:
432,344,145533,1,0,0:0:0:0:
312,288,146002,1,0,0:0:0:0:
184,256,146471,2,0,P|80:272|32:352,1,195
160,344,147643,5,0,0:0:0:0:
160,344,147877,2,0,P|240:336|272:296,1,130
312,176,148815,1,0,0:0:0:0:
312,176,149283,1,0,0:0:0:0:
392,72,149752,5,0,0:0:0:0:
392,72,150221,1,0,0:0:0:0:
264,56,150690,1,0,0:0:0:0:
264,56,151158,1,0,0:0:0:0:
312,176,151627,2,0,B|320:232|248:240|256:304,3,130
256,192,153502,12,0,155846,0:0:0:0:
160,168,156315,6,0,B|224:168,1,65
280,168,156783,2,0,B|320:160|320:160|352:136,1,65
384,112,157252,2,0,L|488:8,2,130
263,136,158658,1,0,0:0:0:0:
263,136,158893,2,0,P|256:224|343:240,1,195
472,216,160065,5,0,0:0:0:0:
344,240,160533,1,0,0:0:0:0:
256,144,161002,2,0,P|200:176|192:240,2,130
344,240,162408,1,0,0:0:0:0:
344,240,162643,2,0,P|328:327|240:320,1,195
136,240,163815,5,0,0:0:0:0:
136,240,164283,2,0,L|56:136,1,130
152,48,165221,1,0,0:0:0:0:
152,48,165690,2,0,L|240:160,1,130
320,248,166627,1,0,0:0:0:0:
424,176,167096,1,0,0:0:0:0:
448,48,167565,2,0,P|368:56|336:96,1,130
256,192,168502,12,0,170846,0:0:0:0:
416,200,171315,5,0,0:0:0:0:
344,312,171783,1,0,0:0:0:0:
344,312,172252,1,0,0:0:0:0:
248,224,172721,1,0,0:0:0:0:
120,240,173190,1,0,0:0:0:0:
120,240,173658,1,0,0:0:0:0:
144,112,174127,2,0,P|72:128|32:176,1,130
72,296,175065,6,0,P|128:320|200:280,1,130
232,168,176002,2,0,P|288:144|360:184,1,130
352,296,176940,2,0,P|424:280|464:232,1,130
456,112,177877,2,0,P|384:128|344:176,1,130
264,264,178815,5,0,0:0:0:0:
264,264,179283,2,0,B|120:264,2,130
392,304,180690,1,0,0:0:0:0:
472,200,181158,1,0,0:0:0:0:
448,72,181627,1,0,0:0:0:0:
320,72,182096,5,0,0:0:0:0:
320,72,182330,2,0,P|256:96|224:160,1,130
216,208,183033,1,0,0:0:0:0:
200,272,183268,2,0,P|152:312|80:328,1,130
87,328,183971,1,0,0:0:0:0:
256,192,184440,12,0,186315,0:0:0:0:
256,192,198502,12,0,200846,0:0:0:0:
216,320,201315,5,0,0:0:0:0:
96,192,201783,1,0,0:0:0:0:
216,192,202252,2,0,B|264:176|280:136|328:120,2,130
216,320,203658,2,0,P|104:320|112:184,1,260
136,64,205065,6,0,L|176:120,1,65
216,168,205533,2,0,L|280:120,1,65
320,88,206002,1,0,0:0:0:0:
376,56,206236,2,0,P|408:112|384:168,2,130
312,56,207408,2,0,P|216:88|128:48,1,195
112,248,208815,5,0,0:0:0:0:
216,320,209283,1,0,0:0:0:0:
216,320,209752,1,0,0:0:0:0:
328,248,210221,1,0,0:0:0:0:
368,128,210690,2,0,P|440:168|456:224,2,130
304,120,211861,1,0,0:0:0:0:
240,120,212096,2,0,P|144:104|88:24,1,195
89,29,213033,1,0,0:0:0:0:
256,192,213502,12,0,216315,0:0:0:0:
448,192,216783,5,0,0:0:0:0:
352,104,217251,1,0,0:0:0:0:
256,192,217720,1,0,0:0:0:0:
160,104,218189,2,0,P|96:88|32:104,2,130
256,192,219595,1,0,0:0:0:0:
256,192,220064,1,0,0:0:0:0:
352,280,220533,6,0,P|416:296|480:280,2,130
256,192,221939,1,0,0:0:0:0:
168,96,222408,1,0,0:0:0:0:
80,192,222876,1,0,0:0:0:0:
168,96,223345,1,0,0:0:0:0:
296,64,223814,1,0,0:0:0:0:
416,112,224283,6,0,P|472:72|488:8,2,130
352,128,225454,1,0,0:0:0:0:
288,144,225689,2,0,P|232:176|216:240,2,130
248,24,227095,1,0,0:0:0:0:
152,112,227564,1,0,0:0:0:0:
152,112,228033,2,0,L|32:40,2,130
256,192,229440,12,0,231315,0:0:0:0:
