osu file format v12

[General]
AudioFilename: T-ara - NUMBER NINE ( No.9).mp3
AudioLeadIn: 0
PreviewTime: 66327
Countdown: 1
SampleSet: Normal
StackLeniency: 0.7
Mode: 0
LetterboxInBreaks: 1
EpilepsyWarning: 1
WidescreenStoryboard: 1

[Editor]
DistanceSpacing: 1
BeatDivisor: 4
GridSize: 8

[Metadata]
Title:Number 9
TitleUnicode:넘버나인
Artist:T-ara
ArtistUnicode:티아라
Creator:K1dPoker
Version:Hard
Source:Again
Tags:kpop k-pop t-ara Nine
BeatmapID:319630
BeatmapSetID:123126

[Difficulty]
HPDrainRate:6
CircleSize:4
OverallDifficulty:6
ApproachRate:8
SliderMultiplier:1.6
SliderTickRate:2

[Events]
//Background and Video events
0,0,"T-ara no.9.jpg",0,0
Video,0,"T-ara no.9.avi"
//Break Periods
2,96515,110096
2,186515,197752
//Storyboard Layer 0 (Background)
//Storyboard Layer 1 (Fail)
//Storyboard Layer 2 (Pass)
//Storyboard Layer 3 (Foreground)
//Storyboard Sound Samples
//Background Colour Transformations
3,100,163,162,255

[TimingPoints]
21315,468.75,4,1,0,40,1,0
66315,-100,4,1,0,60,0,1
80846,-100,4,1,0,50,0,0
110846,-100,4,1,0,40,0,0
141315,-100,4,1,0,60,0,1
155846,-100,4,1,0,50,0,0
170846,-100,4,1,0,40,0,0
201315,-100,4,1,0,60,0,1
216315,-100,4,1,0,40,0,0

[Colours]
Combo1 : 128,128,192
Combo2 : 255,0,128
Combo3 : 255,255,0
Combo4 : 0,0,255
Combo5 : 0,255,0

[HitObjects]
392,32,21315,1,0,0:0:0:0:
336,88,21549,1,0,0:0:0:0:
256,88,21783,1,0,0:0:0:0:
200,32,22018,1,0,0:0:0:0:
136,80,22252,2,0,L|200:144,1,80
256,192,22721,5,0,0:0:0:0:
336,192,22955,1,0,0:0:0:0:
400,136,23190,2,0,L|464:72,2,80
336,192,23893,1,0,0:0:0:0:
400,240,24127,2,0,L|472:312,2,80
336,192,24830,5,0,0:0:0:0:
256,192,25065,2,0,L|168:192,1,80
96,192,25533,1,0,0:0:0:0:
96,192,25768,1,0,0:0:0:0:
96,272,26002,6,0,B|88:304|104:320|96:352,2,80
96,192,26705,1,0,0:0:0:0:
96,112,26940,2,0,B|120:56|200:56|224:112,1,160
224,192,27643,1,0,0:0:0:0:
232,272,27877,2,0,B|256:328|336:328|359:275,1,160
432,136,28815,5,0,0:0:0:0:
360,96,29049,1,0,0:0:0:0:
296,40,29283,2,0,L|216:40,1,80
152,96,29752,1,0,0:0:0:0:
80,136,29986,1,0,0:0:0:0:
56,216,30221,2,0,L|136:216,1,80
216,208,30690,1,0,0:0:0:0:
296,208,30924,1,0,0:0:0:0:
376,208,31158,2,0,L|456:208,2,80
256,104,32096,1,0,0:0:0:0:
120,192,32565,6,0,P|160:216|176:248,1,80
216,312,33033,2,0,P|256:320|296:312,1,80
344,248,33502,2,0,P|364:214|399:195,1,80
256,160,33971,2,0,L|256:240,1,80
256,320,34440,1,0,0:0:0:0:
224,344,34557,1,0,0:0:0:0:
184,360,34674,1,0,0:0:0:0:
144,360,34791,1,0,0:0:0:0:
104,352,34908,1,0,0:0:0:0:
80,320,35025,1,0,0:0:0:0:
64,280,35143,2,0,P|72:200|152:184,1,160
256,96,35846,5,0,0:0:0:0:
256,176,36080,2,0,L|256:256,1,80
320,304,36549,2,0,B|296:360|216:360|193:302,2,160
360,232,37721,2,0,L|360:152,1,80
360,72,38190,1,0,0:0:0:0:
464,192,38658,1,0,0:0:0:0:
360,312,39127,1,0,0:0:0:0:
200,312,39596,5,0,0:0:0:0:
200,312,39830,1,0,0:0:0:0:
200,312,40065,2,0,L|120:312,1,80
80,240,40533,2,0,L|160:240,1,80
240,240,41002,1,0,0:0:0:0:
304,192,41236,1,0,0:0:0:0:
304,112,41471,2,0,L|224:112,1,80
144,112,41940,1,0,0:0:0:0:
72,72,42174,1,0,0:0:0:0:
136,24,42408,2,0,L|216:24,2,80
296,32,43346,5,0,0:0:0:0:
368,72,43580,1,0,0:0:0:0:
448,72,43815,2,0,B|464:128|440:144|448:192,2,120
368,72,44752,1,0,0:0:0:0:
296,112,44986,1,0,0:0:0:0:
216,112,45221,1,0,0:0:0:0:
144,72,45455,1,0,0:0:0:0:
216,112,45690,5,0,0:0:0:0:
216,192,45924,1,0,0:0:0:0:
216,272,46158,2,0,P|152:312|88:264,1,160
80,192,46861,1,0,0:0:0:0:
88,112,47096,2,0,P|152:72|214:115,2,160
152,160,48268,1,0,0:0:0:0:
152,160,48502,2,0,L|152:240,1,80
160,320,48971,2,0,P|232:320|288:240,1,160
256,192,49674,12,0,51315,0:0:0:0:
304,192,51783,6,0,L|464:192,2,160
224,192,52955,1,0,0:0:0:0:
176,128,53190,1,0,0:0:0:0:
176,48,53424,1,0,0:0:0:0:
176,48,53658,2,0,P|256:64|336:48,1,160
408,32,54361,1,0,0:0:0:0:
408,32,54596,2,0,L|488:32,2,80
408,192,55533,6,0,L|248:192,1,160
168,192,56236,1,0,0:0:0:0:
88,192,56471,2,0,L|88:280,1,80
88,352,56940,1,0,0:0:0:0:
160,312,57174,1,0,0:0:0:0:
232,352,57408,2,0,P|320:336|352:272,1,160
272,272,58111,1,0,0:0:0:0:
272,272,58346,2,0,L|272:192,2,80
208,128,59283,6,0,P|272:88|344:136,1,160
352,208,59986,1,0,0:0:0:0:
344,288,60221,2,0,P|279:328|212:290,1,160
208,208,60924,1,0,0:0:0:0:
232,128,61158,1,0,0:0:0:0:
208,48,61393,1,0,0:0:0:0:
232,128,61627,1,0,0:0:0:0:
312,128,61861,1,0,0:0:0:0:
232,128,62096,2,0,L|72:128,2,160
256,192,63268,12,0,65846,0:0:0:0:
184,120,66315,6,0,P|256:152|328:112,1,160
352,24,67018,1,0,0:0:0:0:
256,48,67252,2,0,L|256:208,1,160
256,304,67955,1,0,0:0:0:0:
336,352,68190,2,0,B|416:352|416:288|416:288|416:232,1,160
416,152,68893,1,0,0:0:0:0:
320,152,69127,2,0,L|320:232,2,80
320,56,69830,5,0,0:0:0:0:
320,56,70065,1,0,0:0:0:0:
128,56,70533,2,0,P|104:112|128:168,2,120
224,56,71471,2,0,L|304:56,2,80
80,192,72877,5,0,0:0:0:0:
256,272,73346,1,0,0:0:0:0:
432,192,73815,2,0,L|512:192,2,80
336,192,74518,1,0,0:0:0:0:
240,192,74752,2,0,B|197:192|197:192|133:192|133:112,1,160
128,16,75455,1,0,0:0:0:0:
216,56,75690,2,0,P|294:70|372:54,1,160
464,24,76393,5,0,0:0:0:0:
464,120,76627,2,0,P|432:200|360:216,1,160
272,208,77330,1,0,0:0:0:0:
176,192,77565,2,0,P|96:224|72:288,2,160
256,192,78736,12,0,80846,0:0:0:0:
256,136,81315,6,0,L|256:256,2,120
208,56,82252,2,0,P|176:80|168:128,2,80
304,56,82955,2,0,P|336:80|344:128,2,80
256,136,83658,1,0,0:0:0:0:
256,136,83893,2,0,L|256:296,1,160
256,296,84596,1,0,0:0:0:0:
96,296,85065,6,0,L|96:216,1,80
184,176,85533,2,0,L|184:256,2,80
184,80,86236,1,0,0:0:0:0:
256,16,86471,1,0,0:0:0:0:
328,80,86705,1,0,0:0:0:0:
328,176,86940,2,0,L|328:256,1,80
264,328,87408,2,0,B|288:384|368:384|391:330,2,160
216,144,88815,6,0,L|296:144,1,80
392,144,89283,1,0,0:0:0:0:
448,224,89518,1,0,0:0:0:0:
448,320,89752,2,0,L|368:320,1,80
304,248,90221,1,0,0:0:0:0:
232,312,90455,1,0,0:0:0:0:
136,304,90690,2,0,L|136:224,1,80
136,128,91158,5,0,0:0:0:0:
40,128,91393,1,0,0:0:0:0:
40,32,91627,2,0,L|208:32,1,160
296,32,92330,1,0,0:0:0:0:
392,32,92565,2,0,P|424:104|392:184,1,160
400,176,93268,1,0,0:0:0:0:
256,192,93502,12,0,96315,0:0:0:0:
344,192,110846,6,0,L|400:136,2,80
288,248,111549,1,0,0:0:0:0:
312,328,111783,1,0,0:0:0:0:
392,328,112018,1,0,0:0:0:0:
408,248,112252,2,0,L|408:168,1,80
336,128,112721,2,0,L|336:208,1,80
264,248,113190,2,0,L|264:168,2,80
232,320,113893,1,0,0:0:0:0:
152,344,114127,2,0,P|112:352|72:336,1,80
56,264,114596,5,0,0:0:0:0:
56,184,114830,1,0,0:0:0:0:
96,112,115065,2,0,L|160:64,1,80
240,48,115533,1,0,0:0:0:0:
320,48,115768,1,0,0:0:0:0:
280,120,116002,2,0,L|280:200,1,80
208,240,116471,2,0,L|208:160,1,80
208,80,116940,5,0,0:0:0:0:
152,24,117174,1,0,0:0:0:0:
16,88,117408,1,0,0:0:0:0:
72,24,117643,1,0,0:0:0:0:
112,96,117877,2,0,L|112:176,1,80
128,296,118346,5,0,0:0:0:0:
208,320,118580,1,0,0:0:0:0:
280,288,118815,2,0,L|280:208,1,80
280,128,119283,2,0,P|296:88|328:64,1,80
408,64,119752,1,0,0:0:0:0:
464,8,119986,1,0,0:0:0:0:
408,64,120221,5,0,0:0:0:0:
384,144,120455,1,0,0:0:0:0:
384,224,120690,1,0,0:0:0:0:
336,288,120924,1,0,0:0:0:0:
256,288,121158,2,0,P|184:264|152:192,1,160
152,112,121861,5,0,0:0:0:0:
216,56,122096,2,0,B|192:2|112:2|88:56,2,160
256,128,123268,1,0,0:0:0:0:
288,200,123502,1,0,0:0:0:0:
360,240,123736,1,0,0:0:0:0:
432,200,123971,2,0,B|485:224|485:304|432:328,1,160
256,192,124674,12,0,126315,0:0:0:0:
48,224,126783,6,0,P|120:256|200:208,1,160
256,176,127486,1,0,0:0:0:0:
320,232,127721,2,0,P|391:265|462:233,1,160
496,160,128424,1,0,0:0:0:0:
456,88,128658,2,0,P|385:55|315:87,1,160
256,144,129361,1,0,0:0:0:0:
256,144,129596,2,0,L|256:224,2,80
96,152,130533,6,0,P|72:104|104:40,2,120
176,160,131471,2,0,L|256:160,2,80
96,160,132174,1,0,0:0:0:0:
40,216,132408,2,0,P|56:304|128:328,1,160
112,248,133111,1,0,0:0:0:0:
112,248,133346,2,0,L|176:200,1,80
392,96,134283,6,0,P|328:56|264:104,1,160
256,176,134986,1,0,0:0:0:0:
240,256,135221,2,0,P|175:295|113:252,1,160
96,176,135924,1,0,0:0:0:0:
104,96,136158,1,0,0:0:0:0:
168,48,136393,1,0,0:0:0:0:
248,72,136627,1,0,0:0:0:0:
328,48,136861,1,0,0:0:0:0:
248,72,137096,2,0,B|232:136|264:168|248:232,2,160
256,192,138268,12,0,140846,0:0:0:0:
48,64,141315,6,0,P|123:41|198:65,1,160
272,128,142018,1,0,0:0:0:0:
200,192,142252,2,0,P|175:267|198:342,1,160
296,352,142955,1,0,0:0:0:0:
392,344,143190,2,0,P|416:268|393:193,1,160
296,200,143893,1,0,0:0:0:0:
296,200,144127,2,0,L|296:280,2,80
296,104,144830,5,0,0:0:0:0:
296,104,145065,1,0,0:0:0:0:
104,104,145533,2,0,P|80:160|104:216,2,120
200,104,146471,2,0,B|232:96|248:112|288:104,2,80
112,312,147877,5,0,0:0:0:0:
256,192,148346,1,0,0:0:0:0:
408,72,148815,2,0,L|472:16,2,80
328,128,149518,1,0,0:0:0:0:
240,160,149752,2,0,P|256:200|296:216,2,80
224,64,150455,1,0,0:0:0:0:
136,32,150690,2,0,L|48:32,2,80
224,64,151393,5,0,0:0:0:0:
320,80,151627,1,0,0:0:0:0:
360,168,151861,1,0,0:0:0:0:
312,256,152096,2,0,P|248:296|184:248,2,160
256,192,153268,12,0,155846,0:0:0:0:
256,248,156315,6,0,L|256:128,2,120
256,344,157252,1,0,0:0:0:0:
344,304,157486,1,0,0:0:0:0:
432,344,157721,2,0,P|448:288|432:224,2,120
344,304,158658,1,0,0:0:0:0:
256,344,158893,1,0,0:0:0:0:
256,248,159127,2,0,L|256:168,2,80
64,248,160065,6,0,B|56:200|72:176|64:128,2,120
120,328,161002,1,0,0:0:0:0:
208,360,161236,1,0,0:0:0:0:
296,328,161471,2,0,L|296:248,1,80
344,168,161940,2,0,L|288:104,1,80
192,112,162408,2,0,P|120:144|40:104,2,160
384,80,163815,6,0,P|440:136|424:216,1,160
368,288,164518,1,0,0:0:0:0:
288,336,164752,2,0,P|208:344|144:280,1,160
120,200,165455,1,0,0:0:0:0:
96,104,165690,2,0,P|112:32|192:0,1,160
272,48,166393,1,0,0:0:0:0:
272,48,166627,2,0,L|272:128,1,80
208,200,167096,2,0,B|232:256|312:256|335:203,2,160
256,192,168268,12,0,170846,0:0:0:0:
440,32,171315,6,0,L|440:112,1,80
440,192,171783,1,0,0:0:0:0:
360,192,172018,1,0,0:0:0:0:
360,192,172252,2,0,L|360:272,1,80
360,352,172721,1,0,0:0:0:0:
280,352,172955,1,0,0:0:0:0:
280,352,173190,2,0,L|280:272,1,80
280,192,173658,5,0,0:0:0:0:
200,192,173893,1,0,0:0:0:0:
200,192,174127,2,0,L|200:112,1,80
200,32,174596,1,0,0:0:0:0:
120,32,174830,1,0,0:0:0:0:
120,32,175065,2,0,L|120:112,1,80
120,192,175533,5,0,0:0:0:0:
120,272,175768,1,0,0:0:0:0:
120,272,176002,2,0,L|200:272,1,80
280,272,176471,1,0,0:0:0:0:
280,192,176705,1,0,0:0:0:0:
280,192,176940,2,0,L|360:192,1,80
440,192,177408,5,0,0:0:0:0:
440,112,177643,1,0,0:0:0:0:
440,112,177877,2,0,L|360:112,1,80
280,112,178346,1,0,0:0:0:0:
136,48,178815,5,0,0:0:0:0:
104,72,178932,1,0,0:0:0:0:
104,112,179049,1,0,0:0:0:0:
184,112,179283,1,0,0:0:0:0:
184,160,179400,1,0,0:0:0:0:
160,192,179518,1,0,0:0:0:0:
80,200,179752,1,0,0:0:0:0:
80,240,179869,1,0,0:0:0:0:
104,272,179987,1,0,0:0:0:0:
184,280,180221,6,0,L|264:280,1,80
344,280,180690,1,0,0:0:0:0:
344,280,180924,1,0,0:0:0:0:
424,280,181158,2,0,L|424:120,1,160
376,56,181861,1,0,0:0:0:0:
320,120,182096,1,0,0:0:0:0:
320,200,182330,1,0,0:0:0:0:
240,200,182565,2,0,L|240:120,1,80
192,56,183033,1,0,0:0:0:0:
112,56,183268,1,0,0:0:0:0:
112,136,183502,2,0,L|112:224,1,80
112,296,183971,1,0,0:0:0:0:
256,192,184205,12,0,186315,0:0:0:0:
256,192,198502,12,0,200846,0:0:0:0:
144,80,201315,6,0,L|224:120,1,80
312,128,201783,2,0,L|312:216,1,80,0|0,0:0|0:0,0:0:0:0:
312,304,202252,1,0,0:0:0:0:
392,352,202486,1,0,0:0:0:0:
472,304,202721,2,0,L|472:144,1,160
472,48,203424,1,0,0:0:0:0:
376,48,203658,2,0,P|328:56|296:80,1,80
296,168,204127,2,0,P|232:200|148:168,1,160
64,344,205065,5,0,0:0:0:0:
64,152,205533,1,0,0:0:0:0:
64,344,206002,2,0,L|64:264,1,80
64,152,206471,2,0,B|88:96|168:96|190:152,1,160
200,248,207174,1,0,0:0:0:0:
256,328,207408,2,0,L|336:360,1,80
424,352,207877,2,0,B|480:330|480:250|424:226,1,160
272,112,208815,5,0,0:0:0:0:
272,208,209049,2,0,L|208:260,1,80
128,312,209518,1,0,0:0:0:0:
72,240,209752,1,0,0:0:0:0:
24,160,209986,2,0,L|96:104,1,80
160,48,210455,1,0,0:0:0:0:
256,32,210690,2,0,L|256:112,1,80
256,208,211158,5,0,0:0:0:0:
328,264,211393,1,0,0:0:0:0:
408,320,211627,2,0,P|432:264|400:200,2,120
328,264,212565,1,0,0:0:0:0:
232,264,212799,2,0,L|144:264,1,80
256,192,213268,12,0,215846,0:0:0:0:
120,32,216315,1,0,0:0:0:0:
176,88,216549,1,0,0:0:0:0:
256,88,216783,1,0,0:0:0:0:
312,32,217018,1,0,0:0:0:0:
376,80,217252,2,0,L|312:144,1,80
256,192,217721,5,0,0:0:0:0:
176,192,217955,1,0,0:0:0:0:
112,136,218190,2,0,L|48:72,2,80
176,192,218893,1,0,0:0:0:0:
112,240,219127,2,0,L|40:312,2,80
176,192,219830,5,0,0:0:0:0:
256,192,220065,2,0,L|344:192,1,80
416,192,220533,1,0,0:0:0:0:
416,192,220768,1,0,0:0:0:0:
416,272,221002,6,0,B|424:304|408:320|416:352,2,80
416,192,221705,1,0,0:0:0:0:
416,112,221940,2,0,B|392:56|312:56|288:112,1,160
288,192,222643,1,0,0:0:0:0:
280,272,222877,2,0,B|256:328|176:328|153:275,1,160
80,136,223815,5,0,0:0:0:0:
152,96,224049,1,0,0:0:0:0:
216,40,224283,2,0,L|296:40,1,80
360,96,224752,1,0,0:0:0:0:
432,136,224986,1,0,0:0:0:0:
456,216,225221,2,0,L|376:216,1,80
296,208,225690,1,0,0:0:0:0:
216,208,225924,1,0,0:0:0:0:
136,208,226158,2,0,L|56:208,2,80
256,104,227096,1,0,0:0:0:0:
392,192,227565,6,0,P|352:216|336:248,1,80
296,312,228033,2,0,P|256:320|216:312,1,80
168,248,228502,2,0,P|148:214|113:195,1,80
256,160,228971,2,0,L|256:240,1,80
256,192,229440,12,0,231315,0:0:0:0:
