osu file format v12

[General]
AudioFilename: T-ara - NUMBER NINE ( No.9).mp3
AudioLeadIn: 0
PreviewTime: 66327
Countdown: 1
SampleSet: Normal
StackLeniency: 0.7
Mode: 0
LetterboxInBreaks: 1
EpilepsyWarning: 1
WidescreenStoryboard: 1

[Editor]
DistanceSpacing: 1
BeatDivisor: 4
GridSize: 8

[Metadata]
Title:Number 9
TitleUnicode:넘버나인
Artist:T-ara
ArtistUnicode:티아라
Creator:K1dPoker
Version:Easy
Source:Again
Tags:kpop k-pop t-ara Nine
BeatmapID:315561
BeatmapSetID:123126

[Difficulty]
HPDrainRate:2
CircleSize:3
OverallDifficulty:2
ApproachRate:3
SliderMultiplier:0.999999999999999
SliderTickRate:1

[Events]
//Background and Video events
Video,0,"T-ara no.9.avi"
0,0,"T-ara no.9.jpg",0,0
//Break Periods
2,96515,109406
2,186515,195187
//Storyboard Layer 0 (Background)
//Storyboard Layer 1 (Fail)
//Storyboard Layer 2 (Pass)
//Storyboard Layer 3 (Foreground)
//Storyboard Sound Samples
//Background Colour Transformations
3,100,163,162,255

[TimingPoints]
21315,468.75,4,1,0,40,1,0
66315,-100,4,1,0,60,0,1
80846,-100,4,1,0,50,0,0
110846,-100,4,1,0,40,0,0
141315,-100,4,1,0,60,0,1
155846,-100,4,1,0,50,0,0
170846,-100,4,1,0,40,0,0
201315,-100,4,1,0,60,0,1
216315,-100,4,1,0,40,0,0

[Colours]
Combo1 : 128,128,192
Combo2 : 255,0,128
Combo3 : 255,255,0
Combo4 : 0,0,255
Combo5 : 0,255,0

[HitObjects]
48,64,21315,2,0,P|104:144|208:152,1,200
296,120,22721,1,0,0:0:0:0:
384,64,23190,2,0,P|424:152|384:248,1,200
208,336,25065,6,0,P|120:312|72:216,1,200
64,120,26471,1,0,0:0:0:0:
136,48,26940,2,0,P|232:80|328:40,1,200
456,192,28815,6,0,L|456:296,2,99.9999999999999
376,128,30221,1,0,0:0:0:0:
296,64,30690,2,0,P|203:30|111:62,1,200
48,248,32565,6,0,P|56:297|50:346,2,99.9999999999999,0|0|0,0:0|0:0|0:0,0:0:0:0:
112,168,33971,1,0,0:0:0:0:
200,120,34440,2,0,P|296:136|344:232,1,200
352,320,35846,5,0,0:0:0:0:
456,320,36315,2,4,L|456:216,1,99.9999999999999
448,120,37252,2,0,P|416:72|368:56,1,99.9999999999999
280,48,38190,5,0,0:0:0:0:
200,104,38658,1,0,0:0:0:0:
104,112,39127,1,0,0:0:0:0:
104,216,39596,6,0,B|136:256|136:256|144:304,1,99.9999999999999,0|0,0:0|0:0,0:0:0:0:
232,352,40533,1,0,0:0:0:0:
328,312,41002,2,0,B|336:264|336:264|368:224,1,99.9999999999999
440,152,41940,5,0,0:0:0:0:
416,56,42408,1,0,0:0:0:0:
320,32,42877,1,0,0:0:0:0:
344,128,43346,6,0,P|248:112|216:16,2,200
368,32,45690,1,0,0:0:0:0:
440,96,46158,2,0,P|456:152|440:208,1,99.9999999999999
392,272,47096,2,0,P|296:304|200:264,1,200
256,192,48502,12,0,50846,0:0:0:0:
152,192,51783,6,0,L|48:192,2,99.9999999999999
256,192,53190,1,0,0:0:0:0:
344,144,53658,2,0,P|360:200|344:240,1,99.9999999999999
280,312,54596,2,0,L|168:312,1,99.9999999999999
80,296,55533,6,0,P|32:216|88:136,1,200
184,104,56940,1,0,0:0:0:0:
280,88,57408,2,0,P|328:64|352:24,1,99.9999999999999
448,32,58346,2,0,L|440:136,1,99.9999999999999
432,232,59283,5,0,0:0:0:0:
464,328,59752,2,0,P|368:312|328:224,1,200
320,128,61158,5,0,0:0:0:0:
320,24,61627,1,0,0:0:0:0:
216,24,62096,2,0,P|128:48|72:136,1,200
256,192,63502,12,0,65377,0:0:0:0:
40,80,66315,6,4,L|144:96,1,99.9999999999999
240,112,67252,2,0,L|240:216,1,99.9999999999999
264,312,68190,2,0,B|312:288|312:288|336:240,1,99.9999999999999
336,144,69127,6,0,L|336:40,2,99.9999999999999
432,176,70533,1,0,0:0:0:0:
392,264,71002,2,0,P|416:312|464:328,2,99.9999999999999
328,184,72408,6,0,P|252:128|178:184,1,200
112,248,73815,2,0,P|67:227|47:182,1,99.9999999999999
40,80,74752,1,0,0:0:0:0:
144,80,75221,1,0,0:0:0:0:
232,32,75690,6,0,P|272:64|280:136,1,99.9999999999999
288,208,76627,1,0,0:0:0:0:
288,312,77096,2,0,P|392:288|464:224,1,200
256,192,78502,12,0,80846,0:0:0:0:
160,168,81315,5,0,0:0:0:0:
256,168,81783,1,0,0:0:0:0:
360,168,82252,2,0,P|368:120|352:56,2,99.9999999999999
344,264,83658,2,0,B|320:264|320:264|280:272|248:336|216:272|176:264|176:264|158:264,1,200
56,264,85065,5,0,0:0:0:0:
56,168,85533,1,0,0:0:0:0:
160,168,86002,2,0,L|264:168,2,99.9999999999999
160,64,87408,2,0,B|177:64|177:64|217:56|249:-8|281:56|321:64|321:64|345:64,1,200,0|0,0:0|0:0,0:0:0:0:
440,32,88815,5,0,0:0:0:0:
440,128,89283,1,0,0:0:0:0:
440,232,89752,2,0,B|336:232,1,99.9999999999999
240,232,90690,5,0,0:0:0:0:
152,280,91158,1,0,0:0:0:0:
64,232,91627,1,0,0:0:0:0:
64,128,92096,2,0,P|160:104|256:128,1,200
256,192,93502,12,0,96315,0:0:0:0:
440,208,110846,6,0,P|424:256|448:320,2,99.9999999999999
472,112,112252,2,0,P|384:72|288:104,2,200
440,208,114596,1,0,0:0:0:0:
408,304,115065,2,0,L|296:320,1,99.9999999999999
216,352,116002,5,0,0:0:0:0:
216,248,116471,1,0,0:0:0:0:
128,304,116940,2,0,B|96:272|96:272|80:200,2,99.9999999999999
216,352,118346,5,0,0:0:0:0:
312,336,118815,2,0,P|400:288|424:184,1,200
480,112,120221,1,0,0:0:0:0:
376,112,120690,1,0,0:0:0:0:
296,32,121158,2,0,L|192:32,1,99.9999999999999
96,48,122096,6,0,B|96:80|96:80|104:144|144:152|152:216|152:216|152:248,1,200
152,336,123502,1,0,0:0:0:0:
48,336,123971,2,0,L|48:232,1,99.9999999999999
56,136,124908,2,0,B|184:136|184:264|320:264,1,300
328,168,126783,6,0,B|200:168|200:296|64:296,1,300
64,200,128658,2,0,L|64:96,1,99.9999999999999
144,40,129596,2,0,B|192:56|248:40,1,99.9999999999999
328,96,130533,6,0,P|419:80|459:165,1,200
456,264,131940,1,0,0:0:0:0:
400,344,132408,2,0,P|360:320|344:272,1,99.9999999999999
288,192,133346,2,0,P|240:216|216:264,1,99.9999999999999
208,352,134283,5,0,0:0:0:0:
112,320,134752,2,0,P|72:232|128:152,1,200
224,128,136158,1,0,0:0:0:0:
296,192,136627,2,0,P|361:224|428:196,2,150
256,192,138502,12,0,140377,0:0:0:0:
416,56,141315,2,4,L|312:72,1,99.9999999999999,4|0,0:0|0:0,0:0:0:0:
216,88,142252,2,0,L|216:192,1,99.9999999999999
192,288,143190,2,0,B|144:264|144:264|120:216,1,99.9999999999999
112,120,144127,5,0,0:0:0:0:
88,24,144596,1,0,0:0:0:0:
16,96,145065,1,0,0:0:0:0:
16,192,145533,5,0,0:0:0:0:
32,288,146002,2,0,B|88:288|120:224|120:224|216:224,1,200
304,224,147408,2,0,B|387:224|387:224|408:288|475:288,1,200
488,192,148815,5,0,0:0:0:0:
416,120,149283,1,0,0:0:0:0:
360,208,149752,2,0,P|320:176|312:120,1,99.9999999999999
312,32,150690,2,0,L|208:48,1,99.9999999999999
112,64,151627,5,0,0:0:0:0:
40,136,152096,1,0,0:0:0:0:
112,208,152565,2,0,P|120:256|104:304,1,99.9999999999999
256,192,153502,12,0,155846,0:0:0:0:
40,224,156315,5,0,0:0:0:0:
88,312,156783,1,0,0:0:0:0:
160,240,157252,2,0,P|256:208|352:248,1,200
408,320,158658,2,0,P|448:360|496:360,2,99.9999999999999
360,232,160065,5,0,0:0:0:0:
424,160,160533,1,0,0:0:0:0:
360,232,161002,2,0,P|264:264|168:224,1,200
88,288,162408,1,0,0:0:0:0:
88,176,162877,2,0,L|88:72,1,99.9999999999999
192,72,163815,6,0,P|304:88|360:160,1,200
360,248,165221,1,0,0:0:0:0:
280,312,165690,2,0,P|168:296|112:224,1,200
120,136,167096,1,0,0:0:0:0:
216,176,167565,2,0,L|312:224,2,99.9999999999999
256,192,168971,12,0,170846,0:0:0:0:
184,72,171315,6,0,L|80:72,1,99.9999999999999
56,168,172252,2,0,P|64:224|40:272,1,99.9999999999999
120,344,173190,2,0,P|176:328|232:344,1,99.9999999999999
312,344,174127,2,0,L|328:232,1,99.9999999999999
344,144,175065,6,0,P|288:144|248:200,1,99.9999999999999
200,256,176002,2,0,P|152:224|136:176,1,99.9999999999999
144,88,176940,2,0,L|256:88,1,99.9999999999999
344,88,177877,2,0,L|400:192,1,99.9999999999999
424,272,178815,6,0,B|344:296|296:248|216:288,1,200,0|0,0:0|0:0,0:0:0:0:
144,336,180221,1,0,0:0:0:0:
48,336,180690,1,0,0:0:0:0:
64,240,181158,6,0,B|80:136,1,99.9999999999999
96,40,182096,1,0,0:0:0:0:
200,40,182565,1,0,0:0:0:0:
200,136,183033,5,0,0:0:0:0:
304,136,183502,1,0,0:0:0:0:
312,40,183971,2,0,B|424:40,1,99.9999999999999
432,136,184908,6,0,P|400:232|304:264,1,200
216,272,186315,1,0,0:0:0:0:
256,192,196627,12,0,200377,0:0:0:0:
352,168,201315,5,0,0:0:0:0:
256,168,201783,1,0,0:0:0:0:
152,168,202252,2,0,P|144:120|160:56,2,99.9999999999999
168,264,203658,2,0,B|192:264|192:264|232:272|264:336|296:272|336:264|336:264|353:264,1,200
456,264,205065,5,0,0:0:0:0:
456,168,205533,1,0,0:0:0:0:
352,168,206002,2,0,L|248:168,2,99.9999999999999
352,64,207408,2,0,B|334:64|334:64|294:56|262:-8|230:56|190:64|190:64|166:64,1,200,0|0,0:0|0:0,0:0:0:0:
72,32,208815,5,0,0:0:0:0:
72,128,209283,1,0,0:0:0:0:
72,232,209752,2,0,B|176:232,1,99.9999999999999
272,232,210690,5,0,0:0:0:0:
360,280,211158,1,0,0:0:0:0:
448,232,211627,1,0,0:0:0:0:
448,128,212096,2,0,P|352:104|256:128,1,200
256,192,213502,12,0,215377,0:0:0:0:
456,48,216315,6,0,P|400:128|296:136,1,200
208,104,217721,1,0,0:0:0:0:
120,48,218190,2,0,P|80:136|120:232,1,200
296,320,220065,6,0,P|384:296|432:200,1,200
440,104,221471,1,0,0:0:0:0:
368,32,221940,2,0,P|272:64|176:24,1,200
48,176,223815,6,0,L|48:280,2,99.9999999999999
128,112,225221,1,0,0:0:0:0:
208,48,225690,2,0,P|301:14|393:46,1,200
456,232,227565,6,0,P|448:281|454:330,2,99.9999999999999
392,152,228971,1,0,0:0:0:0:
256,192,229440,12,0,231315,0:0:0:0:
