osu file format v14

[General]
AudioFilename: yummy.mp3
AudioLeadIn: 0
PreviewTime: 141465
Countdown: 0
SampleSet: Soft
StackLeniency: 0.7
Mode: 0
LetterboxInBreaks: 1
WidescreenStoryboard: 0

[Editor]
Bookmarks: 4312,51455,156693,164312,209788
DistanceSpacing: 1.4
BeatDivisor: 4
GridSize: 4
TimelineZoom: 1.2

[Metadata]
Title:Little Apple with Chopsticks Brothers
TitleUnicode:Little Apple with 젓가락형제
Artist:T-ara
ArtistUnicode:티아라
Creator:Squirrel
Version:Medium
Source:
Tags:tara tiara cover kpop k-pop boram qri soyeon eunjung hyomin jiyeon
BeatmapID:584557
BeatmapSetID:251899

[Difficulty]
HPDrainRate:4
CircleSize:3.5
OverallDifficulty:4
ApproachRate:5
SliderMultiplier:1.2
SliderTickRate:1

[Events]
//Background and Video events
0,0,"omnomnom.jpg",0,0
//Break Periods
2,156903,163122
//Storyboard Layer 0 (Background)
//Storyboard Layer 1 (Fail)
//Storyboard Layer 2 (Pass)
//Storyboard Layer 3 (Foreground)
//Storyboard Sound Samples

[TimingPoints]
513,476.190476190476,4,2,1,30,1,0
4322,-100,4,2,1,65,0,0
19560,-100,4,2,1,75,0,0
48132,-100,4,2,1,80,0,0
50036,-100,4,2,2,90,0,1
65036,-100,4,2,2,90,0,0
65274,-100,4,2,2,90,0,1
80512,-100,4,2,1,65,0,0
124322,-100,4,2,1,80,0,0
126227,-100,4,2,2,90,0,1
141227,-100,4,2,2,90,0,0
141465,-100,4,2,2,90,0,1
156703,-100,4,2,1,65,0,0
171941,-100,4,2,2,90,0,1
186941,-100,4,2,2,90,0,0
187179,-100,4,2,2,90,0,1
201941,-100,4,2,2,50,0,0
202417,-100,4,2,4,30,0,0
202655,-100,4,2,4,50,0,0

[Colours]
Combo1 : 141,182,0
Combo2 : 188,10,10
Combo3 : 190,236,128
Combo4 : 253,224,123

[HitObjects]
223,71,4322,6,0,P|247:53|276:47,1,60,6|0,0:0|0:0,0:0:0:0:
360,56,4798,1,8,0:0:0:0:
386,135,5036,1,0,0:0:0:0:
459,175,5274,2,0,L|475:250,1,60,2|0,0:0|0:0,0:0:0:0:
400,278,5751,2,0,L|387:219,1,60,8|0,0:0|0:0,0:0:0:0:
386,135,6227,6,0,P|359:139|320:164,1,60,2|0,0:0|0:0,0:0:0:0:
305,235,6703,2,0,L|318:294,1,60,8|0,0:0|0:0,0:0:0:0:
166,367,7417,1,2,0:0:0:0:
99,315,7655,1,8,0:0:0:0:
102,147,8132,6,0,L|42:143,1,60,2|0,0:0|0:0,0:0:0:0:
20,224,8608,2,0,L|79:227,1,60,8|0,0:0|0:0,0:0:0:0:
156,261,9084,2,0,P|172:291|176:320,2,60,2|0|8,0:0|0:0|0:0,0:0:0:0:
148,177,9798,1,0,0:0:0:0:
209,119,10036,6,0,P|238:123|262:140,1,60,2|0,0:0|0:0,0:0:0:0:
322,201,10512,2,0,P|346:218|375:222,1,60,8|0,0:0|0:0,0:0:0:0:
449,180,10989,2,0,L|468:116,2,60,2|4|8,0:0|0:0|0:0,0:0:0:0:
332,300,11941,6,0,L|348:361,2,60,6|0|8,0:0|0:0|0:0,0:0:0:0:
311,218,12655,1,0,0:0:0:0:
235,181,12893,2,0,P|205:179|177:189,1,60,2|0,0:0|0:0,0:0:0:0:
183,273,13370,2,0,P|212:274|240:264,1,60,8|0,0:0|0:0,0:0:0:0:
311,218,13846,6,0,L|364:244,2,60,2|0|8,0:0|0:0|0:0,0:0:0:0:
303,134,14560,1,0,0:0:0:0:
407,2,15036,1,2,0:0:0:0:
324,19,15274,1,8,0:0:0:0:
157,37,15751,6,0,P|127:31|98:36,1,60,2|0,0:0|0:0,0:0:0:0:
30,84,16227,2,0,P|15:110|11:140,1,60,8|0,0:0|0:0,0:0:0:0:
32,222,16703,2,0,P|24:250|9:276,2,60,2|0|8,0:0|0:0|0:0,0:0:0:0:
114,207,17417,1,0,0:0:0:0:
150,282,17655,6,0,L|150:347,1,60,2|0,0:0|0:0,0:0:0:0:
230,368,18132,1,8,0:0:0:0:
313,371,18370,1,8,0:0:0:0:
392,345,18608,1,6,0:0:0:0:
451,286,18846,1,2,0:0:0:0:
466,203,19084,2,0,P|436:203|408:215,1,60,12|0,0:0|0:0,0:0:0:0:
334,253,19560,6,0,P|281:229|258:175,1,120,6|8,0:0|0:0,0:0:0:0:
341,171,20274,1,0,0:0:0:0:
411,214,20512,2,0,P|422:246|420:273,2,60,2|0|8,0:0|0:0|0:0,0:0:0:0:
330,66,21465,6,0,L|192:52,1,120,2|8,0:0|0:0,0:0:0:0:
140,99,22179,1,0,0:0:0:0:
169,177,22417,2,0,L|228:170,1,60,2|0,0:0|0:0,0:0:0:0:
311,186,22893,1,8,0:0:0:0:
474,224,23370,6,0,P|466:282|422:322,1,120,2|8,0:0|0:0,0:0:0:0:
342,345,24084,2,0,L|283:358,1,60,0|2,0:0|0:0,0:0:0:0:
208,320,24560,1,0,0:0:0:0:
125,302,24798,2,0,L|72:346,1,60,8|0,0:0|0:0,0:0:0:0:
8,294,25274,6,0,L|54:255,1,60,2|0,0:0|0:0,0:0:0:0:
79,175,25751,1,8,0:0:0:0:
163,168,25989,1,2,0:0:0:0:
208,239,26227,2,0,P|235:257|276:255,1,60,2|0,0:0|0:0,0:0:0:0:
345,256,26703,2,0,P|374:259|402:275,1,60,8|0,0:0|0:0,0:0:0:0:
404,357,27179,6,0,P|374:355|348:339,1,60,2|0,0:0|0:0,0:0:0:0:
345,256,27655,2,0,B|335:182,1,60,8|0,0:0|0:0,0:0:0:0:
370,118,28132,2,0,P|310:115|265:152,1,120,2|8,0:0|0:0,0:0:0:0:
256,235,28846,1,0,0:0:0:0:
225,314,29084,6,0,P|171:335|113:321,1,120,2|8,0:0|0:0,0:0:0:0:
62,254,29798,1,0,0:0:0:0:
62,254,30036,2,0,P|56:225|60:196,1,60,2|0,0:0|0:0,0:0:0:0:
106,126,30512,2,0,P|130:107|143:80,1,60,8|0,0:0|0:0,0:0:0:0:
188,10,30989,6,0,P|211:29|223:56,1,60,2|0,0:0|0:0,0:0:0:0:
235,139,31465,2,0,P|213:158|202:185,2,60,8|0|2,0:0|0:0|0:0,0:0:0:0:
313,106,32179,2,0,L|327:47,1,60,0|8,0:0|0:0,0:0:0:0:
407,22,32655,1,0,0:0:0:0:
475,69,32893,6,0,P|446:121|431:179,1,120,2|8,0:0|0:0,0:0:0:0:
423,263,33608,1,0,0:0:0:0:
349,304,33846,2,0,P|319:298|293:283,1,60,2|0,0:0|0:0,0:0:0:0:
236,222,34322,2,0,P|210:206|180:201,1,60,8|0,0:0|0:0,0:0:0:0:
105,165,34798,6,0,L|90:86,2,60,6|0|8,0:0|0:0|0:0,0:0:0:0:
181,201,35512,1,0,0:0:0:0:
175,116,35751,2,0,L|160:37,2,60,2|0|8,0:0|0:0|0:0,0:0:0:0:
249,154,36465,1,0,0:0:0:0:
331,139,36703,5,2,0:0:0:0:
331,139,36941,1,0,0:0:0:0:
307,57,37179,2,0,P|315:29|328:2,2,60,8|0|2,0:0|0:0|0:0,0:0:0:0:
153,122,38132,1,12,0:0:0:0:
82,274,38608,6,0,L|77:338,1,60,2|0,0:0|0:0,0:0:0:0:
155,364,39084,2,0,L|159:304,1,60,8|0,0:0|0:0,0:0:0:0:
232,263,39560,1,2,0:0:0:0:
232,263,39798,1,0,0:0:0:0:
314,278,40036,2,0,P|314:245|303:218,1,60,8|0,0:0|0:0,0:0:0:0:
250,154,40512,6,0,P|256:124|274:101,1,60,2|0,0:0|0:0,0:0:0:0:
340,48,40989,2,0,P|364:31|394:27,1,60,8|0,0:0|0:0,0:0:0:0:
475,50,41465,1,2,0:0:0:0:
500,129,41703,1,0,0:0:0:0:
451,197,41941,1,12,0:0:0:0:
300,270,42417,6,0,L|259:321,1,60,2|0,0:0|0:0,0:0:0:0:
320,377,42893,1,8,0:0:0:0:
400,351,43132,1,0,0:0:0:0:
386,266,43370,2,0,P|365:212|314:183,1,120,2|8,0:0|0:0,0:0:0:0:
231,171,44084,1,0,0:0:0:0:
209,89,44322,6,0,L|149:93,1,60,2|0,0:0|0:0,0:0:0:0:
171,175,44798,2,0,L|231:171,1,60,8|0,0:0|0:0,0:0:0:0:
290,111,45274,1,2,0:0:0:0:
150,16,45751,1,12,0:0:0:0:
121,181,46227,6,0,L|81:228,2,60,2|0|8,0:0|0:0|0:0,0:0:0:0:
204,181,46941,1,0,0:0:0:0:
258,245,47179,2,0,P|262:284|250:314,2,60,2|0|8,0:0|0:0|0:0,0:0:0:0:
204,181,47893,1,0,0:0:0:0:
265,122,48132,5,2,0:0:0:0:
429,87,48608,1,8,0:0:0:0:
508,235,49084,1,2,0:0:0:0:
403,366,49560,1,8,0:0:0:0:
248,300,50036,6,0,P|245:257|268:168,1,120,6|8,0:0|0:0,0:0:0:0:
223,106,50751,1,0,0:0:0:0:
160,50,50989,2,0,P|133:65|113:92,1,60,2|0,0:0|0:0,0:0:0:0:
122,171,51465,2,0,P|103:194|77:208,1,60,8|0,0:0|0:0,0:0:0:0:
15,267,51941,6,0,P|6:295|7:325,2,60,2|0|8,0:0|0:0|0:0,0:0:0:0:
90,307,52655,1,0,0:0:0:0:
174,299,52893,1,2,0:0:0:0:
311,202,53370,1,8,0:0:0:0:
295,369,53846,6,0,P|265:367|239:353,1,60,2|0,0:0|0:0,0:0:0:0:
174,299,54322,2,0,P|144:296|116:307,1,60,8|0,0:0|0:0,0:0:0:0:
33,297,54798,2,0,P|24:238|34:179,1,120,2|8,0:0|0:0,0:0:0:0:
110,144,55512,1,0,0:0:0:0:
191,126,55751,6,0,P|220:116|244:99,1,60,2|0,0:0|0:0,0:0:0:0:
182,42,56227,1,12,0:0:0:0:
167,209,56703,1,6,0:0:0:0:
320,141,57179,2,0,L|368:97,1,60,8|0,0:0|0:0,0:0:0:0:
438,140,57655,6,0,L|351:222,1,120,2|8,0:0|0:0,0:0:0:0:
352,307,58370,1,0,0:0:0:0:
268,296,58608,2,0,P|238:293|198:305,1,60,2|0,0:0|0:0,0:0:0:0:
245,376,59084,1,8,0:0:0:0:
90,307,59560,6,0,P|102:249|140:204,1,120,6|12,0:0|0:0,0:0:0:0:
214,164,60274,1,0,0:0:0:0:
247,87,60512,2,0,L|234:28,1,60,6|0,0:0|0:0,0:0:0:0:
319,27,60989,2,0,L|332:86,1,60,8|0,0:0|0:0,0:0:0:0:
389,147,61465,5,2,0:0:0:0:
470,125,61703,1,0,0:0:0:0:
503,47,61941,2,0,P|470:40|441:47,1,60,8|0,0:0|0:0,0:0:0:0:
364,70,62417,2,0,P|325:82|252:60,1,120,2|8,0:0|0:0,0:0:0:0:
84,77,63370,5,6,0:0:0:0:
46,240,63846,1,8,0:0:0:0:
46,240,64084,1,0,0:0:0:0:
85,314,64322,2,0,L|63:369,2,60,6|2|12,0:0|0:0|0:0,0:0:0:0:
188,181,65274,6,0,P|242:205|288:243,1,120,6|8,0:0|0:0,0:0:0:0:
334,314,65989,1,0,0:0:0:0:
417,317,66227,2,0,L|481:308,1,60,2|0,0:0|0:0,0:0:0:0:
495,226,66703,2,0,L|430:235,1,60,8|0,0:0|0:0,0:0:0:0:
354,211,67179,6,0,P|365:153|418:104,1,120,2|8,0:0|0:0,0:0:0:0:
459,44,67893,1,0,0:0:0:0:
375,33,68132,1,2,0:0:0:0:
257,152,68608,1,8,0:0:0:0:
89,150,69084,6,0,L|143:38,1,120,2|8,0:0|0:0,0:0:0:0:
223,27,69798,1,0,0:0:0:0:
293,72,70036,1,2,0:0:0:0:
316,238,70512,2,0,P|319:273|338:297,1,60,8|0,0:0|0:0,0:0:0:0:
409,328,70989,6,0,P|438:326|464:311,1,60,2|0,0:0|0:0,0:0:0:0:
500,234,71465,1,12,0:0:0:0:
417,88,71941,1,6,0:0:0:0:
334,102,72179,2,0,L|277:81,1,60,0|8,0:0|0:0,0:0:0:0:
197,58,72655,1,0,0:0:0:0:
113,59,72893,6,0,P|55:84|25:145,1,120,2|8,0:0|0:0,0:0:0:0:
47,213,73608,1,0,0:0:0:0:
120,253,73846,2,0,P|146:268|163:293,1,60,2|0,0:0|0:0,0:0:0:0:
130,370,74322,2,0,P|104:355|88:331,1,60,8|0,0:0|0:0,0:0:0:0:
120,253,74798,6,0,L|142:183,2,60,6|0|12,0:0|0:0|0:0,0:0:0:0:
250,359,75751,1,6,0:0:0:0:
402,287,76227,2,0,P|432:278|453:259,1,60,8|0,0:0|0:0,0:0:0:0:
468,177,76703,6,0,P|452:143|426:124,1,60,2|0,0:0|0:0,0:0:0:0:
354,106,77179,2,0,P|317:122|298:149,1,60,8|0,0:0|0:0,0:0:0:0:
272,213,77655,2,0,P|241:245|152:255,1,120,2|8,0:0|0:0,0:0:0:0:
102,106,78608,6,0,P|132:73|221:63,1,120,2|8,0:0|0:0,0:0:0:0:
280,93,79322,1,0,0:0:0:0:
329,159,79560,2,0,P|351:180|379:189,2,60,6|2|12,0:0|0:0|0:0,0:0:0:0:
280,93,80274,1,0,0:0:0:0:
224,156,80512,5,6,0:0:0:0:
224,156,80751,1,0,0:0:0:0:
244,236,80989,2,0,P|265:258|292:269,1,60,8|0,0:0|0:0,0:0:0:0:
376,258,81465,2,0,P|405:239|448:235,1,60,2|0,0:0|0:0,0:0:0:0:
434,317,81941,1,8,0:0:0:0:
377,379,82179,1,0,0:0:0:0:
295,357,82417,6,0,L|240:335,1,60,2|0,0:0|0:0,0:0:0:0:
157,353,82893,2,0,L|102:331,1,60,8|0,0:0|0:0,0:0:0:0:
101,162,83608,1,2,0:0:0:0:
165,107,83846,1,8,0:0:0:0:
331,83,84322,6,0,P|336:112|329:141,1,60,2|0,0:0|0:0,0:0:0:0:
280,209,84798,1,8,0:0:0:0:
207,250,85036,1,0,0:0:0:0:
124,233,85274,2,0,L|70:193,1,60,2|0,0:0|0:0,0:0:0:0:
132,134,85751,2,0,L|180:169,1,60,8|0,0:0|0:0,0:0:0:0:
207,250,86227,6,0,P|201:279|181:302,1,60,2|0,0:0|0:0,0:0:0:0:
99,319,86703,2,0,P|71:308|51:287,1,60,12|2,0:0|0:0,0:0:0:0:
33,204,87179,2,0,P|28:174|11:150,2,60,6|0|8,0:0|0:0|0:0,0:0:0:0:
197,169,88132,5,2,0:0:0:0:
181,86,88370,1,0,0:0:0:0:
250,39,88608,1,8,0:0:0:0:
323,79,88846,1,0,0:0:0:0:
324,163,89084,2,0,L|362:216,1,60,2|0,0:0|0:0,0:0:0:0:
442,220,89560,2,0,L|480:273,1,60,8|0,0:0|0:0,0:0:0:0:
473,352,90036,6,0,P|443:347|419:330,1,60,2|0,0:0|0:0,0:0:0:0:
339,305,90512,1,8,0:0:0:0:
264,344,90751,1,0,0:0:0:0:
111,273,91227,2,0,L|94:342,1,60,2|8,0:0|0:0,0:0:0:0:
223,221,91941,5,2,0:0:0:0:
235,137,92179,1,0,0:0:0:0:
161,95,92417,2,0,P|122:93|88:108,2,60,8|0|2,0:0|0:0|0:0,0:0:0:0:
235,137,93132,1,0,0:0:0:0:
223,221,93370,2,0,L|259:268,1,60,8|0,0:0|0:0,0:0:0:0:
336,301,93846,5,2,0:0:0:0:
406,254,94084,1,0,0:0:0:0:
416,173,94322,1,12,0:0:0:0:
340,137,94560,1,2,0:0:0:0:
297,65,94798,2,0,L|342:22,2,60,6|6|12,0:0|0:0|0:0,0:0:0:0:
383,209,95751,6,0,P|405:189|419:163,2,60,2|0|8,0:0|0:0|0:0,0:0:0:0:
299,206,96465,1,0,0:0:0:0:
249,274,96703,2,0,P|198:304|140:321,1,120,2|8,0:0|0:0,0:0:0:0:
10,215,97655,6,0,P|14:155|35:99,1,120,2|8,0:0|0:0,0:0:0:0:
114,69,98370,1,0,0:0:0:0:
191,102,98608,2,0,L|196:167,1,60,2|0,0:0|0:0,0:0:0:0:
256,220,99084,1,8,0:0:0:0:
421,191,99560,6,0,P|445:172|461:147,1,60,2|0,0:0|0:0,0:0:0:0:
451,64,100036,1,8,0:0:0:0:
373,30,100274,1,0,0:0:0:0:
299,71,100512,2,0,L|324:145,1,60,2|0,0:0|0:0,0:0:0:0:
403,134,100989,2,0,L|425:201,1,60,8|0,0:0|0:0,0:0:0:0:
444,272,101465,5,2,0:0:0:0:
444,272,101703,1,0,0:0:0:0:
384,331,101941,2,0,P|354:328|329:311,1,60,8|2,0:0|0:0,0:0:0:0:
273,249,102417,1,2,0:0:0:0:
258,166,102655,1,0,0:0:0:0:
176,144,102893,2,0,L|157:201,1,60,8|0,0:0|0:0,0:0:0:0:
108,269,103370,6,0,L|126:326,1,60,2|0,0:0|0:0,0:0:0:0:
58,374,103846,2,0,P|31:360|8:331,1,60,8|0,0:0|0:0,0:0:0:0:
18,253,104322,2,0,P|31:195|28:135,1,120,2|8,0:0|0:0,0:0:0:0:
154,24,105274,6,0,P|172:47|187:73,1,60,2|0,0:0|0:0,0:0:0:0:
174,155,105751,2,0,P|172:185|182:213,1,60,8|0,0:0|0:0,0:0:0:0:
255,256,106227,2,0,P|284:252|309:237,1,60,2|0,0:0|0:0,0:0:0:0:
257,171,106703,1,8,0:0:0:0:
173,316,107179,5,2,0:0:0:0:
241,364,107417,1,0,0:0:0:0:
324,367,107655,2,0,L|380:348,1,60,8|0,0:0|0:0,0:0:0:0:
409,268,108132,2,0,L|468:270,2,60,2|0|8,0:0|0:0|0:0,0:0:0:0:
334,230,108846,1,0,0:0:0:0:
292,157,109084,6,0,P|289:127|298:98,1,60,2|0,0:0|0:0,0:0:0:0:
360,42,109560,2,0,P|390:38|420:44,2,60,8|0|2,0:0|0:0|0:0,0:0:0:0:
298,99,110274,1,0,0:0:0:0:
218,74,110512,2,0,L|153:31,1,60,8|0,0:0|0:0,0:0:0:0:
96,86,110989,6,0,L|45:52,2,60,2|0|8,0:0|0:0|0:0,0:0:0:0:
145,154,111703,1,0,0:0:0:0:
151,237,111941,2,0,P|116:285|72:325,1,120,2|8,0:0|0:0,0:0:0:0:
7,271,112655,1,0,0:0:0:0:
5,187,112893,6,0,L|71:164,1,60,2|0,0:0|0:0,0:0:0:0:
144,154,113370,2,0,P|174:156|201:169,1,60,8|0,0:0|0:0,0:0:0:0:
259,230,113846,1,2,0:0:0:0:
422,192,114322,1,12,0:0:0:0:
330,51,114798,6,0,L|270:63,1,60,2|0,0:0|0:0,0:0:0:0:
191,89,115274,2,0,P|162:107|143:136,1,60,8|0,0:0|0:0,0:0:0:0:
144,212,115751,2,0,P|145:250|133:284,2,60,2|0|8,0:0|0:0|0:0,0:0:0:0:
63,234,116465,1,0,0:0:0:0:
22,307,116703,6,0,P|29:335|49:357,1,60,2|0,0:0|0:0,0:0:0:0:
131,374,117179,2,0,P|172:358|255:345,1,120,8|2,0:0|0:0,0:0:0:0:
394,264,118132,1,12,0:0:0:0:
233,214,118608,6,0,P|203:207|175:197,1,60,2|0,0:0|0:0,0:0:0:0:
105,150,119084,2,0,P|126:128|155:115,1,60,8|0,0:0|0:0,0:0:0:0:
236,123,119560,2,0,P|265:129|293:139,1,60,2|0,0:0|0:0,0:0:0:0:
376,150,120036,2,0,P|405:144|429:126,1,60,8|0,0:0|0:0,0:0:0:0:
490,69,120512,6,0,L|484:9,2,60,2|0|8,0:0|0:0|0:0,0:0:0:0:
508,152,121227,1,0,0:0:0:0:
451,214,121465,1,2,0:0:0:0:
285,240,121941,1,12,0:0:0:0:
174,113,122417,6,0,P|160:86|136:67,1,60,2|0,0:0|0:0,0:0:0:0:
72,121,122893,2,0,P|86:148|109:166,1,60,8|0,0:0|0:0,0:0:0:0:
188,193,123370,1,2,0:0:0:0:
188,193,123608,1,0,0:0:0:0:
178,276,123846,2,0,P|165:302|142:322,1,60,8|0,0:0|0:0,0:0:0:0:
97,250,124322,5,2,0:0:0:0:
179,103,124798,1,8,0:0:0:0:
265,247,125274,1,2,0:0:0:0:
97,250,125751,1,8,0:0:0:0:
240,163,126227,6,0,P|270:159|299:165,1,60,6|0,0:0|0:0,0:0:0:0:
375,202,126703,2,0,P|406:195|448:178,1,60,8|0,0:0|0:0,0:0:0:0:
512,195,127179,2,0,P|503:254|485:311,1,120,2|8,0:0|0:0,0:0:0:0:
318,334,128132,6,0,P|287:351|257:353,1,60,2|0,0:0|0:0,0:0:0:0:
181,333,128608,2,0,P|156:315|127:309,1,60,8|0,0:0|0:0,0:0:0:0:
44,322,129084,2,0,P|85:287|109:219,1,120,2|8,0:0|0:0,0:0:0:0:
159,66,130036,6,0,P|209:36|267:45,1,120,2|8,0:0|0:0,0:0:0:0:
226,119,130751,1,0,0:0:0:0:
191,195,130989,2,0,L|205:276,1,60,2|0,0:0|0:0,0:0:0:0:
275,292,131465,2,0,L|289:373,1,60,8|0,0:0|0:0,0:0:0:0:
364,374,131941,6,0,P|392:362|416:344,1,60,2|0,0:0|0:0,0:0:0:0:
476,286,132417,1,12,0:0:0:0:
415,129,132893,1,6,0:0:0:0:
258,68,133370,2,0,L|201:89,1,60,8|0,0:0|0:0,0:0:0:0:
198,172,133846,6,0,L|322:126,1,120,2|8,0:0|0:0,0:0:0:0:
360,197,134560,2,0,L|302:219,1,60,0|2,0:0|0:0,0:0:0:0:
242,275,135036,1,0,0:0:0:0:
261,356,135274,1,8,0:0:0:0:
410,280,135751,6,0,P|451:234|451:167,1,120,6|12,0:0|0:0,0:0:0:0:
398,114,136465,1,0,0:0:0:0:
315,129,136703,1,6,0:0:0:0:
182,232,137179,2,0,P|154:248|126:254,1,60,8|0,0:0|0:0,0:0:0:0:
57,205,137655,6,0,P|72:148|109:101,1,120,2|8,0:0|0:0,0:0:0:0:
193,109,138370,1,0,0:0:0:0:
275,106,138608,2,0,P|304:96|326:77,2,60,2|0|8,0:0|0:0|0:0,0:0:0:0:
192,109,139322,1,0,0:0:0:0:
124,158,139560,6,0,P|134:216|159:271,1,120,6|8,0:0|0:0,0:0:0:0:
227,321,140274,1,0,0:0:0:0:
303,286,140512,1,6,0:0:0:0:
360,224,140751,1,2,0:0:0:0:
444,217,140989,1,12,0:0:0:0:
359,363,141465,6,0,P|334:378|304:382,1,60,6|0,0:0|0:0,0:0:0:0:
225,351,141941,2,0,P|167:338|108:348,1,120,8|2,0:0|0:0,0:0:0:0:
6,215,142893,1,8,0:0:0:0:
172,228,143370,6,0,P|200:216|223:197,1,60,2|0,0:0|0:0,0:0:0:0:
227,113,143846,1,8,0:0:0:0:
144,124,144084,1,0,0:0:0:0:
87,187,144322,2,0,P|80:245|108:297,1,120,2|8,0:0|0:0,0:0:0:0:
271,339,145274,6,0,P|296:354|320:372,1,60,2|0,0:0|0:0,0:0:0:0:
404,381,145751,2,0,P|438:334|434:275,1,120,8|2,0:0|0:0,0:0:0:0:
378,212,146465,1,0,0:0:0:0:
349,132,146703,2,0,L|374:70,1,60,8|0,0:0|0:0,0:0:0:0:
454,92,147179,6,0,L|430:155,1,60,2|0,0:0|0:0,0:0:0:0:
377,212,147655,2,0,P|319:212|275:173,1,120,12|6,0:0|0:0,0:0:0:0:
224,106,148370,1,0,0:0:0:0:
140,93,148608,2,0,L|84:136,1,60,8|0,0:0|0:0,0:0:0:0:
35,190,149084,6,0,P|29:220|35:249,2,60,2|0|8,0:0|0:0|0:0,0:0:0:0:
114,218,149798,1,0,0:0:0:0:
143,295,150036,2,0,P|130:323|110:345,2,60,2|0|8,0:0|0:0|0:0,0:0:0:0:
199,233,150751,1,0,0:0:0:0:
281,220,150989,5,6,0:0:0:0:
356,256,151227,1,0,0:0:0:0:
392,331,151465,2,0,P|417:315|432:290,1,60,12|2,0:0|0:0,0:0:0:0:
425,206,151941,2,0,P|398:153|405:95,1,120,6|8,0:0|0:0,0:0:0:0:
364,22,152655,1,0,0:0:0:0:
287,57,152893,6,0,P|265:79|237:88,1,60,2|0,0:0|0:0,0:0:0:0:
154,82,153370,2,0,L|95:57,2,60,8|0|2,0:0|0:0|0:0,0:0:0:0:
191,157,154084,1,0,0:0:0:0:
130,214,154322,1,8,0:0:0:0:
269,308,154798,6,0,P|297:340|313:369,2,60,6|0|8,0:0|0:0|0:0,0:0:0:0:
247,226,155512,1,0,0:0:0:0:
299,158,155751,2,0,P|355:139|428:147,1,120,6|12,0:0|0:0,0:0:0:0:
375,306,156703,5,6,0:0:0:0:
375,306,164322,6,0,P|424:284|455:216,2,120,6|8|2,0:0|0:0|0:0,0:0:0:0:
291,308,165512,1,0,0:0:0:0:
248,235,165751,2,0,P|228:212|200:201,1,60,8|0,0:0|0:0,0:0:0:0:
118,181,166227,6,0,P|89:173|65:154,1,60,2|0,0:0|0:0,0:0:0:0:
50,72,166703,1,8,0:0:0:0:
129,100,166941,1,0,0:0:0:0:
112,267,167417,1,2,0:0:0:0:
173,324,167655,1,8,0:0:0:0:
341,316,168132,6,0,L|402:355,2,60,2|0|8,0:0|0:0|0:0,0:0:0:0:
370,237,168846,2,0,L|431:276,2,60,0|6|0,0:0|0:0|0:0,0:0:0:0:
311,176,169560,1,12,0:0:0:0:
344,98,169798,1,0,0:0:0:0:
280,41,170036,6,0,P|250:47|225:63,1,60,2|0,0:0|0:0,0:0:0:0:
189,138,170512,2,0,P|173:166|152:186,1,60,8|0,0:0|0:0,0:0:0:0:
81,231,170989,1,6,0:0:0:0:
78,147,171227,1,0,0:0:0:0:
152,185,171465,1,8,0:0:0:0:
298,268,171941,6,0,L|364:297,1,60,6|0,0:0|0:0,0:0:0:0:
312,365,172417,1,8,0:0:0:0:
229,349,172655,2,0,P|200:341|170:344,2,60,0|2|0,0:0|0:0|0:0,0:0:0:0:
311,364,173370,2,0,P|339:376|369:377,1,60,8|0,0:0|0:0,0:0:0:0:
449,352,173846,6,0,P|473:334|488:309,1,60,2|0,0:0|0:0,0:0:0:0:
488,225,174322,1,8,0:0:0:0:
419,176,174560,1,0,0:0:0:0:
338,200,174798,2,0,B|281:217|281:217|256:206|235:177,1,120,2|8,0:0|0:0,0:0:0:0:
94,85,175751,6,0,P|76:114|67:167,1,60,2|0,0:0|0:0,0:0:0:0:
73,222,176227,2,0,P|83:253|110:289,1,60,8|0,0:0|0:0,0:0:0:0:
178,298,176703,2,0,P|236:293|290:318,1,120,2|8,0:0|0:0,0:0:0:0:
366,356,177417,1,0,0:0:0:0:
444,325,177655,6,0,L|503:303,2,60,2|0|12,0:0|0:0|0:0,0:0:0:0:
378,271,178370,1,2,0:0:0:0:
320,210,178608,2,0,P|290:204|260:206,1,60,6|0,0:0|0:0,0:0:0:0:
192,157,179084,2,0,P|163:159|133:154,1,60,8|0,0:0|0:0,0:0:0:0:
113,72,179560,6,0,P|168:56|227:78,1,120,2|8,0:0|0:0,0:0:0:0:
274,145,180274,1,0,0:0:0:0:
346,103,180512,2,0,P|320:155|331:213,1,120,2|8,0:0|0:0,0:0:0:0:
402,168,181227,1,0,0:0:0:0:
425,87,181465,6,0,P|410:53|380:29,2,60,6|0|12,0:0|0:0|0:0,0:0:0:0:
402,168,182179,1,0,0:0:0:0:
320,193,182417,2,0,P|270:224|228:267,1,120,6|8,0:0|0:0,0:0:0:0:
188,341,183132,1,0,0:0:0:0:
106,322,183370,6,0,L|94:250,1,60,2|0,0:0|0:0,0:0:0:0:
20,227,183846,2,0,L|8:155,1,60,8|0,0:0|0:0,0:0:0:0:
53,95,184322,2,0,P|65:59|65:33,2,60,2|0|8,0:0|0:0|0:0,0:0:0:0:
98,165,185036,1,0,0:0:0:0:
175,197,185274,5,6,0:0:0:0:
317,107,185751,2,0,L|383:95,1,60,8|0,0:0|0:0,0:0:0:0:
415,170,186227,2,0,L|355:180,1,60,6|2,0:0|0:0,0:0:0:0:
282,221,186703,1,8,0:0:0:0:
282,221,186941,1,0,0:0:0:0:
285,304,187179,6,0,P|307:323|336:330,1,60,6|0,0:0|0:0,0:0:0:0:
418,308,187655,2,0,P|433:283|456:264,1,60,8|0,0:0|0:0,0:0:0:0:
501,192,188132,2,0,P|476:139|426:107,1,120,2|8,0:0|0:0,0:0:0:0:
342,99,188846,1,0,0:0:0:0:
288,163,189084,6,0,P|262:194|234:209,2,60,2|0|8,0:0|0:0|0:0,0:0:0:0:
211,128,189798,1,0,0:0:0:0:
131,153,190036,2,0,P|101:152|71:155,1,60,2|0,0:0|0:0,0:0:0:0:
25,225,190512,2,0,P|37:252|52:278,1,60,8|0,0:0|0:0,0:0:0:0:
114,335,190989,6,0,P|171:350|229:338,1,120,2|8,0:0|0:0,0:0:0:0:
305,302,191703,1,0,0:0:0:0:
388,312,191941,1,2,0:0:0:0:
450,156,192417,2,0,L|479:103,1,60,8|0,0:0|0:0,0:0:0:0:
421,42,192893,6,0,L|393:95,1,60,2|0,0:0|0:0,0:0:0:0:
319,135,193370,1,12,0:0:0:0:
240,105,193608,1,2,0:0:0:0:
176,159,193846,2,0,P|157:199|179:279,1,120,6|8,0:0|0:0,0:0:0:0:
179,354,194560,1,0,0:0:0:0:
95,354,194798,6,0,L|35:346,2,60,2|0|8,0:0|0:0|0:0,0:0:0:0:
179,354,195512,1,0,0:0:0:0:
244,301,195751,2,0,L|295:270,1,60,2|0,0:0|0:0,0:0:0:0:
332,195,196227,2,0,P|321:159|305:137,1,60,8|0,0:0|0:0,0:0:0:0:
231,102,196703,6,0,P|202:97|174:108,2,60,6|0|12,0:0|0:0|0:0,0:0:0:0:
212,184,197417,1,0,0:0:0:0:
130,205,197655,2,0,P|85:166|70:109,1,120,6|8,0:0|0:0,0:0:0:0:
124,44,198370,1,0,0:0:0:0:
207,35,198608,6,0,L|269:32,1,60,2|0,0:0|0:0,0:0:0:0:
337,78,199084,2,0,L|396:75,1,60,8|0,0:0|0:0,0:0:0:0:
468,120,199560,2,0,P|484:154|484:194,2,60,2|0|8,0:0|0:0|0:0,0:0:0:0:
397,75,200274,1,0,0:0:0:0:
313,81,200512,6,0,L|282:144,1,60,6|0,0:0|0:0,0:0:0:0:
252,212,200989,2,0,P|252:243|263:270,1,60,8|0,0:0|0:0,0:0:0:0:
341,297,201465,2,0,P|370:294|399:302,2,60,6|2|12,0:0|0:0|0:0,0:0:0:0:
277,351,202179,1,0,0:0:0:0:
195,326,202417,6,0,P|167:316|137:315,1,60,6|0,0:0|0:0,0:0:0:0:
55,298,202893,2,0,P|31:279|16:253,1,60,8|0,0:0|0:0,0:0:0:0:
21,169,203370,2,0,P|39:145|65:130,1,60,2|0,0:0|0:0,0:0:0:0:
148,143,203846,2,0,P|171:161|186:187,1,60,8|0,0:0|0:0,0:0:0:0:
229,259,204322,6,0,L|224:337,2,60,2|0|8,0:0|0:0|0:0,0:0:0:0:
300,214,205036,1,0,0:0:0:0:
381,200,205274,2,0,P|411:201|439:190,1,60,2|0,0:0|0:0,0:0:0:0:
427,107,205751,2,0,P|397:106|369:117,1,60,8|0,0:0|0:0,0:0:0:0:
286,134,206227,5,2,0:0:0:0:
214,89,206465,1,2,0:0:0:0:
214,89,206703,2,0,L|161:133,1,60,8|8,0:0|0:0,0:0:0:0:
93,88,207179,2,0,L|139:49,1,60,2|0,0:0|0:0,0:0:0:0:
211,7,207655,1,8,0:0:0:0:
292,25,207893,1,0,0:0:0:0:
327,102,208132,6,0,P|326:132|315:160,1,60,2|0,0:0|0:0,0:0:0:0:
244,203,208608,2,0,P|210:197|171:206,1,60,8|0,0:0|0:0,0:0:0:0:
103,184,209084,1,6,0:0:0:0:
81,103,209322,1,2,0:0:0:0:
143,46,209560,1,12,0:0:0:0:
223,71,209798,5,6,0:0:0:0:
