osu file format v14

[General]
AudioFilename: yummy.mp3
AudioLeadIn: 0
PreviewTime: 141465
Countdown: 0
SampleSet: Soft
StackLeniency: 0.7
Mode: 0
LetterboxInBreaks: 1
WidescreenStoryboard: 0

[Editor]
Bookmarks: 4312,156693,164312,209788
DistanceSpacing: 1.2
BeatDivisor: 4
GridSize: 4
TimelineZoom: 1.2

[Metadata]
Title:Little Apple with Chopsticks Brothers
TitleUnicode:Little Apple with 젓가락형제
Artist:T-ara
ArtistUnicode:티아라
Creator:Squirrel
Version:Large
Source:
Tags:tara tiara cover kpop k-pop boram qri soyeon eunjung hyomin jiyeon
BeatmapID:578463
BeatmapSetID:251899

[Difficulty]
HPDrainRate:6
CircleSize:4
OverallDifficulty:6
ApproachRate:7
SliderMultiplier:1.6
SliderTickRate:1

[Events]
//Background and Video events
0,0,"omnomnom.jpg",0,0
//Break Periods
2,156903,163422
//Storyboard Layer 0 (Background)
//Storyboard Layer 1 (Fail)
//Storyboard Layer 2 (Pass)
//Storyboard Layer 3 (Foreground)
//Storyboard Sound Samples

[TimingPoints]
513,476.190476190476,4,2,1,50,1,0
4322,-100,4,2,1,65,0,0
19560,-100,4,2,1,75,0,0
48132,-100,4,2,1,80,0,0
50036,-100,4,2,2,90,0,1
65036,-100,4,2,2,90,0,0
65274,-100,4,2,2,90,0,1
80512,-100,4,2,1,65,0,0
124322,-100,4,2,1,80,0,0
126227,-100,4,2,2,90,0,1
141227,-100,4,2,2,90,0,0
141465,-100,4,2,2,90,0,1
156703,-100,4,2,1,65,0,0
171941,-100,4,2,2,90,0,1
186941,-100,4,2,2,90,0,0
187179,-100,4,2,2,90,0,1
201941,-100,4,2,2,50,0,0
202417,-100,4,2,4,30,0,0
202655,-100,4,2,4,50,0,0

[Colours]
Combo1 : 141,182,0
Combo2 : 188,10,10
Combo3 : 190,236,128
Combo4 : 253,224,123

[HitObjects]
195,116,4322,6,0,P|244:112|284:104,1,80,6|0,0:0|0:0,0:0:0:0:
369,87,4798,1,8,0:0:0:0:
446,144,5036,1,0,0:0:0:0:
461,175,5155,1,0,0:0:0:0:
455,208,5274,2,0,P|428:224|403:276,1,80,2|0,0:0|0:0,0:0:0:0:
343,339,5751,2,0,P|306:357|264:353,1,80,8|0,0:0|0:0,0:0:0:0:
197,289,6227,6,0,P|155:280|116:283,2,80,2|0|8,0:0|0:0|0:0,0:0:0:0:
288,255,6941,1,0,0:0:0:0:
341,70,7417,1,2,0:0:0:0:
249,42,7655,1,8,0:0:0:0:
64,94,8132,6,0,L|28:179,1,80,2|0,0:0|0:0,0:0:0:0:
10,260,8608,1,8,0:0:0:0:
103,281,8846,1,0,0:0:0:0:
131,262,8965,1,0,0:0:0:0:
150,233,9084,2,0,P|188:241|219:273,1,80,2|0,0:0|0:0,0:0:0:0:
280,348,9560,1,8,0:0:0:0:
280,348,9798,1,0,0:0:0:0:
376,341,10036,6,0,L|450:299,1,80,2|0,0:0|0:0,0:0:0:0:
413,211,10512,2,0,L|343:250,1,80,8|0,0:0|0:0,0:0:0:0:
491,234,10989,1,2,0:0:0:0:
502,138,11227,1,4,0:0:0:0:
406,130,11465,1,8,0:0:0:0:
445,42,11703,1,4,0:0:0:0:
354,72,11941,6,0,P|311:91|273:86,1,80,6|0,0:0|0:0,0:0:0:0:
279,88,12298,1,0,0:0:0:0:
279,88,12417,1,8,0:0:0:0:
206,25,12655,1,0,0:0:0:0:
172,26,12774,1,0,0:0:0:0:
142,42,12893,1,2,0:0:0:0:
113,134,13132,1,0,0:0:0:0:
17,147,13370,2,0,P|17:107|37:73,1,80,8|0,0:0|0:0,0:0:0:0:
90,221,13846,6,0,P|59:245|20:250,2,80,2|0|8,0:0|0:0|0:0,0:0:0:0:
17,147,14560,1,0,0:0:0:0:
81,327,15036,1,2,0:0:0:0:
168,288,15274,1,8,0:0:0:0:
348,353,15751,5,2,0:0:0:0:
423,293,15989,1,0,0:0:0:0:
386,203,16227,2,0,P|352:223|333:257,1,80,8|0,0:0|0:0,0:0:0:0:
304,276,16584,1,0,0:0:0:0:
272,277,16703,2,0,L|250:200,2,80,2|0|8,0:0|0:0|0:0,0:0:0:0:
348,353,17417,1,0,0:0:0:0:
423,293,17655,6,0,L|445:216,1,80,2|0,0:0|0:0,0:0:0:0:
420,126,18132,2,0,L|451:101,3,40,8|0|8|0,0:0|0:0|0:0|0:0,0:0:0:0:
385,55,18608,2,0,L|353:79,1,40,6|0,0:0|0:0,0:0:0:0:
282,37,18846,2,0,L|314:14,1,40,2|0,0:0|0:0,0:0:0:0:
286,113,19084,2,0,P|248:105|219:78,1,80,12|0,0:0|0:0,0:0:0:0:
128,47,19560,6,0,P|64:90|68:168,1,160,6|8,0:0|0:0,0:0:0:0:
149,215,20274,1,0,0:0:0:0:
171,308,20512,2,0,P|140:332|101:340,2,80,2|0|8,0:0|0:0|0:0,0:0:0:0:
251,254,21227,1,0,0:0:0:0:
251,254,21465,6,0,P|290:256|325:274,1,80,2|0,0:0|0:0,0:0:0:0:
401,334,21941,2,0,P|435:353|475:353,1,80,8|0,0:0|0:0,0:0:0:0:
459,258,22417,1,2,0:0:0:0:
383,198,22655,1,0,0:0:0:0:
325,275,22893,2,0,P|305:319|311:360,1,80,8|0,0:0|0:0,0:0:0:0:
401,333,23370,6,0,P|426:261|382:197,1,160,2|8,0:0|0:0,0:0:0:0:
279,190,24084,2,0,P|238:198|195:189,1,80,0|2,0:0|0:0,0:0:0:0:
145,113,24560,1,0,0:0:0:0:
84,38,24798,2,0,P|57:68|49:107,1,80,8|0,0:0|0:0,0:0:0:0:
93,191,25274,5,2,0:0:0:0:
63,282,25512,1,0,0:0:0:0:
154,313,25751,1,8,0:0:0:0:
225,249,25989,2,0,L|215:210,2,40,2|0|2,0:0|0:0|0:0,0:0:0:0:
315,279,26465,2,0,L|314:366,2,80,0|8|0,0:0|0:0|0:0,0:0:0:0:
225,249,27179,6,0,L|200:157,1,80,2|0,0:0|0:0,0:0:0:0:
234,80,27655,2,0,B|265:58|265:58|307:55,1,80,8|0,0:0|0:0,0:0:0:0:
377,128,28132,2,0,B|345:149|345:149|303:151,1,80,2|0,0:0|0:0,0:0:0:0:
307,55,28608,1,8,0:0:0:0:
401,34,28846,1,0,0:0:0:0:
452,169,29084,6,0,L|388:217,1,80,2|0,0:0|0:0,0:0:0:0:
429,303,29560,2,0,L|494:256,1,80,8|0,0:0|0:0,0:0:0:0:
345,293,30036,1,2,0:0:0:0:
345,293,30274,1,0,0:0:0:0:
280,222,30512,1,8,0:0:0:0:
190,255,30751,1,0,0:0:0:0:
280,222,30989,6,0,P|259:186|222:164,1,80,2|0,0:0|0:0,0:0:0:0:
96,271,31465,2,0,P|107:308|137:335,1,80,8|0,0:0|0:0,0:0:0:0:
142,191,31941,2,0,P|104:176|66:180,1,80,2|0,0:0|0:0,0:0:0:0:
2,253,32417,1,8,0:0:0:0:
44,339,32655,1,0,0:0:0:0:
139,346,32893,6,0,B|177:332|187:285|187:285|231:275|249:240,1,160,2|8,0:0|0:0,0:0:0:0:
216,151,33608,1,0,0:0:0:0:
265,69,33846,2,0,L|345:55,2,80,2|0|8,0:0|0:0|0:0,0:0:0:0:
216,151,34560,1,0,0:0:0:0:
295,205,34798,6,0,L|375:191,1,80,6|0,0:0|0:0,0:0:0:0:
333,278,35274,2,0,P|295:286|256:277,1,80,8|0,0:0|0:0,0:0:0:0:
214,190,35751,1,2,0:0:0:0:
214,190,35989,2,0,P|235:149|268:126,2,80,0|8|0,0:0|0:0|0:0,0:0:0:0:
237,283,36703,5,2,0:0:0:0:
333,278,36941,1,0,0:0:0:0:
403,212,37179,2,0,L|356:143,1,80,8|0,0:0|0:0,0:0:0:0:
419,71,37655,2,0,L|464:137,1,80,2|0,0:0|0:0,0:0:0:0:
331,63,38132,1,12,0:0:0:0:
139,54,38608,6,0,P|143:92|165:124,1,80,2|0,0:0|0:0,0:0:0:0:
235,192,39084,2,0,P|258:224|262:263,1,80,8|0,0:0|0:0,0:0:0:0:
210,344,39560,1,2,0:0:0:0:
114,338,39798,1,0,0:0:0:0:
167,258,40036,1,8,0:0:0:0:
210,344,40274,1,0,0:0:0:0:
69,243,40512,6,0,P|80:205|108:178,1,80,2|0,0:0|0:0,0:0:0:0:
204,166,40989,2,0,P|238:146|258:112,1,80,8|0,0:0|0:0,0:0:0:0:
168,76,41465,1,2,0:0:0:0:
204,166,41703,1,0,0:0:0:0:
215,198,41822,1,0,0:0:0:0:
226,230,41941,1,12,0:0:0:0:
386,336,42417,6,0,L|464:349,1,80,2|0,0:0|0:0,0:0:0:0:
509,238,42893,2,0,L|430:251,1,80,8|0,0:0|0:0,0:0:0:0:
354,192,43370,1,2,0:0:0:0:
265,154,43608,1,0,0:0:0:0:
253,120,43727,1,0,0:0:0:0:
261,86,43846,1,8,0:0:0:0:
357,95,44084,1,0,0:0:0:0:
354,192,44322,6,0,P|331:228|288:250,1,80,2|0,0:0|0:0,0:0:0:0:
265,259,44679,1,0,0:0:0:0:
229,268,44798,2,0,P|182:269|154:290,1,80,8|0,0:0|0:0,0:0:0:0:
138,317,45155,1,0,0:0:0:0:
130,350,45274,1,2,0:0:0:0:
224,364,45512,1,0,0:0:0:0:
318,344,45751,1,12,0:0:0:0:
350,154,46227,6,0,L|272:123,1,80,2|0,0:0|0:0,0:0:0:0:
243,111,46584,1,0,0:0:0:0:
212,99,46703,1,8,0:0:0:0:
147,28,46941,1,0,0:0:0:0:
51,19,47179,2,0,P|54:59|76:92,1,80,2|0,0:0|0:0,0:0:0:0:
100,117,47536,1,0,0:0:0:0:
123,142,47655,2,0,P|139:177|139:221,1,80,8|0,0:0|0:0,0:0:0:0:
72,337,48132,6,0,L|44:377,2,40,2|0|8,0:0|0:0|0:0,0:0:0:0:
205,311,48608,2,0,L|220:262,2,40,8|0|2,0:0|0:0|0:0,0:0:0:0:
294,382,49084,1,2,0:0:0:0:
398,336,49322,1,2,0:0:0:0:
398,336,49441,1,0,0:0:0:0:
398,336,49560,2,0,L|448:265,1,80,8|0,0:0|0:0,0:0:0:0:
434,175,50036,5,6,0:0:0:0:
414,80,50274,1,0,0:0:0:0:
505,110,50512,1,8,0:0:0:0:
434,175,50751,1,0,0:0:0:0:
351,34,50989,2,0,P|382:9|421:1,1,80,2|0,0:0|0:0,0:0:0:0:
361,141,51465,2,0,P|330:165|291:173,1,80,8|0,0:0|0:0,0:0:0:0:
126,186,51941,6,0,P|158:161|197:154,1,80,2|0,0:0|0:0,0:0:0:0:
197,249,52417,1,8,0:0:0:0:
105,278,52655,1,0,0:0:0:0:
52,164,52893,2,0,B|81:197|126:185|126:185|162:151|195:153,1,160,2|8,0:0|0:0,0:0:0:0:
280,200,53608,1,0,0:0:0:0:
209,325,53846,6,0,P|192:289|197:249,1,80,2|0,0:0|0:0,0:0:0:0:
339,269,54322,2,0,P|331:308|304:337,1,80,8|0,0:0|0:0,0:0:0:0:
280,200,54798,2,0,P|356:179|419:224,1,160,2|8,0:0|0:0,0:0:0:0:
339,269,55512,1,0,0:0:0:0:
196,250,55751,6,0,P|176:216|180:176,1,80,2|0,0:0|0:0,0:0:0:0:
205,83,56227,1,12,0:0:0:0:
179,61,56346,1,0,0:0:0:0:
144,55,56465,1,2,0:0:0:0:
111,63,56584,1,0,0:0:0:0:
83,83,56703,1,6,0:0:0:0:
45,171,56941,1,0,0:0:0:0:
82,259,57179,1,8,0:0:0:0:
177,244,57417,1,0,0:0:0:0:
200,336,57655,6,0,P|124:324|82:259,1,160,2|8,0:0|0:0,0:0:0:0:
177,244,58370,1,0,0:0:0:0:
182,148,58608,2,0,L|164:61,1,80,2|0,0:0|0:0,0:0:0:0:
258,39,59084,2,0,L|274:117,1,80,8|0,0:0|0:0,0:0:0:0:
341,186,59560,5,6,0:0:0:0:
269,250,59798,1,0,0:0:0:0:
251,221,59917,1,0,0:0:0:0:
245,187,60036,1,12,0:0:0:0:
341,186,60274,1,0,0:0:0:0:
360,215,60393,1,0,0:0:0:0:
367,247,60512,2,0,P|357:295|334:322,1,80,6|0,0:0|0:0,0:0:0:0:
309,337,60870,1,0,0:0:0:0:
275,336,60989,2,0,P|223:339|194:371,1,80,8|0,0:0|0:0,0:0:0:0:
111,384,61465,5,2,0:0:0:0:
39,319,61703,1,0,0:0:0:0:
85,235,61941,2,0,L|173:225,1,80,8|0,0:0|0:0,0:0:0:0:
202,137,62417,2,0,L|294:127,1,80,2|0,0:0|0:0,0:0:0:0:
341,53,62893,1,8,0:0:0:0:
245,39,63132,1,0,0:0:0:0:
281,128,63370,6,0,P|316:147|358:148,1,80,6|0,0:0|0:0,0:0:0:0:
341,53,63846,1,8,0:0:0:0:
245,39,64084,1,0,0:0:0:0:
189,116,64322,1,6,0:0:0:0:
187,150,64441,1,0,0:0:0:0:
201,181,64560,1,2,0:0:0:0:
224,206,64679,1,0,0:0:0:0:
254,220,64798,1,12,0:0:0:0:
281,128,65036,1,0,0:0:0:0:
341,53,65274,6,0,P|409:21|473:64,1,160,6|8,0:0|0:0,0:0:0:0:
451,159,65989,1,0,0:0:0:0:
370,210,66227,2,0,L|394:310,1,80,2|0,0:0|0:0,0:0:0:0:
318,353,66703,2,0,P|278:350|245:329,1,80,8|0,0:0|0:0,0:0:0:0:
167,272,67179,6,0,L|120:347,1,80,2|0,0:0|0:0,0:0:0:0:
28,336,67655,1,8,0:0:0:0:
10,241,67893,1,0,0:0:0:0:
91,189,68132,1,2,0:0:0:0:
165,249,68370,1,0,0:0:0:0:
259,234,68608,2,0,P|277:195|272:154,1,80,8|0,0:0|0:0,0:0:0:0:
210,86,69084,6,0,B|167:69|132:93|132:93|98:117|57:101,1,160,2|8,0:0|0:0,0:0:0:0:
82,9,69798,1,0,0:0:0:0:
57,101,70036,2,0,L|64:180,1,80,2|0,0:0|0:0,0:0:0:0:
110,264,70512,1,8,0:0:0:0:
203,239,70751,1,0,0:0:0:0:
277,298,70989,6,0,P|310:319|350:322,1,80,2|0,0:0|0:0,0:0:0:0:
431,272,71465,1,12,0:0:0:0:
449,243,71584,1,0,0:0:0:0:
452,209,71703,1,2,0:0:0:0:
451,175,71822,1,0,0:0:0:0:
432,147,71941,1,6,0:0:0:0:
337,133,72179,1,0,0:0:0:0:
255,183,72417,1,8,0:0:0:0:
173,131,72655,1,0,0:0:0:0:
107,201,72893,6,0,B|85:235|85:235|124:291|90:351,1,160,2|8,0:0|0:0,0:0:0:0:
10,295,73608,1,0,0:0:0:0:
11,199,73846,2,0,L|66:120,1,80,2|0,0:0|0:0,0:0:0:0:
153,135,74322,2,0,L|103:205,1,80,8|0,0:0|0:0,0:0:0:0:
109,68,74798,5,6,0:0:0:0:
199,36,75036,1,0,0:0:0:0:
229,52,75155,1,0,0:0:0:0:
249,80,75274,1,12,0:0:0:0:
262,175,75512,1,0,0:0:0:0:
318,252,75751,2,0,P|368:246|401:240,1,80,6|0,0:0|0:0,0:0:0:0:
429,149,76227,1,8,0:0:0:0:
356,86,76465,1,0,0:0:0:0:
429,149,76703,5,2,0:0:0:0:
397,240,76941,1,0,0:0:0:0:
301,238,77179,2,0,P|252:229|209:236,1,80,8|0,0:0|0:0,0:0:0:0:
150,296,77655,2,0,P|111:304|62:302,1,80,2|0,0:0|0:0,0:0:0:0:
30,214,78132,1,8,0:0:0:0:
70,303,78370,1,0,0:0:0:0:
30,214,78608,6,0,P|30:173|44:138,1,80,2|0,0:0|0:0,0:0:0:0:
137,115,79084,2,0,P|139:155|124:192,1,80,8|0,0:0|0:0,0:0:0:0:
75,65,79560,1,6,0:0:0:0:
100,42,79679,1,0,0:0:0:0:
134,35,79798,1,2,0:0:0:0:
168,41,79917,1,0,0:0:0:0:
196,60,80036,1,12,0:0:0:0:
216,153,80274,1,0,0:0:0:0:
230,248,80512,5,6,0:0:0:0:
216,153,80751,1,0,0:0:0:0:
230,248,80989,1,8,0:0:0:0:
316,288,81227,1,0,0:0:0:0:
350,284,81346,1,0,0:0:0:0:
380,263,81465,2,0,P|417:252|457:258,1,80,2|0,0:0|0:0,0:0:0:0:
424,348,81941,1,8,0:0:0:0:
350,284,82179,1,0,0:0:0:0:
312,195,82417,6,0,L|318:102,1,80,2|0,0:0|0:0,0:0:0:0:
387,48,82893,1,8,0:0:0:0:
469,97,83132,1,0,0:0:0:0:
380,264,83608,1,2,0:0:0:0:
286,283,83846,1,8,0:0:0:0:
116,192,84322,6,0,L|25:202,2,80,2|0|8,0:0|0:0|0:0,0:0:0:0:
196,139,85036,1,0,0:0:0:0:
205,106,85155,1,0,0:0:0:0:
202,72,85274,1,2,0:0:0:0:
108,95,85512,1,0,0:0:0:0:
116,192,85751,1,8,0:0:0:0:
195,246,85989,1,0,0:0:0:0:
286,216,86227,6,0,P|306:178|303:133,1,80,2|0,0:0|0:0,0:0:0:0:
334,50,86703,2,0,L|374:67,3,40,12|0|2|0,0:0|0:0|0:0|0:0,0:0:0:0:
407,96,87179,1,6,0:0:0:0:
380,190,87417,1,0,0:0:0:0:
286,216,87655,1,8,0:0:0:0:
209,159,87893,1,0,0:0:0:0:
177,68,88132,5,2,0:0:0:0:
104,130,88370,1,0,0:0:0:0:
97,163,88489,1,0,0:0:0:0:
73,188,88608,1,8,0:0:0:0:
9,116,88846,1,0,0:0:0:0:
16,82,88965,1,0,0:0:0:0:
40,55,89084,2,0,P|73:34|111:32,2,80,2|0|8,0:0|0:0|0:0,0:0:0:0:
104,130,89798,1,0,0:0:0:0:
199,146,90036,6,0,L|188:225,1,80,2|0,0:0|0:0,0:0:0:0:
175,321,90512,1,8,0:0:0:0:
80,338,90751,1,0,0:0:0:0:
268,304,91227,1,2,0:0:0:0:
364,288,91465,1,8,0:0:0:0:
175,321,91941,5,2,0:0:0:0:
205,229,92179,1,0,0:0:0:0:
298,204,92417,1,8,0:0:0:0:
358,278,92655,2,0,L|413:290,2,40,0|0|2,0:0|0:0|0:0,0:0:0:0:
298,204,93132,1,0,0:0:0:0:
346,121,93370,1,8,0:0:0:0:
441,137,93608,1,0,0:0:0:0:
447,233,93846,5,2,0:0:0:0:
361,276,94084,1,0,0:0:0:0:
298,204,94322,2,0,L|281:162,3,40,12|0|2|0,0:0|0:0|0:0|0:0,0:0:0:0:
216,203,94798,2,0,P|203:185|184:166,1,40,6|0,0:0|0:0,0:0:0:0:
136,225,95036,2,0,P|120:208|100:200,1,40,6|0,0:0|0:0,0:0:0:0:
29,215,95274,2,0,P|10:249|13:288,1,80,12|0,0:0|0:0,0:0:0:0:
94,340,95751,6,0,L|192:357,1,80,2|0,0:0|0:0,0:0:0:0:
268,340,96227,1,8,0:0:0:0:
268,340,96465,1,0,0:0:0:0:
346,284,96703,2,0,L|339:205,2,80,2|0|8,0:0|0:0|0:0,0:0:0:0:
424,339,97417,1,0,0:0:0:0:
493,272,97655,6,0,P|511:197|471:130,1,160,2|8,0:0|0:0,0:0:0:0:
378,158,98370,1,0,0:0:0:0:
287,124,98608,2,0,L|287:29,1,80,2|0,0:0|0:0,0:0:0:0:
378,78,99084,2,0,L|377:157,1,80,8|0,0:0|0:0,0:0:0:0:
296,211,99560,6,0,P|257:207|221:181,1,80,2|0,0:0|0:0,0:0:0:0:
196,93,100036,1,8,0:0:0:0:
100,83,100274,1,0,0:0:0:0:
55,168,100512,2,0,P|58:207|66:246,1,80,2|0,0:0|0:0,0:0:0:0:
144,302,100989,2,0,P|183:305|221:317,1,80,8|0,0:0|0:0,0:0:0:0:
312,351,101465,5,2,0:0:0:0:
312,351,101703,1,0,0:0:0:0:
388,293,101941,2,0,L|435:291,3,40,8|0|2|0,0:0|0:0|0:0|0:0,0:0:0:0:
462,289,102417,1,2,0:0:0:0:
491,197,102655,1,0,0:0:0:0:
400,166,102893,1,8,0:0:0:0:
423,72,103132,1,0,0:0:0:0:
341,21,103370,6,0,P|303:32|274:62,1,80,2|0,0:0|0:0,0:0:0:0:
274,157,103846,2,0,P|298:186|335:202,1,80,8|0,0:0|0:0,0:0:0:0:
422,244,104322,2,0,P|363:294|286:284,1,160,2|8,0:0|0:0,0:0:0:0:
336,202,105036,1,0,0:0:0:0:
286,284,105274,6,0,L|209:322,1,80,2|0,0:0|0:0,0:0:0:0:
119,299,105751,1,8,0:0:0:0:
119,203,105989,1,0,0:0:0:0:
119,203,106227,2,0,L|183:144,1,80,2|0,0:0|0:0,0:0:0:0:
113,78,106703,2,0,P|148:66|205:36,1,80,8|0,0:0|0:0,0:0:0:0:
282,36,107179,5,2,0:0:0:0:
329,119,107417,1,0,0:0:0:0:
278,200,107655,2,0,P|274:239|288:276,1,80,8|0,0:0|0:0,0:0:0:0:
380,303,108132,2,0,P|386:264|370:228,1,80,2|0,0:0|0:0,0:0:0:0:
315,355,108608,1,8,0:0:0:0:
408,376,108846,1,0,0:0:0:0:
485,319,109084,6,0,L|509:233,1,80,2|0,0:0|0:0,0:0:0:0:
480,149,109560,2,0,P|447:126|412:87,2,80,8|0|2,0:0|0:0|0:0,0:0:0:0:
507,241,110274,1,0,0:0:0:0:
421,285,110512,1,8,0:0:0:0:
359,211,110751,1,0,0:0:0:0:
266,184,110989,6,0,P|232:208|219:251,1,80,2|0,0:0|0:0,0:0:0:0:
246,335,111465,1,8,0:0:0:0:
246,335,111703,1,0,0:0:0:0:
153,313,111941,2,0,P|114:310|77:295,1,80,2|0,0:0|0:0,0:0:0:0:
49,202,112417,2,0,L|93:135,1,80,8|0,0:0|0:0,0:0:0:0:
188,145,112893,6,0,L|144:212,1,80,2|0,0:0|0:0,0:0:0:0:
88,290,113370,1,8,0:0:0:0:
49,202,113608,1,0,0:0:0:0:
144,212,113846,2,0,P|175:249|184:292,1,80,2|0,0:0|0:0,0:0:0:0:
88,290,114322,1,12,0:0:0:0:
98,98,114798,6,0,L|188:71,1,80,2|0,0:0|0:0,0:0:0:0:
224,157,115274,2,0,L|145:180,1,80,8|0,0:0|0:0,0:0:0:0:
256,83,115751,2,0,P|287:106|303:142,1,80,2|0,0:0|0:0,0:0:0:0:
310,238,116227,1,8,0:0:0:0:
388,292,116465,1,0,0:0:0:0:
481,271,116703,6,0,L|486:178,1,80,2|0,0:0|0:0,0:0:0:0:
393,212,117179,2,0,L|387:291,1,80,8|0,0:0|0:0,0:0:0:0:
453,128,117655,1,2,0:0:0:0:
374,73,117893,1,0,0:0:0:0:
279,91,118132,1,12,0:0:0:0:
387,291,118608,6,0,L|393:212,1,80,2|0,0:0|0:0,0:0:0:0:
314,158,119084,2,0,P|287:129|279:91,1,80,8|0,0:0|0:0,0:0:0:0:
365,48,119560,2,0,P|392:77|400:115,1,80,2|0,0:0|0:0,0:0:0:0:
399,152,119917,1,0,0:0:0:0:
392,188,120036,1,8,0:0:0:0:
313,254,120274,1,0,0:0:0:0:
262,344,120512,6,0,L|172:348,1,80,2|0,0:0|0:0,0:0:0:0:
150,342,120870,1,0,0:0:0:0:
121,326,120989,2,0,P|99:294|94:255,1,80,8|0,0:0|0:0,0:0:0:0:
147,174,121465,1,2,0:0:0:0:
200,254,121703,1,0,0:0:0:0:
171,267,121822,1,0,0:0:0:0:
142,280,121941,1,12,0:0:0:0:
41,116,122417,6,0,P|73:74|115:57,1,80,2|0,0:0|0:0,0:0:0:0:
128,59,122774,1,0,0:0:0:0:
157,72,122893,2,0,P|196:75|232:58,1,80,8|0,0:0|0:0,0:0:0:0:
311,3,123370,1,2,0:0:0:0:
232,58,123608,1,0,0:0:0:0:
299,134,123846,1,8,0:0:0:0:
375,75,124084,1,0,0:0:0:0:
232,58,124322,6,0,L|223:100,2,40,2|0|8,0:0|0:0|0:0,0:0:0:0:
375,75,124798,2,0,L|384:36,2,40,8|0|2,0:0|0:0|0:0,0:0:0:0:
377,219,125274,1,2,0:0:0:0:
389,314,125512,1,2,0:0:0:0:
424,302,125632,1,0,0:0:0:0:
455,278,125751,2,0,P|473:237|468:191,1,80,8|0,0:0|0:0,0:0:0:0:
329,139,126227,6,0,P|297:162|284:199,1,80,6|0,0:0|0:0,0:0:0:0:
210,265,126703,2,0,P|177:285|137:289,1,80,8|0,0:0|0:0,0:0:0:0:
64,225,127179,2,0,P|37:298|77:364,1,160,2|8,0:0|0:0,0:0:0:0:
136,288,127893,1,0,0:0:0:0:
64,225,128132,6,0,L|102:151,1,80,2|0,0:0|0:0,0:0:0:0:
173,217,128608,2,0,L|135:287,1,80,8|0,0:0|0:0,0:0:0:0:
198,126,129084,1,2,0:0:0:0:
266,194,129322,1,0,0:0:0:0:
173,217,129560,1,8,0:0:0:0:
198,126,129798,1,0,0:0:0:0:
293,115,130036,6,0,P|346:168|330:243,1,160,2|8,0:0|0:0,0:0:0:0:
329,244,130751,1,0,0:0:0:0:
243,287,130989,2,0,P|203:293|171:315,1,80,2|0,0:0|0:0,0:0:0:0:
75,320,131465,2,0,P|46:294|31:257,1,80,8|0,0:0|0:0,0:0:0:0:
80,174,131941,6,0,P|110:201|125:238,1,80,2|0,0:0|0:0,0:0:0:0:
2,180,132417,1,12,0:0:0:0:
7,148,132536,1,0,0:0:0:0:
22,120,132655,1,2,0:0:0:0:
49,102,132774,1,0,0:0:0:0:
80,95,132893,1,6,0:0:0:0:
160,147,133132,1,0,0:0:0:0:
238,91,133370,1,8,0:0:0:0:
159,36,133608,1,0,0:0:0:0:
160,147,133846,6,0,P|186:176|225:186,1,80,2|0,0:0|0:0,0:0:0:0:
316,156,134322,2,0,P|320:197|298:245,1,80,8|0,0:0|0:0,0:0:0:0:
224,185,134798,1,2,0:0:0:0:
238,91,135036,1,0,0:0:0:0:
316,156,135274,1,8,0:0:0:0:
316,156,135512,1,0,0:0:0:0:
403,196,135751,6,0,P|378:227|340:249,1,80,6|0,0:0|0:0,0:0:0:0:
312,254,136108,1,0,0:0:0:0:
282,246,136227,2,0,P|251:270|236:306,1,80,12|0,0:0|0:0,0:0:0:0:
220,335,136584,1,0,0:0:0:0:
190,346,136703,2,0,B|166:338|166:338|161:303|137:275,1,80,6|0,0:0|0:0,0:0:0:0:
51,271,137179,2,0,P|54:311|71:347,1,80,8|0,0:0|0:0,0:0:0:0:
109,204,137655,6,0,B|76:173|35:182|35:182|32:138|67:112,1,160,2|8,0:0|0:0,0:0:0:0:
161,95,138370,1,0,0:0:0:0:
210,177,138608,2,0,P|213:216|200:254,2,80,2|0|8,0:0|0:0|0:0,0:0:0:0:
161,95,139322,1,0,0:0:0:0:
224,23,139560,6,0,L|305:12,1,80,6|0,0:0|0:0,0:0:0:0:
336,103,140036,1,8,0:0:0:0:
336,103,140274,1,0,0:0:0:0:
425,66,140512,1,6,0:0:0:0:
443,92,140632,1,0,0:0:0:0:
452,122,140751,1,2,0:0:0:0:
453,153,140870,1,0,0:0:0:0:
439,182,140989,1,12,0:0:0:0:
358,234,141227,1,0,0:0:0:0:
286,169,141465,6,0,P|317:144|356:138,1,80,6|0,0:0|0:0,0:0:0:0:
421,280,141941,2,0,P|390:305|351:311,1,80,8|0,0:0|0:0,0:0:0:0:
439,181,142417,2,0,P|476:195|502:226,2,80,2|0|8,0:0|0:0|0:0,0:0:0:0:
358,234,143132,1,0,0:0:0:0:
267,202,143370,6,0,P|259:161|273:124,1,80,2|0,0:0|0:0,0:0:0:0:
296,33,143846,1,8,0:0:0:0:
205,2,144084,1,0,0:0:0:0:
116,40,144322,2,0,P|96:113|147:170,1,160,2|8,0:0|0:0,0:0:0:0:
212,242,145036,1,0,0:0:0:0:
166,326,145274,6,0,L|86:338,1,80,2|0,0:0|0:0,0:0:0:0:
37,255,145751,2,0,L|116:242,1,80,8|0,0:0|0:0,0:0:0:0:
212,242,146227,1,2,0:0:0:0:
212,242,146465,1,0,0:0:0:0:
299,283,146703,2,0,B|334:302|334:302|374:304,1,80,8|0,0:0|0:0,0:0:0:0:
470,302,147179,5,2,0:0:0:0:
483,207,147417,1,0,0:0:0:0:
389,184,147655,1,12,0:0:0:0:
374,212,147774,1,0,0:0:0:0:
364,242,147893,1,2,0:0:0:0:
365,273,148012,1,0,0:0:0:0:
374,304,148132,1,6,0:0:0:0:
319,383,148370,1,0,0:0:0:0:
226,356,148608,2,0,L|153:320,1,80,8|0,0:0|0:0,0:0:0:0:
151,225,149084,6,0,P|184:197|236:190,1,80,2|0,0:0|0:0,0:0:0:0:
155,321,149560,2,0,P|115:317|83:295,1,80,8|0,0:0|0:0,0:0:0:0:
225,284,150036,2,0,P|235:322|224:360,1,80,2|0,0:0|0:0,0:0:0:0:
151,224,150512,1,8,0:0:0:0:
151,224,150751,1,0,0:0:0:0:
241,190,150989,5,6,0:0:0:0:
316,254,151227,1,0,0:0:0:0:
321,287,151346,1,0,0:0:0:0:
313,322,151465,1,12,0:0:0:0:
225,284,151703,1,2,0:0:0:0:
179,368,151941,1,6,0:0:0:0:
97,318,152179,2,0,L|65:273,2,40,0|0|8,0:0|0:0|0:0,0:0:0:0:
182,273,152655,1,0,0:0:0:0:
186,177,152893,5,2,0:0:0:0:
104,125,153132,1,0,0:0:0:0:
134,33,153370,2,0,L|213:42,1,80,8|0,0:0|0:0,0:0:0:0:
265,185,153846,2,0,L|186:177,1,80,2|0,0:0|0:0,0:0:0:0:
282,101,154322,1,8,0:0:0:0:
358,160,154560,1,0,0:0:0:0:
358,160,154798,6,0,P|359:198|341:233,1,80,6|0,0:0|0:0,0:0:0:0:
247,258,155274,2,0,P|245:219|264:185,1,80,8|0,0:0|0:0,0:0:0:0:
320,331,155751,1,6,0:0:0:0:
285,341,155870,1,0,0:0:0:0:
251,353,155989,1,2,0:0:0:0:
216,362,156108,1,0,0:0:0:0:
181,371,156227,1,12,0:0:0:0:
105,312,156465,1,0,0:0:0:0:
247,258,156703,5,6,0:0:0:0:
247,258,164322,5,6,0:0:0:0:
327,252,164560,2,0,L|373:245,2,40,0|0|8,0:0|0:0|0:0,0:0:0:0:
278,189,165036,1,0,0:0:0:0:
276,110,165274,1,2,0:0:0:0:
344,67,165512,1,0,0:0:0:0:
343,146,165751,2,0,P|304:137|276:110,1,80,8|0,0:0|0:0,0:0:0:0:
201,81,166227,6,0,P|158:52|120:51,1,80,2|0,0:0|0:0,0:0:0:0:
60,87,166703,1,8,0:0:0:0:
51,166,166941,1,0,0:0:0:0:
135,302,167417,1,2,0:0:0:0:
180,236,167655,1,8,0:0:0:0:
339,218,168132,6,0,L|365:248,3,40,2|0|0|0,0:0|0:0|0:0|0:0,0:0:0:0:
414,185,168608,2,0,L|451:199,3,40,8|0|0|0,0:0|0:0|0:0|0:0,0:0:0:0:
496,182,169084,1,6,0:0:0:0:
491,86,169322,1,0,0:0:0:0:
396,68,169560,1,12,0:0:0:0:
336,144,169798,1,0,0:0:0:0:
253,193,170036,6,0,P|231:193|213:186,3,40,2|0|0|0,0:0|0:0|0:0|0:0,0:0:0:0:
137,205,170512,2,0,P|146:225|157:240,3,40,8|0|0|0,0:0|0:0|0:0|0:0,0:0:0:0:
197,265,170989,1,6,0:0:0:0:
291,283,171227,2,0,P|280:321|248:345,1,80,0|8,0:0|0:0,0:0:0:0:
248,344,171703,1,0,0:0:0:0:
253,193,171941,6,0,P|298:184|331:193,1,80,6|0,0:0|0:0,0:0:0:0:
426,195,172417,2,0,P|419:149|392:119,1,80,8|0,0:0|0:0,0:0:0:0:
330,192,172893,1,2,0:0:0:0:
371,279,173132,1,0,0:0:0:0:
288,327,173370,2,0,P|249:313|215:276,1,80,8|0,0:0|0:0,0:0:0:0:
162,211,173846,6,0,L|72:224,1,80,2|0,0:0|0:0,0:0:0:0:
40,136,174322,1,8,0:0:0:0:
110,70,174560,1,0,0:0:0:0:
201,98,174798,2,0,B|277:121|277:121|353:92,1,160,2|8,0:0|0:0,0:0:0:0:
448,96,175512,1,0,0:0:0:0:
426,189,175751,6,0,L|334:223,1,80,2|0,0:0|0:0,0:0:0:0:
355,312,176227,2,0,L|430:284,1,80,8|0,0:0|0:0,0:0:0:0:
281,264,176703,2,0,P|266:311|277:353,1,80,2|0,0:0|0:0,0:0:0:0:
281,185,177179,1,8,0:0:0:0:
212,117,177417,1,0,0:0:0:0:
125,158,177655,6,0,P|91:177|48:176,1,80,2|0,0:0|0:0,0:0:0:0:
28,82,178132,1,12,0:0:0:0:
50,59,178251,1,0,0:0:0:0:
78,44,178370,1,2,0:0:0:0:
109,42,178489,1,0,0:0:0:0:
140,46,178608,1,6,0:0:0:0:
212,117,178846,1,0,0:0:0:0:
125,158,179084,1,8,0:0:0:0:
212,196,179322,1,0,0:0:0:0:
140,261,179560,6,0,L|197:335,1,80,2|0,0:0|0:0,0:0:0:0:
260,259,180036,2,0,L|212:196,1,80,8|0,0:0|0:0,0:0:0:0:
124,157,180512,2,0,P|86:167|57:193,1,80,2|0,0:0|0:0,0:0:0:0:
48,291,180989,1,8,0:0:0:0:
140,261,181227,1,0,0:0:0:0:
235,266,181465,6,0,P|257:299|264:342,1,80,6|0,0:0|0:0,0:0:0:0:
291,354,181822,1,0,0:0:0:0:
322,358,181941,2,0,L|386:296,1,80,12|0,0:0|0:0,0:0:0:0:
394,207,182417,1,6,0:0:0:0:
487,184,182655,1,0,0:0:0:0:
407,131,182893,2,0,P|390:167|394:207,1,80,8|0,0:0|0:0,0:0:0:0:
492,84,183370,5,2,0:0:0:0:
408,40,183608,1,0,0:0:0:0:
332,99,183846,1,8,0:0:0:0:
267,27,184084,1,0,0:0:0:0:
185,77,184322,2,0,P|143:88|91:86,2,80,2|0|8,0:0|0:0|0:0,0:0:0:0:
267,27,185036,1,0,0:0:0:0:
299,117,185274,6,0,L|252:195,1,80,6|0,0:0|0:0,0:0:0:0:
166,215,185751,1,8,0:0:0:0:
187,308,185989,1,0,0:0:0:0:
91,300,186227,1,6,0:0:0:0:
72,274,186346,1,0,0:0:0:0:
61,243,186465,1,2,0:0:0:0:
62,211,186584,1,0,0:0:0:0:
69,179,186703,1,8,0:0:0:0:
148,125,186941,1,0,0:0:0:0:
235,163,187179,6,0,P|256:195|291:214,1,80,6|0,0:0|0:0,0:0:0:0:
389,110,187655,2,0,P|349:111|316:133,1,80,8|0,0:0|0:0,0:0:0:0:
444,174,188132,2,0,P|471:132|419:29,1,160,2|8,0:0|0:0,0:0:0:0:
339,43,188846,1,0,0:0:0:0:
257,93,189084,6,0,P|231:124|195:139,1,80,2|0,0:0|0:0,0:0:0:0:
111,90,189560,2,0,P|136:60|173:45,1,80,8|0,0:0|0:0,0:0:0:0:
117,184,190036,2,0,P|69:179|40:152,1,80,2|0,0:0|0:0,0:0:0:0:
111,90,190512,1,8,0:0:0:0:
195,138,190751,1,0,0:0:0:0:
198,233,190989,6,0,P|209:309|278:358,1,160,2|8,0:0|0:0,0:0:0:0:
289,262,191703,1,0,0:0:0:0:
292,166,191941,2,0,L|378:148,1,80,2|0,0:0|0:0,0:0:0:0:
359,55,192417,2,0,L|445:37,1,80,8|0,0:0|0:0,0:0:0:0:
464,131,192893,6,0,P|457:189|432:224,1,80,2|0,0:0|0:0,0:0:0:0:
366,259,193370,1,12,0:0:0:0:
343,281,193489,1,0,0:0:0:0:
330,310,193608,1,2,0:0:0:0:
330,341,193727,1,0,0:0:0:0:
342,370,193846,1,6,0:0:0:0:
429,330,194084,1,0,0:0:0:0:
366,259,194322,1,8,0:0:0:0:
270,255,194560,1,0,0:0:0:0:
270,255,194798,6,0,P|231:249|200:224,1,80,2|0,0:0|0:0,0:0:0:0:
118,174,195274,2,0,P|141:143|178:129,1,80,8|0,0:0|0:0,0:0:0:0:
266,88,195751,2,0,P|280:124|274:163,1,80,2|0,0:0|0:0,0:0:0:0:
196,52,196227,1,8,0:0:0:0:
283,12,196465,1,0,0:0:0:0:
348,82,196703,6,0,L|382:168,1,80,6|0,0:0|0:0,0:0:0:0:
378,191,197060,1,0,0:0:0:0:
367,225,197179,2,0,P|333:242|280:234,1,80,12|0,0:0|0:0,0:0:0:0:
199,215,197655,2,0,P|122:224|91:294,1,160,6|8,0:0|0:0,0:0:0:0:
180,352,198370,1,0,0:0:0:0:
252,274,198608,6,0,P|273:240|276:197,1,80,2|0,0:0|0:0,0:0:0:0:
142,160,199084,2,0,P|122:194|122:234,1,80,8|0,0:0|0:0,0:0:0:0:
252,274,199560,1,2,0:0:0:0:
336,209,199798,1,0,0:0:0:0:
373,109,200036,2,0,P|346:64|311:49,1,80,8|0,0:0|0:0,0:0:0:0:
227,63,200512,6,0,P|198:92|191:134,1,80,6|0,0:0|0:0,0:0:0:0:
196,160,200870,1,0,0:0:0:0:
194,191,200989,2,0,P|150:208|101:196,1,80,8|0,0:0|0:0,0:0:0:0:
25,178,201465,1,6,0:0:0:0:
20,209,201584,1,0,0:0:0:0:
28,239,201703,1,2,0:0:0:0:
43,266,201822,1,0,0:0:0:0:
68,285,201941,1,12,0:0:0:0:
118,203,202179,1,0,0:0:0:0:
186,136,202417,6,0,L|265:131,1,80,6|0,0:0|0:0,0:0:0:0:
356,161,202893,2,0,P|385:187|400:224,1,80,8|0,0:0|0:0,0:0:0:0:
417,319,203370,2,0,P|455:305|481:275,2,80,2|0|8,0:0|0:0|0:0,0:0:0:0:
327,287,204084,1,0,0:0:0:0:
306,193,204322,6,0,P|303:148|281:112,1,80,2|0,0:0|0:0,0:0:0:0:
286,118,204798,1,8,0:0:0:0:
286,118,205036,1,0,0:0:0:0:
191,104,205274,2,0,P|194:149|216:185,1,80,2|0,0:0|0:0,0:0:0:0:
210,178,205751,1,8,0:0:0:0:
210,178,205989,1,0,0:0:0:0:
299,211,206227,6,0,P|316:226|330:249,3,40,2|0|2|0,0:0|0:0|0:0|0:0,0:0:0:0:
398,264,206703,2,0,P|401:281|411:301,3,40,8|0|8|0,0:0|0:0|0:0|0:0,0:0:0:0:
478,335,207179,2,0,P|485:296|471:259,1,80,2|0,0:0|0:0,0:0:0:0:
409,186,207655,1,8,0:0:0:0:
443,96,207893,1,0,0:0:0:0:
409,186,208132,5,2,0:0:0:0:
325,240,208370,1,0,0:0:0:0:
232,212,208608,2,0,P|192:214|158:235,1,80,8|0,0:0|0:0,0:0:0:0:
68,267,209084,1,6,0:0:0:0:
62,235,209203,1,0,0:0:0:0:
67,203,209322,1,2,0:0:0:0:
83,175,209441,1,0,0:0:0:0:
106,153,209560,1,12,0:0:0:0:
195,116,209798,5,6,0:0:0:0:
