osu file format v9

[General]
AudioFilename: T-ara - I Go Crazy Because of You.mp3
AudioLeadIn: 2000
PreviewTime: 43105
Countdown: 0
SampleSet: Soft
StackLeniency: 0.7
Mode: 0
LetterboxInBreaks: 0

[Editor]
DistanceSpacing: 0.8
BeatDivisor: 6
GridSize: 4

[Metadata]
Title:I Go Crazy Because of You
Artist:T-ara
Creator:IceBeam
Version:Hard
Source:
Tags:kurai vass_bass vass reiji-rj kpop k-pop breaking heart

[Difficulty]
HPDrainRate:6
CircleSize:4
OverallDifficulty:7
ApproachRate:8
SliderMultiplier:1.6
SliderTickRate:1

[Events]
//Background and Video events
0,0,"intercrew-wallpaper-4.jpg"
//Break Periods
2,5963,6791
2,57518,63679
2,128629,134791
//Storyboard Layer 0 (Background)
//Storyboard Layer 1 (Fail)
//Storyboard Layer 2 (Pass)
//Storyboard Layer 3 (Foreground)
//Storyboard Sound Samples
//Background Colour Transformations
3,100,163,162,255

[TimingPoints]
430,444.444444444444,4,2,0,60,1,0
5652,-100,4,2,0,20,0,0
5874,-100,4,1,0,60,0,0
12578,-100,4,1,0,45,0,0
13318,-100,4,1,0,30,0,0
14207,-100,4,1,0,60,0,0
28874,-100,4,1,0,60,0,1
28929,-100,4,1,0,60,0,0
30985,-133.333333333333,4,1,0,60,0,0
31652,-100,4,1,0,60,0,0
32763,-133.333333333333,4,1,0,60,0,0
33429,-100,4,1,0,60,0,0
35985,-100,4,1,0,60,0,1
36041,-100,4,1,0,60,0,0
38096,-133.333333333333,4,1,0,60,0,0
38874,-100,4,1,0,60,0,0
39874,-133.333333333333,4,1,0,60,0,0
40652,-100,4,1,0,60,0,0
41207,-100,4,1,0,50,0,0
41541,-100,4,1,0,40,0,0
41985,-100,4,1,0,60,0,0
43096,-100,4,1,0,60,0,1
50152,-100,4,1,0,60,0,0
50207,-100,4,1,0,60,0,1
57263,-100,4,1,0,60,0,0
57318,-100,4,1,0,60,0,1
57374,-100,4,1,0,60,0,0
64726,-100,4,2,0,50,0,0
65022,-100,4,1,0,60,0,0
66504,-100,4,2,0,50,0,0
66800,-100,4,1,0,60,0,0
68281,-100,4,2,0,50,0,0
68578,-100,4,1,0,60,0,0
70355,-100,4,1,0,40,0,0
71392,-100,4,1,0,60,0,0
85763,-100,4,1,0,60,0,1
85818,-100,4,1,0,60,0,0
87985,-133.333333333333,4,1,0,60,0,0
88578,-100,4,1,0,60,0,0
89763,-133.333333333333,4,1,0,60,0,0
90355,-100,4,1,0,60,0,0
92874,-100,4,1,0,60,0,1
92929,-100,4,1,0,60,0,0
95096,-133.333333333333,4,1,0,60,0,0
95689,-100,4,1,0,60,0,0
96874,-133.333333333333,4,1,0,60,0,0
97467,-100,4,1,0,60,0,0
98207,-100,4,1,0,40,0,0
98504,-100,4,1,0,30,0,0
98800,-100,4,1,0,20,0,0
99244,-100,4,1,0,45,0,0
99985,-100,4,1,0,60,0,1
107041,-100,4,1,0,60,0,0
107096,-100,4,1,0,60,0,1
114152,-100,4,1,0,60,0,0
114207,-100,4,1,0,60,0,1
114263,-100,4,1,0,60,0,0
114504,-133.333333333333,4,1,0,30,0,0
121318,-100,4,1,0,40,0,0
121374,-100,4,2,0,40,0,0
121707,-100,4,1,0,40,0,0
122263,-100,4,2,0,40,0,0
122596,-100,4,1,0,40,0,0
123152,-100,4,2,0,40,0,0
123485,-100,4,1,0,40,0,0
123689,-100,4,2,0,40,0,0
123874,-100,4,1,0,40,0,0
124096,-100,4,2,0,40,0,0
124374,-100,4,1,0,40,0,0
124652,-100,4,2,0,40,0,0
124763,-100,4,1,0,40,0,0
124929,-100,4,2,0,40,0,0
125263,-100,4,1,0,40,0,0
125485,-100,4,2,0,40,0,0
125707,-100,4,1,0,40,0,0
125985,-100,4,2,0,40,0,0
126096,-100,4,1,0,40,0,0
126429,-100,4,2,0,40,0,0
126541,-100,4,1,0,40,0,0
128429,-100,4,1,0,30,0,0
135689,-100,4,2,0,30,0,0
137170,-100,4,1,0,40,0,0
137467,-100,4,2,0,40,0,0
138800,-100,4,1,0,50,0,0
139244,-100,4,2,0,50,0,0
140578,-100,4,1,0,50,0,0
142652,-100,4,1,0,60,0,1
142800,-100,4,1,0,60,0,0
149763,-100,4,1,0,60,0,1
149818,-100,4,1,0,60,0,0
153263,-100,4,1,0,50,0,0
153707,-100,4,1,0,40,0,0
154096,-100,4,1,0,30,0,0
154596,-100,4,1,0,20,0,0
155096,-100,4,1,0,30,0,1
155152,-100,4,1,0,30,0,0
155541,-100,4,1,0,40,0,1
155596,-100,4,1,0,40,0,0
155985,-100,4,1,0,50,0,1
156041,-100,4,1,0,50,0,0
156429,-100,4,1,0,60,0,1
156485,-100,4,1,0,60,0,0
156874,-100,4,1,0,60,0,1
163929,-100,4,1,0,60,0,0
163985,-100,4,1,0,60,0,1
170985,-100,4,1,0,60,0,0
171096,-100,4,1,0,60,0,1
178152,-100,4,1,0,60,0,0
178207,-100,4,1,0,60,0,1
185263,-100,4,1,0,60,0,0
185318,-100,4,1,0,60,0,1
185374,-100,4,1,0,60,0,0

[Colours]
Combo1 : 241,225,29
Combo2 : 225,0,113
Combo3 : 5,72,146

[HitObjects]
40,80,430,1,0
180,120,874,1,2
320,60,1318,1,0
412,88,1615,1,0
412,88,1763,1,2
384,176,2059,1,0
384,176,2207,5,0
336,312,2652,1,2
200,280,3096,1,0
112,320,3392,1,0
112,320,3541,1,2
40,256,3837,1,0
40,256,3985,5,0
116,108,4429,1,2
272,160,4874,1,0
360,120,5170,1,0
360,120,5318,1,2
428,192,5615,1,0
428,192,5763,5,4
250,301,7541,6,0,B|296:232|248:148,1,160,4|8
160,96,8281,1,8
164,100,8429,2,0,B|180:72|228:44|292:52|340:100,1,160,0|8
348,284,9318,2,0,B|332:312|284:340|220:332|172:284,1,160,4|8
260,232,10059,1,8
264,236,10207,2,0,B|216:152|276:56,1,160,0|8
452,48,11096,5,4
432,248,11541,1,8
364,312,11837,1,8
368,316,11985,2,0,B|284:312|188:316,1,160,0|8
64,128,12874,1,4
68,132,13763,1,4
72,140,14652,5,4
288,48,15096,2,0,B|316:72|332:120|324:172|284:208,1,160,8|0
260,300,15837,1,0
264,304,15985,2,0,B|204:308|148:316,1,106.666666666667,8|0
148,328,16429,2,0,B|140:252|128:152,1,160,0|8
352,124,17318,1,0
420,204,17615,1,0
424,208,17763,2,0,B|408:268|444:328,1,106.666666666667,8|0
408,336,18207,6,0,B|352:324|292:336,1,106.666666666667
232,292,18652,2,0,B|224:236|216:184,1,106.666666666667,8|0
168,120,19096,2,0,B|144:116|112:120,2,53.3333333333333
248,108,19541,1,8
440,136,19837,1,0
444,140,19985,2,0,B|436:196|436:256,1,106.666666666667
352,308,20430,2,0,B|296:300|236:300,1,106.666666666667,8|0
180,220,20874,2,0,B|188:164|188:104,1,106.666666666667,0|0
248,32,21318,1,8
248,32,21615,1,8
248,32,21763,6,0,B|328:36|424:40,2,160,4|8|0
112,76,22948,1,0
112,76,23096,1,8
156,192,23392,1,0
160,196,23541,2,0,B|184:284|156:380,2,160,0|8|0
264,128,24726,1,0
264,128,24874,1,8
376,176,25170,1,0
380,180,25318,6,0,B|376:244|372:292,1,106.666666666667
428,348,25763,1,8
267,345,26059,2,0,B|260:292,3,53.3333333333333
208,228,26652,2,0,B|156:232|100:228,1,106.666666666667,8|0
60,140,27096,6,0,B|52:108|52:64,2,53.3333333333333,4|0|0
148,100,27541,2,0,B|156:132|156:176,2,53.3333333333333,4|0|0
256,112,27985,2,0,B|248:80|248:36,2,53.3333333333333,4|0|0
344,72,28430,2,0,B|352:104|352:148,2,53.3333333333333,4|0|0
448,108,28874,5,4
388,236,29170,1,0
392,240,29318,2,0,B|340:220|284:232,1,106.666666666667,8|0
288,244,29763,2,0,B|312:300|280:364,1,106.666666666667
204,332,30207,1,8
56,220,30504,1,0
60,224,30652,2,0,B|56:172|52:108,1,106.666666666667
76,92,31096,2,0,B|84:88|84:88|92:92|92:92|96:96|96:96|100:92|100:92|104:92|104:88|108:88|112:92|112:92|112:96|116:96|120:92|120:92|128:88|128:88|128:92|128:92|132:96|132:100|136:92|136:92|144:92|140:88|144:88|148:88|148:92|152:92|152:92|152:96|156:96|156:96|160:96|160:92|164:92|164:92|168:88|172:92|176:92|176:92|176:96|188:96|188:96|184:96,1,119.999996423721,8|0
300,44,31837,1,0
300,44,31985,1,8
392,128,32281,1,0
396,132,32430,6,0,B|396:192|408:244,1,106.666666666667
388,260,32874,2,0,B|380:264|380:264|372:260|372:260|368:256|368:256|364:260|364:260|360:260|360:264|356:264|352:260|352:260|352:256|348:256|344:260|344:260|336:264|336:264|336:260|336:260|332:256|332:252|328:260|328:260|320:260|324:264|320:264|316:264|316:260|312:260|312:260|312:256|308:256|308:256|304:256|304:260|300:260|300:260|296:264|292:260|288:260|288:260|288:256|276:256|276:256|280:256,1,119.999996423721,8|0
68,328,33763,1,8
36,224,34059,1,0
40,228,34207,2,0,B|36:144|32:68,2,160,0|8|0
192,276,35392,1,0
192,276,35541,1,8
264,112,35837,1,8
268,116,35985,6,0,B|264:56,2,53.3333333333333,4|0|0
336,164,36430,2,0,B|388:148|444:164,1,106.666666666667,8|0
436,180,36874,2,0,B|424:240|452:292,1,106.666666666667
400,348,37318,1,8
252,304,37615,1,0
256,308,37763,2,0,B|192:304|148:316,1,106.666666666667
120,304,38207,2,0,B|116:284|116:284|120:280|116:272|116:272|120:264|116:256|116:256|120:248|116:240|116:240|120:232|116:224|116:224|120:208|116:200|116:200|120:192|116:184|116:184,1,120.000004577637,8|0
200,56,38948,1,0
200,56,39096,1,8
360,96,39392,1,0
364,100,39541,6,0,B|428:104|472:92,1,106.666666666667
480,116,39985,2,0,B|484:136|484:136|480:140|484:148|484:148|480:156|484:164|484:164|480:172|484:180|484:180|480:188|484:196|484:196|480:212|484:220|484:220|480:228|484:236|484:236,1,120.000004577637
376,328,40874,1,8
224,276,41170,1,0
224,276,41318,5,0
64,336,41763,1,8
68,340,42207,2,0,B|84:296|72:232,1,106.666666666667
72,236,42652,2,0,B|56:192|68:128,1,106.666666666667,8|8
144,112,43096,5,4
368,112,43541,1,8
256,312,43985,1,0
256,192,44281,1,0
256,192,44429,1,8
256,64,44874,5,4
376,264,45318,1,8
136,264,45763,1,0
256,192,46059,1,0
256,192,46207,1,0
256,192,46652,6,0,B|232:144|248:80,1,106.666666666667,4|0
448,144,47096,2,0,B|472:192|456:256,1,106.666666666667,4|0
328,64,47541,2,0,B|376:40|440:56,1,106.666666666667,4|0
368,280,47985,2,0,B|320:304|256:288,1,106.666666666667,4|0
168,248,48429,5,4
168,248,48578,1,0
168,248,48726,1,0
168,248,48874,1,8
168,248,49022,1,0
168,248,49170,1,0
168,248,49318,1,0
168,248,49467,1,0
168,248,49615,1,0
168,248,49763,1,8
168,248,49911,1,0
168,248,50059,1,8
168,248,50207,5,4
136,56,50652,1,8
168,248,51096,1,0
152,152,51392,1,0
152,152,51541,1,8
344,136,51985,5,0
376,328,52429,1,8
344,136,52874,1,0
360,232,53170,1,0
360,232,53318,1,8
132,332,53763,6,0,B|72:324|24:344,1,106.666666666667,4|0
376,328,54207,2,0,B|436:336|484:316,1,106.666666666667,4|0
152,152,54652,2,0,B|132:204|160:256,1,106.666666666667,4|0
360,232,55096,2,0,B|380:180|352:128,1,106.666666666667,4|0
256,80,55541,5,4
256,80,55689,1,0
256,80,55837,1,0
256,80,55985,1,8
256,80,56133,1,0
256,80,56281,1,0
256,80,56429,1,0
256,80,56578,1,0
256,80,56726,1,0
256,80,56874,1,8
256,80,57022,1,0
256,80,57170,1,8
256,80,57318,5,4
84,84,64429,5,4
88,88,64874,2,0,B|80:168|104:268,1,160,4|0
200,316,65615,1,0
204,320,65763,2,0,B|260:316|312:320,1,106.666666666667,0|0
328,240,66207,2,0,B|240:240|152:244,2,160,0|4|0
424,176,67392,1,0
424,176,67541,1,0
372,68,67837,1,0
376,72,67985,6,0,B|352:116|288:140|220:112,1,160,0|4
56,84,68874,2,0,B|36:144|68:204,1,106.666666666667
60,188,69318,2,0,B|80:248|48:308,1,106.666666666667,0|0
116,344,69763,1,0
116,344,70652,1,2
312,332,70948,1,0
312,332,71096,1,2
152,144,71541,6,0,B|120:96|148:32,1,106.666666666667
220,84,71985,2,0,B|252:132|224:196,1,106.666666666667,8|0
152,228,72429,1,0
312,332,72726,1,0
312,332,72874,1,8
312,332,73022,1,0
312,332,73170,1,8
312,332,73318,2,0,B|376:328|420:328,1,106.666666666667
424,332,73763,2,0,B|436:276|420:220,1,106.666666666667,8|0
408,144,74207,1,0
264,48,74504,1,0
264,48,74652,1,8
108,124,74948,1,8
112,128,75096,6,0,B|120:216|128:300,1,160,0|8
296,344,75985,1,0
404,244,76281,1,0
408,248,76429,2,0,B|388:192|400:136,1,106.666666666667,8|8
436,68,76874,2,0,B|416:12,2,53.3333333333333
484,144,77318,1,8
288,80,77615,1,0
292,84,77763,2,0,B|240:64|176:80,1,106.666666666667,0|8
240,184,78207,2,0,B|292:204|356:188,1,106.666666666667,8|8
484,144,78652,6,0,B|480:232|472:332,1,160,4|8
264,344,79541,1,0
148,272,79837,1,0
152,276,79985,2,0,B|140:224|144:164,1,106.666666666667,8|8
104,104,80429,2,0,B|164:84|184:104|200:120|284:92,1,160,0|8
468,80,81318,1,0
456,216,81615,1,0
460,220,81763,2,0,B|460:280|452:336,1,106.666666666667,8|8
456,336,82207,5,0
280,296,82504,1,0
280,296,82652,1,8
112,344,82948,2,0,B|108:320|100:288,3,53.3333333333333
140,224,83541,1,8
192,52,83837,1,8
192,52,83985,2,0,B|248:48|308:48,1,106.666666666667
324,136,84429,2,0,B|268:136|208:140,1,106.666666666667,8|0
180,236,84874,2,0,B|248:232|300:232,1,106.666666666667,0|8
332,328,85318,1,8
332,328,85615,1,8
332,328,85763,6,0,B|276:328|212:328,1,106.666666666667,4|0
140,328,86207,1,8
128,160,86504,1,0
132,164,86652,2,0,B|188:164|244:164,1,106.666666666667
321,166,87096,1,8
44,108,87392,1,0
48,112,87541,2,0,B|28:172|64:244,1,106.666666666667
132,252,87985,2,0,B|140:248|148:252|148:252|160:248|172:252|172:252|184:244|192:252|192:252|204:248|212:252|212:252|224:248|224:248|236:252|236:252|248:248|260:256|260:256|272:244,1,119.999996423721,8|0
376,336,88726,1,0
376,336,88874,1,8
460,200,89170,1,0
464,204,89318,6,0,B|468:152|460:88,1,106.666666666667
384,64,89763,2,0,B|376:60|368:64|368:64|356:60|344:64|344:64|332:56|324:64|324:64|312:60|304:64|304:64|292:60|292:60|280:64|280:64|268:60|256:68|256:68|244:56,1,119.999996423721,8|0
80,112,90504,1,0
84,116,90652,2,0,B|112:180|76:236,1,106.666666666667,8|0
76,228,91096,2,0,B|156:180|232:236,2,160,0|8|0
284,304,92281,1,8
284,304,92429,1,8
300,84,92726,1,8
304,88,92874,6,0,B|300:56|300:20,2,53.3333333333333,4|0|0
380,128,93318,2,0,B|380:184|372:244,1,106.666666666667,8|0
380,244,93763,2,0,B|428:216|488:236,1,106.666666666667
440,308,94207,2,0,B|392:336|332:316,1,106.666666666667,8|0
292,248,94652,1,0
108,328,94948,1,0
112,332,95096,2,0,B|108:316|112:308|112:308|108:300|108:300|112:292|108:284|108:284|112:276|112:276|108:268|112:256|112:256|108:248|112:236|112:236|108:224|112:212|108:200,1,120.000004577637,8|0
80,56,95837,1,0
84,60,95985,2,0,B|140:48|192:52,1,106.666666666667,8|0
272,56,96429,5,0
432,156,96726,1,0
436,160,96874,2,0,B|432:168|436:176|436:176|432:192|432:192|436:200|432:208|432:208|436:216|436:216|432:224|436:236|436:236|432:244|436:256|436:256|432:264|436:272|436:292,1,120.000004577637,8|0
268,324,97615,1,0
272,328,97763,2,0,B|216:324|160:328,1,106.666666666667,8|0
88,276,98207,5,0
84,264,98652,1,0
80,252,99096,1,0
92,92,99392,1,8
92,92,99541,1,8
256,68,99837,1,8
256,68,99985,5,4
372,276,100429,1,8
140,276,100874,1,0
256,192,101170,1,0
256,192,101318,1,8
256,316,101763,5,4
140,108,102207,1,8
372,108,102652,1,0
256,192,102948,1,0
256,192,103096,1,8
256,192,103541,6,0,B|256:248|272:312,1,106.666666666667,4|0
460,148,103985,2,0,B|460:92|444:28,1,106.666666666667,4|0
160,252,104429,2,0,B|160:308|176:372,1,106.666666666667,4|0
364,208,104874,2,0,B|364:152|348:88,1,106.666666666667,4|0
256,100,105318,5,4
256,100,105467,1,0
256,100,105615,1,0
256,100,105763,1,8
256,100,105911,1,0
256,100,106059,1,0
256,100,106207,1,0
256,100,106355,1,0
256,100,106504,1,8
256,100,106652,1,8
256,100,106800,1,0
256,100,106948,1,8
256,100,107096,5,4
80,32,107541,1,8
112,216,107985,1,0
148,116,108281,1,0
148,116,108429,1,8
256,284,108874,5,0
432,352,109318,1,8
400,168,109763,1,0
364,268,110059,1,0
364,268,110207,1,8
364,268,110652,6,0,B|416:244|480:264,1,106.666666666667,4|0
148,304,111096,2,0,B|96:328|32:308,1,106.666666666667,4|0
204,148,111541,2,0,B|180:96|200:32,1,106.666666666667,4|0
244,248,111985,2,0,B|268:300|248:364,1,106.666666666667,4|0
148,304,112429,5,4
148,304,112578,1,0
148,304,112726,1,0
148,304,112874,1,8
148,304,113022,1,0
148,304,113170,1,0
148,304,113318,1,0
148,304,113467,1,0
148,304,113615,1,8
148,304,113763,1,8
148,304,113911,1,0
148,304,114059,1,8
148,304,114207,5,4
280,332,114652,2,0,B|340:328|408:324,1,119.999996423721,8|0
416,192,115541,1,8
416,192,115837,1,0
416,192,115985,2,0,B|356:196|288:200,1,119.999996423721,0|8
148,180,116874,1,0
188,40,117318,1,8
188,40,117615,1,0
188,40,117763,6,0,B|248:36|316:32,2,119.999996423721,0|8|0
80,144,119096,1,8
80,144,119392,1,0
80,144,119541,2,0,B|68:212|88:284,2,119.999996423721,0|8|0
208,168,120726,1,8
208,168,120874,1,8
336,144,121170,1,8
340,148,121318,6,0,B|344:76,2,53.3333333333333,0|2|2
384,224,121763,1,8
388,228,122207,2,0,B|444:224,2,53.3333333333333,0|2|2
332,296,122652,1,8
336,300,123096,2,0,B|340:372,2,53.3333333333333,0|2|2
248,272,123541,2,0,B|188:268|128:280,1,106.666666666667,8|2
56,296,123985,2,0,B|56:332|64:356,2,53.3333333333333,0|2|2
28,212,124429,2,0,B|32:160|32:100,1,106.666666666667,8|2
112,80,124874,6,0,B|104:24,2,53.3333333333333,0|2|2
200,100,125318,2,0,B|260:84|304:96,1,106.666666666667,8|2
320,88,125763,2,0,B|336:148|324:192,1,106.666666666667,0|2
328,208,126207,2,0,B|388:192|432:204,1,106.666666666667,8|2
460,336,126652,5,0
460,336,126800,1,0
460,336,126948,1,0
460,336,127096,1,0
460,336,127244,1,0
460,336,127392,1,0
460,336,127541,1,0
460,336,127689,1,0
460,336,127837,1,8
460,336,127985,1,8
460,336,128133,1,0
460,336,128281,1,8
460,336,128429,5,4
56,76,135541,5,4
212,100,135985,1,8
308,88,136281,1,8
308,88,136429,1,0
464,112,136874,1,8
468,116,137318,5,4
332,196,137763,1,8
216,180,138059,1,8
216,180,138207,1,0
60,216,138652,1,8
64,220,139096,5,4
196,308,139541,1,8
312,280,139837,1,8
312,280,139985,1,0
464,324,140429,1,8
256,136,140874,5,4
256,136,141022,1,0
256,136,141170,1,0
256,136,141318,1,0
256,136,141467,1,0
256,136,141615,1,0
256,136,141763,1,4
256,136,141911,1,0
256,136,142059,1,0
256,136,142207,1,0
256,136,142355,1,0
256,136,142504,1,0
256,136,142652,5,4
364,196,142948,1,0
368,200,143096,2,0,B|364:260|360:324,1,106.666666666667,8|0
280,320,143541,1,0
280,320,143689,1,0
280,320,143837,1,0
280,320,143985,2,0,B|208:324|144:328,1,106.666666666667,8|0
96,276,144429,2,0,B|72:232|88:168,1,106.666666666667,0|0
124,96,144874,2,0,B|188:100|236:108,1,106.666666666667,8|0
316,88,145318,1,0
316,88,145467,1,0
316,88,145615,1,0
316,88,145763,2,0,B|328:148|308:216,1,106.666666666667,8|0
300,276,146207,5,0
144,256,146504,1,0
148,260,146652,2,0,B|136:200|156:132,1,106.666666666667,8|0
124,80,147096,1,0
124,80,147244,1,0
124,80,147392,1,0
124,80,147541,2,0,B|188:72|248:72,1,106.666666666667,8|0
312,72,147985,1,0
408,184,148281,1,0
408,184,148429,1,8
344,304,148726,2,0,B|324:264|280:248|216:248|184:272,1,160,0|8
128,300,149318,1,8
132,304,149615,1,8
72,236,149763,6,0,B|64:180,2,53.3333333333333,4|0|0
152,200,150207,1,8
168,80,150504,1,0
168,80,150652,1,0
292,52,150948,1,0
292,52,151096,1,8
348,160,151392,1,0
352,164,151541,2,0,B|404:148|476:160,1,106.666666666667
464,240,151985,2,0,B|468:276|476:304,2,53.3333333333333,8|0|0
384,272,152429,1,0
256,316,152726,1,0
256,316,152874,1,8
132,256,153170,1,0
132,256,153318,5,0
132,256,153467,1,0
132,256,153615,1,0
132,256,153763,2,0,B|116:204|124:140,1,106.666666666667,8|0
140,156,154207,2,0,B|200:140|260:152,1,106.666666666667
264,160,154652,2,0,B|248:108|256:44,1,106.666666666667,8|0
280,56,155096,6,0,B|340:40|400:52,1,106.666666666667,6|0
192,92,155541,6,0,B|132:108|72:96,1,106.666666666667,6|0
352,152,155985,6,0,B|412:136|472:148,1,106.666666666667,6|8
168,208,156429,6,0,B|108:224|48:212,1,106.666666666667,14|8
100,136,156874,5,4
256,312,157318,1,8
412,136,157763,1,4
256,64,158059,1,0
256,64,158207,1,8
256,64,158652,5,4
144,280,159096,1,8
368,280,159541,1,4
256,188,159837,1,0
256,188,159985,1,8
256,188,160429,6,0,B|228:144|248:80,1,106.666666666667,4|0
316,268,160874,2,0,B|272:296|208:276,1,106.666666666667,8|0
400,212,161318,2,0,B|428:256|408:320,1,106.666666666667,4|0
336,128,161763,2,0,B|380:100|444:120,1,106.666666666667,8|0
400,212,162207,6,0,B|436:236|468:260,2,53.3333333333333,4|0|0
312,268,162652,2,0,B|328:308|340:340,2,53.3333333333333,8|0|0
200,268,163096,2,0,B|184:308|180:317,2,53.3333333333333,4|0|0
112,212,163541,2,0,B|76:236|68:242,2,53.3333333333333,8|0|8
108,112,163985,5,4
256,332,164429,1,8
404,112,164874,1,4
256,60,165170,1,0
256,60,165318,1,8
108,280,165763,5,4
256,60,166207,1,8
404,280,166652,1,4
256,332,166948,1,0
256,332,167096,1,8
256,332,167541,6,0,B|204:336|144:336,1,106.666666666667,4|0
396,192,167985,2,0,B|400:244|400:304,1,106.666666666667,8|0
256,52,168429,2,0,B|308:48|368:48,1,106.666666666667,4|0
116,192,168874,2,0,B|112:140|112:80,1,106.666666666667,8|0
256,192,169318,5,4
256,192,169467,1,0
256,192,169615,1,0
256,192,169763,1,8
256,192,169911,1,0
256,192,170059,1,0
256,192,170207,1,4
256,192,170355,1,0
256,192,170504,1,8
256,192,170652,1,8
256,192,170800,1,0
256,192,170948,1,8
256,192,171096,5,4
416,280,171541,1,8
420,88,171985,1,4
371,180,172281,1,0
371,180,172429,1,8
92,296,172874,5,4
92,104,173318,1,8
256,192,173763,1,4
144,204,174059,1,0
144,204,174207,1,8
144,204,174652,6,0,B|132:264|164:332,1,106.666666666667,4|0
368,180,175096,2,0,B|380:120|348:52,1,106.666666666667,8|0
240,236,175541,2,0,B|228:296|260:364,1,106.666666666667,4|0
464,212,175985,2,0,B|476:152|444:84,1,106.666666666667,8|0
360,76,176429,6,0,B|364:8,2,53.3333333333333,4|0|0
256,60,176874,2,0,B|260:128,2,53.3333333333333,8|0|0
332,212,177318,2,0,B|336:144,2,53.3333333333333,4|0|0
228,196,177763,2,0,B|232:264,2,53.3333333333333,0|0|8
312,308,178207,5,4
68,336,178652,1,8
312,308,179096,1,4
196,324,179392,1,0
196,324,179541,1,8
200,76,179985,5,4
444,48,180429,1,8
200,76,180874,1,4
316,60,181170,1,0
316,60,181318,1,8
316,60,181763,6,0,B|344:112|328:180,1,106.666666666667,4|0
196,324,182207,2,0,B|168:272|184:204,1,106.666666666667,8|0
404,48,182652,2,0,B|432:100|416:168,1,106.666666666667,4|0
104,344,183096,2,0,B|76:292|92:224,1,106.666666666667,8|0
256,192,183541,5,4
256,192,183689,1,0
256,192,183837,1,0
256,192,183985,1,8
256,192,184133,1,0
256,192,184281,1,0
256,192,184429,1,0
256,192,184578,1,0
256,192,184726,1,8
256,192,184874,1,8
256,192,185022,1,0
256,192,185170,1,8
256,192,185318,5,4
