osu file format v9

[General]
AudioFilename: T-ara - I Go Crazy Because of You.mp3
AudioLeadIn: 2000
PreviewTime: 43105
Countdown: 0
SampleSet: Soft
StackLeniency: 0.7
Mode: 0
LetterboxInBreaks: 0

[Editor]
DistanceSpacing: 0.8
BeatDivisor: 3
GridSize: 4

[Metadata]
Title:I Go Crazy Because of You
Artist:T-ara
Creator:IceBeam
Version:Easy
Source:
Tags:kurai vass_bass vass reiji-rj kpop k-pop breaking heart

[Difficulty]
HPDrainRate:1
CircleSize:4
OverallDifficulty:2
ApproachRate:2
SliderMultiplier:1
SliderTickRate:1

[Events]
//Background and Video events
0,0,"intercrew-wallpaper-4.jpg"
//Break Periods
2,57518,62869
2,128629,133981
//Storyboard Layer 0 (Background)
//Storyboard Layer 1 (Fail)
//Storyboard Layer 2 (Pass)
//Storyboard Layer 3 (Foreground)
//Storyboard Sound Samples
//Background Colour Transformations
3,100,163,162,255

[TimingPoints]
430,444.444444444444,4,2,0,60,1,0
5615,-100,4,2,0,20,0,0
5911,-100,4,1,0,60,0,0
12726,-100,4,1,0,45,0,0
13318,-100,4,1,0,30,0,0
14207,-100,4,1,0,60,0,0
28874,-100,4,1,0,60,0,1
28929,-100,4,1,0,60,0,0
35985,-100,4,1,0,60,0,1
36041,-100,4,1,0,60,0,0
40652,-100,4,1,0,60,0,0
41207,-100,4,1,0,50,0,0
41541,-100,4,1,0,40,0,0
41985,-100,4,1,0,60,0,0
43096,-100,4,1,0,60,0,1
50152,-100,4,1,0,60,0,0
50207,-100,4,1,0,60,0,1
57263,-100,4,1,0,60,0,0
57318,-100,4,1,0,60,0,1
57374,-100,4,1,0,60,0,0
64726,-100,4,2,0,50,0,0
65022,-100,4,1,0,60,0,0
66504,-100,4,2,0,50,0,0
66800,-100,4,1,0,60,0,0
68281,-100,4,2,0,50,0,0
68578,-100,4,1,0,60,0,0
71392,-100,4,1,0,60,0,0
85763,-100,4,1,0,60,0,1
85818,-100,4,1,0,60,0,0
92874,-100,4,1,0,60,0,1
92929,-100,4,1,0,60,0,0
98207,-100,4,1,0,40,0,0
98504,-100,4,1,0,30,0,0
98800,-100,4,1,0,20,0,0
99244,-100,4,1,0,45,0,0
99985,-100,4,1,0,60,0,1
107041,-100,4,1,0,60,0,0
107096,-100,4,1,0,60,0,1
114152,-100,4,1,0,60,0,0
114207,-100,4,1,0,60,0,1
114263,-100,4,1,0,30,0,0
121318,-100,4,1,0,40,0,0
128429,-100,4,1,0,30,0,0
135689,-100,4,2,0,30,0,0
137170,-100,4,1,0,40,0,0
137467,-100,4,2,0,40,0,0
138800,-100,4,1,0,50,0,0
139244,-100,4,2,0,50,0,0
140578,-100,4,1,0,50,0,0
142652,-100,4,1,0,60,0,1
142800,-100,4,1,0,60,0,0
149763,-100,4,1,0,60,0,1
149818,-100,4,1,0,60,0,0
153263,-100,4,1,0,50,0,0
153707,-100,4,1,0,40,0,0
154096,-100,4,1,0,30,0,0
154596,-100,4,1,0,20,0,0
155096,-100,4,1,0,30,0,1
155152,-100,4,1,0,30,0,0
155541,-100,4,1,0,40,0,1
155596,-100,4,1,0,40,0,0
155985,-100,4,1,0,50,0,1
156041,-100,4,1,0,50,0,0
156429,-100,4,1,0,60,0,1
156485,-100,4,1,0,60,0,0
156874,-100,4,1,0,60,0,1
163929,-100,4,1,0,60,0,0
163985,-100,4,1,0,60,0,1
170985,-100,4,1,0,60,0,0
171096,-100,4,1,0,60,0,1
178152,-100,4,1,0,60,0,0
178207,-100,4,1,0,60,0,1
185263,-100,4,1,0,60,0,0
185318,-100,4,1,0,60,0,1
185374,-100,4,1,0,60,0,0

[Colours]
Combo1 : 241,225,29
Combo2 : 225,0,113
Combo3 : 5,72,146

[HitObjects]
80,80,430,1,0
64,160,874,1,2
140,136,1318,1,0
276,220,2207,5,0
356,208,2652,1,2
436,196,3096,1,0
328,288,3985,5,0
248,300,4429,1,2
168,312,4874,1,0
168,312,5318,1,2
168,312,5763,1,4
72,72,7541,5,4
140,112,7985,2,0,B|176:52|264:44|316:92,1,200,8|8
392,64,9318,1,4
380,144,9763,2,0,B|320:184|328:276|384:316,1,200,8|8
312,352,11096,6,0,B|208:344,1,100,4|8
132,340,11985,1,0
116,260,12429,1,8
100,180,12874,5,4
196,52,13763,1,4
248,204,14652,5,4
248,204,15096,2,0,B|300:156|392:172|420:240,1,200,8|8
488,196,16429,2,0,B|496:144|496:96,2,100,0|8|0
488,276,17763,1,8
428,328,18207,6,0,B|328:336,1,100,0|8
344,256,19096,2,0,B|244:264,1,100,0|8
184,316,19985,1,0
120,268,20430,2,0,B|48:184|104:80,1,200,8|8
164,28,21763,5,4
240,60,22207,2,0,B|312:144|256:248,1,200,8|8
332,276,23541,2,0,B|432:268,1,100,0|8
420,348,24430,2,0,B|320:356,1,100,0|8
256,308,25318,5,0
180,276,25763,2,0,B|80:268,1,100,8|0
92,348,26652,2,0,B|192:356,1,100,8|0
256,308,27541,6,0,B|276:216|232:200|256:108,1,200,0|8
317,59,28874,6,0,B|370:58|420:56,1,100,4|8
468,120,29763,2,0,B|488:172|464:220,1,100,0|8
424,284,30652,5,0
356,244,31096,2,0,B|276:264|256:244|232:224|156:244,1,200,8|8
92,288,32430,5,0
92,288,32874,2,0,B|36:248|36:156|92:112,1,200,8|8
152,64,34207,6,0,B|250:78,3,100,0|8|0|8
316,124,35985,5,4
392,96,36430,1,8
416,172,36874,1,0
340,200,37318,1,8
260,188,37763,5,0
232,112,38207,2,0,B|152:92|132:112|108:132|32:112,1,200,8|8
36,192,39541,5,0
36,192,39985,2,0,B|116:212|136:192|160:172|236:192,1,200,8|8
304,152,41318,5,0
304,152,41763,1,8
304,152,42207,1,0
304,152,42652,1,8
304,152,43096,5,4
360,96,43541,2,0,B|404:152|360:208|360:208|360:288,1,200,8|8
400,356,44874,1,0
320,356,45318,2,0,B|276:304|188:304|140:356,1,200,8|8
76,304,46652,6,0,B|48:264|60:204,3,100,0|8|0|8
132,172,48429,6,0,B|236:184,1,100,0|8
256,108,49318,2,0,B|156:96,1,100,0|8
80,112,50207,5,4
156,96,50652,2,0,B|204:144|204:228|156:280,1,200,8|8
84,304,51985,5,0
84,304,52429,2,0,B|144:264|220:276|256:344,1,200,8|8
336,336,53763,6,0,B|432:312,3,100,4|8|0|8
508,284,55541,1,4
256,192,55689,12,4,57318
92,136,64429,5,4
172,152,64874,1,4
328,120,65763,5,0
396,80,66207,1,0
440,148,66652,1,4
336,268,67541,5,0
268,308,67985,1,0
224,240,68429,1,4
92,136,69318,5,0
172,152,69763,1,4
424,284,71541,5,4
364,336,71985,2,0,B|276:264|180:328,1,200,8|8
100,324,73318,2,0,B|72:284|44:240,1,100,0|8
72,164,74207,2,0,B|104:124|92:68,1,100,0|8
164,32,75096,6,0,B|264:40,1,100,0|8
288,116,75985,2,0,B|188:108,1,100,0|8
120,148,76874,1,0
120,148,77318,2,0,B|184:184|184:280|120:316,1,200,8|8
48,344,78652,5,4
48,344,79096,2,0,B|96:296|184:304|224:364,1,200,8|8
296,332,80429,2,0,B|340:304|396:324,1,100,0|8
472,340,81318,2,0,B|484:236,1,100,0|8
412,204,82207,6,0,B|424:96,2,100,0|8|0
332,196,83541,2,0,B|320:295,1,100,8|0
248,324,84429,1,8
252,328,85318,1,8
184,288,85763,6,0,B|140:312|88:304,1,100,4|8
100,224,86652,2,0,B|72:180|84:128,1,100,0|8
160,152,87541,1,0
160,152,87985,2,0,B|236:132|256:152|276:172|360:152,1,200,8|8
428,108,89318,5,0
428,108,89763,2,0,B|452:156|424:204|424:204|452:252|428:300,1,200,8|8
360,340,91096,6,0,B|316:320|260:332,3,100,0|8|0|8
184,344,92874,6,0,B|172:244,1,100,4|8
228,188,93763,2,0,B|328:180,1,100,0|8
408,200,94652,1,0
408,200,95096,2,0,B|460:156|460:64|408:20,1,200,8|8
340,72,96429,5,0
260,56,96874,2,0,B|184:40|160:56|136:72|60:56,1,200,8|8
16,124,98207,5,0
16,124,98652,1,0
16,124,99096,1,0
16,124,99541,1,8
16,124,99985,5,4
80,172,100429,2,0,B|132:124|220:136|256:192,1,200,8|8
256,272,101763,1,0
256,192,102207,2,0,B|292:136|380:124|432:172,1,200,8|8
492,224,103541,6,0,B|480:323,3,100,0|8|0|8
400,332,105318,1,0
352,268,105763,2,0,B|300:260|256:288|256:288|212:260|160:268,1,200,8|8
112,332,107096,5,4
80,260,107541,2,0,B|16:168|80:72,1,200,8|8
156,44,108874,5,0
224,88,109318,2,0,B|316:76|424:64,1,200,8|8
476,124,110652,6,0,B|500:168|484:224,3,100,0|8|0|8
428,280,112429,5,0
348,260,112874,2,0,B|288:268|256:232|256:232|224:268|164:260,1,200,8|8
100,312,114207,5,4
88,232,114652,2,0,B|148:136|72:48,1,200,8|8
232,72,116429,2,0,B|332:68|432:64,1,200,8|8
496,120,117763,5,0
496,120,118207,2,0,B|432:152|424:240|472:296,1,200,8|8
312,316,119985,2,0,B|204:312|108:308,1,200,8|8
40,344,121318,6,0,B|32:292|24:240,1,100,4|8
88,96,122652,1,8
144,152,123096,2,0,B|194:146|252:140,1,100,0|8
400,100,124429,5,8
448,164,124874,2,0,B|440:210|432:262,1,100,0|8
276,300,126207,2,0,B|225:305|176:311,1,100,8|4
256,192,126800,12,4,128429
84,84,135541,5,4
84,84,135985,1,8
180,212,136874,5,8
108,244,137318,1,4
180,212,137763,1,8
332,172,138652,5,8
404,140,139096,1,4
332,172,139541,1,8
428,300,140429,5,8
428,300,140874,2,0,B|376:252|284:260|248:316,2,200,4|4|4
460,228,143096,6,0,B|472:124,1,100,8|0
412,76,143985,2,0,B|380:76|312:72,1,100,8|0
284,148,144874,2,0,B|316:148|384:152,1,100,8|0
424,228,145763,1,8
424,228,146207,6,0,B|416:328,1,100,0|8
336,340,147096,1,0
268,300,147541,1,8
336,340,147985,5,0
268,300,148429,2,0,B|208:252|124:272|96:332,1,200,8|8
16,344,149763,5,4
44,268,150207,2,0,B|100:228|104:132|48:88,1,200,8|8
108,32,151541,1,0
184,56,151985,2,0,B|260:40|284:60|308:80|384:56,1,200,8|8
460,60,153318,5,0
456,140,153763,1,8
376,136,154207,1,0
380,56,154652,1,8
376,136,155096,5,4
300,160,155541,1,4
224,132,155985,1,4
148,156,156429,1,4
148,156,156874,5,4
72,128,157318,2,0,B|24:176|24:264|72:308,1,200,8|8
136,360,158652,1,0
204,316,159096,2,0,B|276:316|276:316|336:360|396:316,1,200,8|8
336,260,160429,6,0,B|328:160,3,100,4|8|0|8
256,128,162207,1,0
256,128,162652,2,0,B|216:180|120:180|80:128,1,200,8|8
16,76,163985,5,4
80,128,164429,2,0,B|88:216|96:328,1,200,8|8
176,344,165763,1,0
176,344,166207,2,0,B|272:288|368:336,1,200,8|8
444,320,167541,6,0,B|464:216,3,100,4|8|0|8
404,168,169318,5,0
480,144,169763,1,8
484,148,170652,1,8
404,168,171096,5,4
332,136,171541,2,0,B|256:148|232:136|208:124|128:136,3,200,8|8|8|8
60,168,174652,6,0,B|48:220|68:268,1,100,4|8
124,320,175541,2,0,B|228:324,1,100,0|8
244,248,176429,2,0,B|144:244,1,100,0|8
64,236,177318,1,0
64,236,177763,1,8
64,236,178207,5,4
144,244,178652,2,0,B|204:160|152:52,3,200,8|8|8|8
232,40,181763,6,0,B|332:28,1,100,4|8
344,108,182652,2,0,B|244:120,1,100,0|8
168,92,183541,1,4
256,192,183689,12,4,185318
