osu file format v7

[General]
AudioFilename: 07 Falling U.mp3
AudioLeadIn: 1500
PreviewTime: 59882
Countdown: 0
SampleSet: Normal
StackLeniency: 0.4
Mode: 0
LetterboxInBreaks: 0

[Editor]
DistanceSpacing: 1
BeatDivisor: 4
GridSize: 8

[Metadata]
Title:Falling U
Artist:T-ara
Creator:simplistiC
Version:Hard
Source:
Tags:absolute first album orioncomet

[Difficulty]
HPDrainRate:7
CircleSize:4
OverallDifficulty:7
SliderMultiplier:1.6
SliderTickRate:2

[Events]
//Background and Video events
0,0,"t-ara.jpg"
//Break Periods
2,89621,103290
2,178236,191906
//Storyboard Layer 0 (Background)
//Storyboard Layer 1 (Fail)
//Storyboard Layer 2 (Pass)
//Storyboard Layer 3 (Foreground)
//Storyboard Sound Samples
//Background Colour Transformations
3,100,163,162,255

[TimingPoints]
806,461.538461538462,4,1,1,60,1,0
921,-100,4,2,1,60,0,0
2306,-100,4,1,1,60,0,0
2536,-100,4,2,1,60,0,0
2998,-100,4,1,1,60,0,0
3229,-100,4,2,1,60,0,0
4498,-100,4,1,1,60,0,0
4613,-100,4,2,1,60,0,0
4844,-100,4,1,1,60,0,0
5075,-100,4,2,1,60,0,0
6690,-100,4,1,1,60,0,0
6921,-100,4,2,1,60,0,0
8075,-100,4,1,1,60,0,0
8306,-100,4,2,1,60,0,0
8767,-100,4,1,1,60,0,0
8998,-100,4,2,1,60,0,0
10382,-100,4,1,1,60,0,0
10613,-100,4,2,1,60,0,0
11882,-100,4,1,1,60,0,0
11998,-100,4,2,1,60,0,0
12229,-100,4,1,1,60,0,0
12459,-100,4,2,1,60,0,0
13382,-100,4,1,1,60,0,0
13613,-100,4,2,1,60,0,0
14075,-100,4,1,1,60,0,0
14306,-100,4,2,1,60,0,0
14767,-100,4,1,1,60,0,0
15229,-100,4,2,1,60,0,0
15459,-100,4,1,1,60,0,0
15690,-100,4,2,1,60,0,0
17075,-100,4,1,1,60,0,0
17306,-100,4,2,1,60,0,0
17767,-100,4,1,1,60,0,0
17998,-100,4,2,1,60,0,0
19152,-100,4,1,1,60,0,0
19382,-100,4,2,1,60,0,0
19729,-100,4,1,1,60,0,0
19844,-100,4,2,1,60,0,0
21459,-100,4,1,1,60,0,0
21690,-100,4,2,1,60,0,0
22844,-100,4,1,1,60,0,0
23075,-100,4,2,1,60,0,0
23536,-100,4,1,1,60,0,0
23767,-100,4,2,1,60,0,0
25152,-100,4,1,1,60,0,0
25382,-100,4,2,1,60,0,0
26536,-100,4,1,1,60,0,0
26767,-100,4,2,1,60,0,0
26998,-100,4,1,1,60,0,0
27229,-100,4,2,1,60,0,0
28152,-100,4,1,1,60,0,0
28382,-100,4,2,1,60,0,0
28844,-100,4,1,1,60,0,0
29075,-100,4,2,1,60,0,0
29536,-100,4,1,1,60,0,0
30459,-100,4,2,1,60,0,0
31844,-100,4,1,1,60,0,0
32075,-100,4,2,1,60,0,0
32536,-100,4,1,1,60,0,0
32767,-100,4,2,1,60,0,0
33921,-100,4,1,1,60,0,0
34152,-100,4,2,1,60,0,0
34498,-100,4,1,1,60,0,0
34613,-100,4,2,1,60,0,0
36229,-100,4,1,1,60,0,0
36459,-100,4,2,1,60,0,0
37613,-100,4,1,1,60,0,0
37844,-100,4,2,1,60,0,0
38306,-100,4,1,1,60,0,0
38536,-100,4,2,1,60,0,0
40036,-100,4,1,1,60,0,0
40152,-100,4,2,1,60,0,0
41421,-100,4,1,1,60,0,0
41536,-100,4,2,1,60,0,0
41767,-100,4,1,1,60,0,0
41998,-100,4,2,1,60,0,0
42921,-100,4,1,1,60,0,0
43152,-100,4,2,1,60,0,0
43613,-100,4,1,1,60,0,0
43844,-100,4,2,1,60,0,0
44421,-100,4,1,1,60,0,0
44536,-100,4,2,1,60,0,0
44652,-100,4,1,1,60,0,0
45229,-100,4,2,1,60,0,0
47306,-100,4,1,1,60,0,0
47536,-100,4,2,1,60,0,0
48806,-100,4,1,1,60,0,0
48921,-100,4,2,1,60,0,0
49152,-100,4,1,1,60,0,0
49382,-100,4,2,1,60,0,0
51113,-100,4,1,1,60,0,0
51229,-100,4,2,1,60,0,0
52382,-100,4,1,1,60,0,0
52613,-100,4,2,1,60,0,0
53075,-100,4,1,1,60,0,0
53306,-100,4,2,1,60,0,0
54690,-100,4,1,1,60,0,0
54921,-100,4,2,1,60,0,0
56190,-100,4,1,1,60,0,0
56306,-100,4,2,1,60,0,0
56536,-100,4,1,1,60,0,0
56767,-100,4,2,1,60,0,0
57690,-100,4,1,1,60,0,0
58498,-100,4,1,1,60,0,0
58613,-100,4,2,1,60,0,0
59767,-100,4,1,1,60,0,0
59882,-100,4,1,1,60,0,1
59998,-100,4,2,1,60,0,1
61382,-100,4,1,1,60,0,1
61613,-100,4,2,1,60,0,1
62075,-100,4,1,1,60,0,1
62306,-100,4,2,1,60,0,1
63575,-100,4,1,1,60,0,1
63690,-100,4,2,1,60,0,1
63921,-100,4,1,1,60,0,1
64152,-100,4,2,1,60,0,1
65767,-100,4,1,1,60,0,1
65998,-100,4,2,1,60,0,1
67152,-100,4,1,1,60,0,1
67382,-100,4,2,1,60,0,1
67844,-100,4,1,1,60,0,1
68075,-100,4,2,1,60,0,1
69459,-100,4,1,1,60,0,1
69690,-100,4,2,1,60,0,1
70959,-100,4,1,1,60,0,1
71075,-100,4,2,1,60,0,1
71421,-100,4,1,1,60,0,1
71536,-100,4,2,1,60,0,1
72459,-100,4,1,1,60,0,1
72690,-100,4,2,1,60,0,1
73152,-100,4,1,1,60,0,1
73382,-100,4,2,1,60,0,1
74652,-100,4,1,1,60,0,0
74767,-100,4,2,1,60,0,0
76267,-100,4,1,1,60,0,0
76382,-100,4,2,1,60,0,0
76844,-100,4,1,1,60,0,0
77075,-100,4,2,1,60,0,0
78229,-100,4,1,1,60,0,0
78459,-100,4,2,1,60,0,0
78690,-100,4,1,1,60,0,0
78921,-100,4,2,1,60,0,0
80536,-100,4,1,1,60,0,0
80767,-100,4,2,1,60,0,0
81921,-100,4,1,1,60,0,0
82152,-100,4,2,1,60,0,0
82613,-100,4,1,1,60,0,0
82844,-100,4,2,1,60,0,0
84229,-100,4,1,1,60,0,0
84459,-100,4,2,1,60,0,0
85729,-100,4,1,1,60,0,0
85844,-100,4,2,1,60,0,0
86075,-100,4,1,1,60,0,0
86306,-100,4,2,1,60,0,0
87229,-100,4,1,1,60,0,0
87459,-100,4,2,1,60,0,0
88036,-100,4,1,1,60,0,0
88152,-100,4,2,1,60,0,0
88729,-100,4,1,1,60,0,0
88844,-100,4,2,1,60,0,0
88959,-100,4,1,1,60,0,0
89075,-100,4,2,1,60,0,0
89190,-100,4,2,1,60,0,0
89306,-100,4,1,1,60,0,0
89536,-100,4,2,1,60,0,0
104075,-100,4,1,1,60,0,0
104306,-100,4,2,1,60,0,0
105690,-100,4,1,1,60,0,0
105921,-100,4,2,1,60,0,0
106382,-100,4,1,1,60,0,0
106613,-100,4,2,1,60,0,0
107767,-100,4,1,1,60,0,0
107998,-100,4,2,1,60,0,0
108229,-100,4,1,1,60,0,0
108459,-100,4,2,1,60,0,0
110075,-100,4,1,1,60,0,0
110306,-100,4,2,1,60,0,0
111575,-100,4,1,1,60,0,0
111690,-100,4,2,1,60,0,0
112267,-100,4,1,1,60,0,0
112382,-100,4,2,1,60,0,0
113767,-100,4,1,1,60,0,0
113998,-100,4,2,1,60,0,0
115267,-100,4,1,1,60,0,0
115382,-100,4,2,1,60,0,0
115729,-100,4,1,1,60,0,0
115844,-100,4,2,1,60,0,0
116767,-100,4,1,1,60,0,0
116998,-100,4,2,1,60,0,0
117459,-100,4,1,1,60,0,0
117690,-100,4,2,1,60,0,0
118267,-100,4,1,1,60,0,0
118613,-100,4,2,1,60,0,0
118844,-100,4,1,1,60,0,0
119075,-100,4,2,1,60,0,0
121152,-100,4,1,1,60,0,0
121382,-100,4,2,1,60,0,0
122652,-100,4,1,1,60,0,0
122767,-100,4,2,1,60,0,0
122998,-100,4,1,1,60,0,0
123229,-100,4,2,1,60,0,0
124959,-100,4,1,1,60,0,0
125075,-100,4,2,1,60,0,0
126229,-100,4,1,1,60,0,0
126459,-100,4,2,1,60,0,0
126921,-100,4,1,1,60,0,0
127152,-100,4,2,1,60,0,0
128652,-100,4,1,1,60,0,0
128767,-100,4,2,1,60,0,0
130036,-100,4,1,1,60,0,0
130613,-100,4,2,1,60,0,0
131536,-100,4,1,1,60,0,0
131767,-100,4,2,1,60,0,0
132229,-100,4,1,1,60,0,0
132459,-100,4,2,1,60,0,0
133613,-100,4,1,1,60,0,0
133729,-100,4,1,1,60,0,1
133844,-100,4,2,1,60,0,1
135344,-100,4,1,1,60,0,1
135459,-100,4,2,1,60,0,1
135921,-100,4,1,1,60,0,1
136152,-100,4,2,1,60,0,1
137421,-100,4,1,1,60,0,1
137536,-100,4,2,1,60,0,1
137767,-100,4,1,1,60,0,1
137998,-100,4,2,1,60,0,1
139613,-100,4,1,1,60,0,1
139844,-100,4,2,1,60,0,1
140998,-100,4,1,1,60,0,1
141229,-100,4,2,1,60,0,1
141806,-100,4,1,1,60,0,1
141921,-100,4,2,1,60,0,1
143306,-100,4,1,1,60,0,1
143536,-100,4,2,1,60,0,1
144806,-100,4,1,1,60,0,1
144921,-100,4,2,1,60,0,1
145267,-100,4,1,1,60,0,1
145382,-100,4,2,1,60,0,1
146421,-100,4,1,1,60,0,1
146536,-100,4,2,1,60,0,1
146998,-100,4,1,1,60,0,1
147229,-100,4,2,1,60,0,1
148382,-100,4,1,1,60,0,1
148498,-100,4,1,1,60,0,0
148613,-100,4,2,1,60,0,0
149998,-100,4,1,1,60,0,0
150229,-100,4,2,1,60,0,0
150690,-100,4,1,1,60,0,0
150921,-100,4,2,1,60,0,0
152190,-100,4,1,1,60,0,0
152306,-100,4,2,1,60,0,0
152536,-100,4,1,1,60,0,0
152767,-100,4,2,1,60,0,0
154036,-100,4,1,1,60,0,0
154152,-100,4,2,1,60,0,0
154382,-100,4,1,1,60,0,0
154613,-100,4,2,1,60,0,0
155882,-100,4,1,1,60,0,0
155998,-100,4,2,1,60,0,0
156459,-100,4,1,1,60,0,0
156690,-100,4,2,1,60,0,0
158075,-100,4,1,1,60,0,0
158306,-100,4,2,1,60,0,0
159459,-100,4,1,1,60,0,0
159690,-100,4,2,1,60,0,0
159921,-100,4,1,1,60,0,0
160152,-100,4,2,1,60,0,0
161075,-100,4,1,1,60,0,0
161306,-100,4,2,1,60,0,0
161767,-100,4,1,1,60,0,0
161998,-100,4,2,1,60,0,0
163152,-100,4,1,1,60,0,0
163267,-100,4,1,1,60,0,1
163382,-100,4,2,1,60,0,1
164882,-100,4,1,1,60,0,1
164998,-100,4,2,1,60,0,1
165459,-100,4,1,1,60,0,1
165690,-100,4,2,1,60,0,1
166844,-100,4,1,1,60,0,1
167075,-100,4,2,1,60,0,1
167306,-100,4,1,1,60,0,1
167536,-100,4,2,1,60,0,1
169152,-100,4,1,1,60,0,1
169382,-100,4,2,1,60,0,1
170536,-100,4,1,1,60,0,1
170767,-100,4,2,1,60,0,1
171229,-100,4,1,1,60,0,1
171459,-100,4,2,1,60,0,1
172844,-100,4,1,1,60,0,1
173075,-100,4,2,1,60,0,1
174229,-100,4,1,1,60,0,1
174459,-100,4,2,1,60,0,1
174690,-100,4,1,1,60,0,1
174921,-100,4,2,1,60,0,1
175844,-100,4,1,1,60,0,1
176075,-100,4,2,1,60,0,1
176536,-100,4,1,1,60,0,1
176767,-100,4,2,1,60,0,1
177921,-100,4,1,1,60,0,1
178036,-100,4,1,1,60,0,0
192690,-100,4,1,1,60,0,0
192921,-100,4,2,1,60,0,0
194306,-100,4,1,1,60,0,0
194536,-100,4,2,1,60,0,0
194998,-100,4,1,1,60,0,0
195229,-100,4,2,1,60,0,0
196382,-100,4,1,1,60,0,0
197075,-100,4,2,1,60,0,0
198690,-100,4,1,1,60,0,0
198921,-100,4,2,1,60,0,0
200075,-100,4,1,1,60,0,0
200306,-100,4,2,1,60,0,0
200767,-100,4,1,1,60,0,0
200998,-100,4,2,1,60,0,0
202382,-100,4,1,1,60,0,0
202613,-100,4,2,1,60,0,0
203767,-100,4,1,1,60,0,0
203998,-100,4,2,1,60,0,0
204229,-100,4,1,1,60,0,0
204459,-100,4,2,1,60,0,0
205382,-100,4,1,1,60,0,0
205613,-100,4,2,1,60,0,0
206075,-100,4,1,1,60,0,0
206306,-100,4,2,1,60,0,0
206882,-100,4,1,1,60,0,0
206998,-100,4,2,1,60,0,0
208382,-100,4,2,1,0,0,0

[Colours]
Combo1 : 187,13,14
Combo2 : 253,119,118

[HitObjects]
176,240,806,1,0
240,192,1036,1,0
176,144,1267,1,0
112,192,1498,2,0,B|16:192,2,80,0|8|0
176,240,2190,2,0,B|176:336,2,80
240,192,2882,2,0,B|352:192,1,80
400,192,3344,1,0
432,176,3459,1,0
464,160,3575,2,0,B|496:128|496:80,2,80,8|0|0
416,96,4267,5,0
384,96,4382,1,0
352,96,4498,1,0
288,144,4729,1,0
224,96,4959,1,0
160,144,5190,2,0,B|160:240,2,80,0|8|0
96,96,5882,2,0,B|96:0,2,80
96,176,6575,5,0
160,224,6806,1,0
224,272,7036,1,0
304,272,7267,5,8
320,272,7382,1,2
336,272,7498,1,2
352,272,7613,1,2
368,272,7729,2,0,B|464:272,2,80
368,192,8421,2,0,B|272:192,2,80
368,112,9113,6,0,B|304:112|288:48|224:48,1,160,8|0
144,48,9806,1,0
0,128,10267,1,0
64,192,10498,1,0
0,256,10729,1,0
72,296,10959,1,8
144,336,11190,1,0
256,192,11652,5,0
288,192,11767,1,0
320,192,11882,2,0,B|416:192,2,80
400,192,12575,5,0
400,112,12806,2,0,B|224:112,1,160,8|0
160,112,13498,1,0
16,192,13959,1,0
96,192,14190,1,0
16,192,14421,1,0
96,192,14652,1,8
160,272,14882,1,0
192,272,14998,1,0
224,272,15113,2,0,B|320:272,2,80
304,272,15806,5,0
368,224,16036,1,0
304,176,16267,1,0
240,128,16498,1,8
304,64,16729,1,0
336,64,16844,1,0
368,64,16959,1,2
448,64,17190,2,0,B|488:80|504:128|488:176|448:192,1,160
400,128,17882,2,0,B|360:144|344:192|360:240|400:256,1,160,0|8
448,192,18575,5,0
400,256,18806,1,0
352,320,19036,1,0
304,256,19267,2,0,B|256:256,3,40
224,256,19729,1,0
168,200,19959,1,0
216,136,20190,1,8
216,136,20652,5,0
272,192,20882,1,0
328,136,21113,1,0
272,80,21343,1,0
216,136,21575,2,0,B|128:136,2,80,0|0|8
272,192,22267,1,0
216,248,22498,1,0
216,248,22959,6,0,B|248:288|216:320,1,80
144,280,23421,2,0,B|112:240|144:208,1,80
64,200,23882,2,0,B|96:160|64:128,1,80,8|0
120,72,24344,2,0,B|136:32|184:16|232:32|248:72,1,160
184,120,25036,2,0,B|184:208,2,80
248,72,25729,5,8
248,152,25959,1,0
320,120,26190,1,0
320,200,26421,1,0
392,152,26652,1,0
392,232,26882,1,0
464,200,27113,1,0
464,280,27344,1,0
392,312,27575,2,0,B|224:312,1,160,8|0
152,312,28267,1,0
256,104,28729,5,0
216,176,28959,1,0
296,176,29190,1,0
312,208,29306,1,0
328,240,29421,1,8
288,312,29652,1,0
272,280,29768,1,0
256,248,29883,1,0
216,176,30113,1,0
256,104,30344,1,0
176,104,30575,5,0
136,176,30806,2,0,B|152:216|136:256,1,80
64,216,31267,2,0,B|48:256|64:296,1,80,8|0
136,256,31729,1,0
208,296,31959,1,0
280,256,32190,1,0
208,216,32421,1,0
280,176,32652,2,0,B|320:176|352:120|320:64|280:64,2,160,0|8|0
216,120,33806,5,0
256,48,34036,1,0
296,120,34267,2,0,B|344:120,2,40
256,192,34729,1,0
216,264,34959,1,8
296,264,35190,2,0,B|344:264,2,40,0|0|2
256,336,35652,1,0
112,192,36113,5,0
176,144,36344,1,0
336,144,36806,1,8
352,144,36921,1,2
368,144,37036,1,2
384,144,37152,1,2
400,144,37267,2,0,B|496:144,1,80
400,296,37729,5,0
400,296,37844,1,2
400,296,37959,1,2
400,296,38075,1,2
400,296,38190,2,0,B|496:296,2,80,0|0|8
320,296,38882,1,0
112,88,39344,5,0
112,88,39459,1,2
112,88,39575,1,2
112,88,39690,1,2
112,88,39805,2,0,B|16:88,2,80
192,88,40498,2,0,B|264:88|264:152|336:152,2,160,8|0|0
192,168,41652,1,0
256,224,41882,1,0
232,296,42113,1,0
152,296,42344,1,8
128,224,42575,1,0
192,168,42806,2,0,B|232:136|240:80,2,80
256,224,43498,5,0
328,192,43729,1,0
400,224,43959,1,0
472,192,44190,1,8
472,176,44306,1,0
472,160,44421,1,0
472,144,44536,1,0
472,128,44652,2,0,B|472:40,1,80
400,88,45113,5,0
328,264,45575,2,0,B|256:320,1,80
192,280,46036,2,0,B|264:224,1,80,8|0
240,152,46498,2,0,B|168:208,1,80
112,152,46959,1,0
176,104,47190,2,0,B|176:16,2,80
240,152,47882,1,8
304,104,48113,1,0
368,152,48344,1,0
400,232,48575,1,0
400,264,48690,1,0
400,296,48806,5,0
184,120,49267,2,0,B|256:64,1,80
320,104,49728,2,0,B|248:160,1,80,8|0
272,232,50190,2,0,B|344:176,1,80
400,232,50651,1,0
360,304,50882,1,0
360,336,50998,1,0
360,368,51113,1,0
288,336,51344,1,0
216,296,51575,1,8
184,296,51690,1,2
152,296,51806,1,2
120,296,51921,1,2
88,296,52036,1,0
120,224,52267,1,0
200,184,52498,5,0
256,240,52729,1,0
288,240,52844,1,0
320,240,52959,1,2
376,184,53190,2,0,B|392:144|376:104,1,80,0|8
304,64,53652,1,0
304,144,53882,2,0,B|232:144|232:72|144:72,1,160
88,72,54575,5,0
48,144,54806,1,0
128,144,55036,1,0
88,216,55267,1,8
128,288,55498,1,0
168,216,55729,1,0
208,144,55959,1,0
240,144,56075,1,0
272,144,56190,1,0
312,216,56421,1,0
352,144,56652,1,0
392,216,56882,2,0,B|480:216,1,80,0|8
432,288,57344,5,0
352,288,57575,1,0
272,288,57806,1,0
232,216,58036,1,0
192,288,58267,1,0
160,288,58382,1,0
128,288,58498,1,0
88,216,58729,1,0
160,184,58959,1,8
160,152,59075,1,0
160,120,59190,1,0
160,88,59306,1,8
160,56,59421,1,8
256,80,59652,1,8
352,56,59882,5,4
256,224,60344,1,0
256,320,60575,1,0
336,176,60806,5,8
336,272,61036,1,0
416,120,61267,5,0
416,216,61497,1,0
416,312,61729,1,0
496,272,61959,1,0
496,176,62190,1,0
416,120,62421,1,0
336,176,62652,2,0,B|160:176,1,160,8|0
80,176,63344,1,0
48,176,63459,1,0
80,176,63575,5,0
80,272,63806,1,0
176,272,64036,1,0
176,176,64267,1,0
240,112,64498,2,0,B|216:72|240:32,1,80,8|0
328,80,64959,2,0,B|352:120|328:160,1,80
416,232,65421,2,0,B|392:192|416:152,1,80
504,200,65882,2,0,B|528:240|504:280,1,80
416,232,66344,1,8
384,232,66459,1,0
352,232,66575,1,2
320,232,66690,1,2
288,232,66806,2,0,B|184:232,2,80
256,144,67498,5,0
184,80,67729,2,0,B|88:80,1,80
56,160,68190,2,0,B|152:160,1,80,8|0
184,80,68652,2,0,B|256:80|256:144|328:144,1,160
256,240,69344,5,0
328,304,69575,2,0,B|424:304,1,80
456,224,70036,2,0,B|360:224,1,80,8|0
328,304,70498,2,0,B|256:304|256:240|184:240,1,160
88,240,71190,5,0
80,208,71306,1,0
72,176,71421,1,0
144,104,71652,1,0
216,176,71882,1,8
288,248,72113,1,0
360,176,72344,1,0
288,104,72575,1,0
288,104,73036,5,0
360,176,73267,1,0
288,248,73498,1,0
360,320,73729,1,8
392,304,73844,1,2
424,288,73959,1,2
456,272,74075,1,2
488,256,74190,2,0,B|488:168,1,80
424,88,74652,5,0
288,184,75113,2,0,B|288:96,1,80
216,64,75575,2,0,B|216:152,1,80,8|0
144,184,76036,2,0,B|144:96,2,80
64,184,76729,1,0
144,184,76959,1,0
224,184,77190,1,0
304,184,77421,1,8
384,184,77652,1,0
464,184,77882,1,0
464,184,78113,1,0
384,264,78344,6,0,B|400:304|384:344,1,80
304,304,78806,2,0,B|288:264|304:224,1,80
208,225,79267,2,0,B|224:264|208:304,1,80,8|0
127,342,79729,2,0,B|112:304|128:264,1,80
208,304,80190,1,0
304,304,80421,1,0
256,232,80652,2,0,B|256:144,1,80
256,72,81113,2,0,B|256:24,4,40,8|2|2|2|0
256,152,81806,5,0
312,208,82036,2,0,B|304:256|256:272|208:256|200:208,1,160
256,152,82729,2,0,B|256:64,2,80,0|2|0
200,208,83421,1,0
312,208,83652,1,0
256,264,83882,5,0
200,320,84113,1,0
312,320,84344,1,0
144,376,84575,1,0
368,376,84806,1,8
200,320,85036,1,0
312,320,85267,1,0
256,264,85498,1,0
256,232,85613,1,0
256,200,85729,1,0
200,144,85959,1,0
312,144,86190,1,0
256,88,86421,1,0
200,32,86652,2,0,B|128:32|128:96|48:96,1,160,8|0
56,176,87344,5,0
56,176,87575,2,0,B|126:175|126:239|198:239,1,160
280,240,88267,1,0
360,240,88498,1,8
392,240,88613,1,0
424,240,88729,1,0
456,240,88844,1,0
488,240,88959,1,0
456,168,89190,1,0
456,312,89421,5,4
40,312,104190,5,0
112,344,104421,1,0
184,312,104652,2,0,B|184:224,1,80
256,192,105113,2,0,B|256:288,1,80,8|0
328,312,105575,2,0,B|328:224,1,80
400,192,106036,2,0,B|400:288,2,80
400,40,106729,5,0
328,72,106960,2,0,B|328:160,1,80,8|0
256,192,107421,2,0,B|256:96,1,80
184,72,107883,2,0,B|184:160,1,80
112,192,108344,2,0,B|112:96,1,80
40,72,108806,2,0,B|40:240,1,160,8|0
112,272,109498,5,0
144,272,109613,1,0
176,272,109729,1,2
248,312,109959,1,0
248,232,110190,1,0
320,272,110421,1,0
336,304,110536,1,2
360,336,110652,1,2
392,352,110767,1,2
424,352,110882,1,2
448,328,110998,1,2
472,304,111113,1,0
400,272,111344,2,0,B|400:224,2,40
400,152,111806,5,0
368,144,111921,1,2
336,152,112036,1,2
304,168,112152,1,2
272,152,112267,1,0
232,144,112382,1,0
200,152,112498,2,0,B|104:152,2,80,8|0|0
200,72,113190,2,0,B|200:24,2,40,0|0|2
112,232,113882,5,0
144,240,113997,1,2
176,232,114112,1,2
208,216,114228,1,2
240,232,114343,1,8
280,240,114458,1,0
312,232,114574,2,0,B|408:232,1,80
432,304,115036,2,0,B|336:304,1,80
256,328,115498,6,0,B|256:376,2,40
192,280,115959,1,0
144,344,116190,1,8
80,296,116421,1,0
128,232,116652,1,0
72,176,116882,2,0,B|80:128|128:112|176:128|184:176,1,160
256,216,117575,1,0
328,176,117806,1,0
360,160,117921,1,2
392,144,118036,1,2
424,128,118152,1,2
456,112,118267,2,0,B|480:72|464:32,1,80
384,56,118729,1,0
256,136,118959,5,0
96,192,119421,2,0,B|8:192,1,80
176,272,119882,2,0,B|88:272,1,80,8|0
256,352,120344,2,0,B|168:352,2,80
320,304,121036,1,0
384,352,121267,1,0
320,304,121498,1,0
320,272,121613,1,0
320,240,121729,1,8
256,192,121959,1,0
192,248,122190,1,2
192,136,122421,2,0,B|240:136,1,40
256,136,122652,5,0
416,192,123114,2,0,B|504:192,1,80
336,272,123575,2,0,B|424:272,1,80,8|0
256,352,124037,2,0,B|344:352,2,80
192,304,124729,1,0
160,304,124844,1,0
128,304,124959,1,0
64,248,125190,1,0
120,184,125421,1,8
152,184,125536,1,2
184,184,125652,1,2
216,184,125767,1,2
248,184,125882,1,0
328,184,126113,1,0
408,184,126344,1,0
328,104,126575,6,0,B|328:56,2,40
256,64,127036,1,0
184,104,127267,2,0,B|184:192,2,80,8|0|0
112,64,127959,1,0
184,280,128421,6,0,B|184:328,2,40
256,320,128882,1,0
328,280,129113,2,0,B|328:192,2,80,8|0|0
400,320,129805,1,0
432,304,129921,1,0
464,288,130036,2,0,B|464:216|400:216|400:128,1,160
400,64,130729,1,0
328,104,130959,1,8
256,64,131190,5,0
184,104,131421,1,0
112,64,131652,1,0
40,104,131882,2,0,B|16:144|40:184,1,80
112,144,132344,2,0,B|136:184|112:224,1,80
40,256,132806,1,8
64,280,132921,1,0
96,296,133036,1,0
128,296,133152,1,8
160,288,133267,1,8
216,232,133498,1,8
296,152,133729,6,0,B|368:217|440:152,1,160
368,88,134421,1,0
296,24,134652,1,8
224,88,134882,1,0
296,152,135113,2,0,B|296:248,2,80
224,216,135806,1,0
152,152,136036,1,0
224,88,136267,1,0
152,152,136498,1,8
80,88,136729,1,0
152,152,136959,1,0
224,216,137190,1,0
224,248,137306,1,0
224,280,137421,5,0
144,336,137652,1,0
88,256,137882,1,0
168,200,138113,1,0
224,280,138344,1,8
304,336,138575,1,0
360,256,138805,1,0
280,200,139036,1,0
224,120,139267,1,0
304,64,139497,1,0
360,144,139728,1,0
440,88,139959,1,0
496,168,140190,2,0,B|496:216,4,40,8|2|2|2|0
416,224,140882,1,0
360,144,141113,1,0
256,240,141344,5,0
168,280,141575,2,0,B|120:280|96:232,1,80
104,144,142036,2,0,B|152:144|176:192,1,80,8|0
168,280,142498,2,0,B|240:280|240:344|312:344,1,160
256,144,143190,5,0
344,104,143421,2,0,B|392:104|416:152,1,80
408,240,143882,2,0,B|360:240|336:192,1,80,8|0
344,104,144344,2,0,B|272:104|272:40|200:40,1,160
104,40,145036,1,0
80,64,145152,1,0
56,88,145267,1,0
136,144,145498,1,0
80,224,145729,1,8
160,280,145959,2,0,B|200:304|256:304,2,80
352,104,146882,5,0
280,168,147113,1,0
352,232,147344,1,0
280,296,147575,1,8
248,288,147690,1,2
216,280,147806,1,2
184,272,147921,1,2
152,264,148036,2,0,B|56:264,1,80
72,120,148498,5,0
216,192,148959,2,0,B|320:192,2,80,0|0|8
256,120,149652,1,0
296,48,149882,2,0,B|192:48,2,80
336,120,150575,2,0,B|424:120,2,80
256,120,151267,2,0,B|256:288,1,160,8|0
184,312,151959,1,0
152,312,152075,1,0
120,312,152190,6,0,B|56:256,1,80
88,184,152652,2,0,B|152:240,1,80
224,200,153113,2,0,B|160:144,1,80,8|0
192,72,153575,2,0,B|256:128,2,80
112,72,154267,2,0,B|24:72,2,80
152,144,154959,2,0,B|152:192,4,40,8|2|2|2|0
232,144,155652,5,0
264,144,155767,1,0
296,144,155882,2,0,B|296:216|368:216|368:288,1,160
368,360,156575,1,0
296,320,156806,1,8
224,360,157036,2,0,B|136:336|136:240,1,160
136,160,157729,6,0,B|184:160|208:208,1,80
309,197,158190,2,0,B|328:160|376:160,1,80
376,240,158652,2,0,B|357:277|309:277,1,80,8|0
201,277,159113,2,0,B|154:277|136:240,1,80
208,200,159575,1,0
256,136,159806,1,0
304,200,160036,1,0
256,264,160267,1,0
304,200,160498,2,0,B|312:248|360:264|408:248|416:200,1,160,8|0
360,144,161190,5,0
416,88,161421,2,0,B|408:40|360:24|312:40|304:88,1,160
360,144,162113,1,0
360,224,162344,1,8
352,256,162459,1,2
328,280,162575,1,2
296,296,162690,1,2
264,296,162806,1,0
280,216,163036,1,0
280,112,163267,6,0,B|216:112|216:192|144:192,1,160
48,192,163959,1,0
96,288,164190,2,0,B|112:336|160:336,1,80,8|0
152,232,164652,2,0,B|192:232|216:280,2,80
48,192,165344,1,0
48,192,165575,1,0
144,152,165806,1,0
240,192,166036,2,0,B|307:192|307:112|371:112,1,160,8|0
304,312,166959,6,0,B|387:360,1,80
448,280,167421,2,0,B|488:210,1,80
416,136,167882,2,0,B|332:88,1,80,8|0
272,168,168344,2,0,B|232:237,1,80
208,72,168806,6,0,B|124:24,1,80
64,104,169268,2,0,B|24:173,1,80
96,248,169729,2,0,B|179:296,1,80,8|0
240,216,170191,2,0,B|280:146,2,80
256,320,170882,5,0
352,280,171113,1,0
448,320,171344,1,0
352,360,171575,2,0,B|352:192,1,160,8|0
256,256,172267,1,0
256,160,172498,1,0
256,64,172729,5,0
160,104,172960,1,0
64,64,173191,1,0
160,24,173422,2,0,B|160:192,1,160,8|0
256,128,174114,1,0
256,224,174345,1,0
352,176,174575,6,0,B|448:176,2,80
336,264,175267,2,0,B|398:326,1,80,8|0
256,296,175729,2,0,B|256:384,1,80
256,88,176421,5,0
256,192,176652,1,0
176,88,176882,1,0
176,192,177113,2,0,B|176:240,4,40,8|2|2|2|0
96,88,177806,1,0
96,192,178036,5,4
256,192,192806,5,4
256,352,193267,2,0,B|352:352,1,80
360,272,193729,2,0,B|264:272,1,80,8|0
256,192,194190,1,0
232,112,194421,2,0,B|168:112|160:192|96:192,1,160
40,248,195113,1,0
96,304,195344,1,0
152,248,195575,2,0,B|216:248|224:328|288:328,1,160,8|0
224,56,196498,5,0
224,56,196959,2,0,B|200:96|224:136,1,80
384,56,197421,2,0,B|408:96|384:136,1,80,8|0
304,96,197882,1,0
304,96,198113,2,0,B|304:264,1,160
384,240,198806,1,0
360,320,199036,1,0
280,336,199267,1,8
248,320,199382,1,2
232,288,199498,1,2
224,256,199613,1,2
224,224,199729,1,0
224,144,199959,1,0
288,56,200190,5,0
288,56,200651,2,0,B|312:96|288:136,1,80
128,56,201113,2,0,B|104:96|128:136,1,80,8|0
208,96,201574,1,0
208,96,201806,2,0,B|208:264,1,160
168,328,202498,1,0
248,328,202728,1,0
288,256,202959,2,0,B|288:88,1,160,8|0
328,328,203882,5,0
328,328,204344,2,0,B|376:328|400:288,1,80
400,216,204806,2,0,B|352:216|328:256,1,80,8|0
256,288,205267,1,0
256,288,205498,2,0,B|168:288|128:200,1,160
176,136,206190,5,0
232,192,206421,1,0
304,216,206652,1,8
336,216,206767,1,0
368,208,206882,1,0
400,192,206998,1,0
424,168,207113,2,0,B|456:136|456:96,1,80
256,192,207575,12,0,208498
