osu file format v12

[General]
AudioFilename: 07.Bye Bye.mp3
AudioLeadIn: 2000
PreviewTime: 66810
Countdown: 0
SampleSet: Normal
StackLeniency: 0.7
Mode: 0
LetterboxInBreaks: 0
EpilepsyWarning: 1
WidescreenStoryboard: 0

[Editor]
DistanceSpacing: 1.21
BeatDivisor: 4
GridSize: 4

[Metadata]
Title:Bye Bye
TitleUnicode:Bye Bye
Artist:T-ara
ArtistUnicode:T-ara
Creator:Tony
Version:Normal
Source:
Tags:IceBeam Absolute First Album Breaking Heart
BeatmapID:256205
BeatmapSetID:88958

[Difficulty]
HPDrainRate:4
CircleSize:4
OverallDifficulty:4
ApproachRate:4
SliderMultiplier:1.2
SliderTickRate:2

[Events]
//Background and Video events
0,0,"tara584758.jpg",0,0
//Break Periods
2,15318,21183
2,98395,111644
2,159318,165183
//Storyboard Layer 0 (Background)
//Storyboard Layer 1 (Fail)
//Storyboard Layer 2 (Pass)
//Storyboard Layer 3 (Foreground)
Sprite,Foreground,Centre,"SB\difton.png",320,240 M,0,207003,207118,330,120,330,110 F,0,207003,207118,0,1 F,0,207118,212426,1 F,0,212426,212657,1,0
//Storyboard Sound Samples
//Background Colour Transformations
3,100,163,162,255

[TimingPoints]
349.360902255639,461.538461538462,4,1,1,65,1,0
142503,-100,4,1,1,65,0,1
158657,-100,4,1,1,65,0,0
209195,-100,4,1,1,25,0,0
210580,-100,4,1,1,5,0,0

[Colours]
Combo1 : 100,77,145
Combo2 : 38,103,27
Combo3 : 71,125,192
Combo4 : 155,68,85

[HitObjects]
64,124,349,2,0,P|116:84|180:92,1,120,4|8,0:0|0:0,0:0:0:0:
160,232,1272,2,2,P|188:296|252:304,1,120,2|8,0:0|0:0,0:0:0:0:
368,260,2195,2,0,P|400:288|404:352,2,90,4|0|0,0:0|0:0|0:0,0:0:0:0:
308,220,3118,2,2,P|304:152|356:104,1,120,2|8,0:0|0:0,0:0:0:0:
216,32,4041,6,0,P|220:100|168:148,1,120,4|8,0:0|0:0,0:0:0:0:
48,164,4964,2,2,P|64:228|124:252,1,120,2|8,0:0|0:0,0:0:0:0:
244,296,5887,2,0,L|344:328,2,90,4|0|0,0:0|0:0|0:0,0:0:0:0:
180,268,6810,2,2,P|196:212|260:152,1,120,2|8,0:0|0:0,0:0:0:0:
356,88,7733,6,0,P|320:44|244:40,1,120,4|8,0:0|0:0,0:0:0:0:
180,156,8657,2,2,P|216:200|292:204,1,120,2|8,0:0|0:0,0:0:0:0:
412,160,9580,2,0,P|456:147|505:153,2,90,4|0|0,0:0|0:0|0:0,0:0:0:0:
360,212,10503,2,2,P|344:264|380:332,1,120,2|8,0:0|0:0,0:0:0:0:
232,372,11426,6,0,P|256:313|240:261,1,120,4|8,0:0|0:0,0:0:0:0:
108,200,12349,2,2,P|84:259|100:311,1,120,2|8,0:0|0:0,0:0:0:0:
236,264,13272,2,0,P|258:216|245:174,2,90,4|0|0,0:0|0:0|0:0,0:0:0:0:
168,288,14195,2,2,P|196:324|266:329,1,120,2|8,0:0|0:0,0:0:0:0:
404,280,15118,5,2,2:0:0:0:
72,88,22503,5,4,0:0:0:0:
216,96,22964,1,0,0:0:0:0:
288,100,23195,2,0,L|412:108,1,120
436,248,24349,2,0,P|444:324|464:348,2,90,4|0|0,0:0|0:0|0:0,0:0:0:0:
480,112,25503,2,0,P|464:52|348:48,1,180,0|4,0:0|0:0,0:0:0:0:
256,136,26657,6,0,P|216:196|120:160,1,180
185,130,27580,1,0,0:0:0:0:
220,272,28041,2,0,P|256:296|304:300,2,90,4|0|0,0:0|0:0|0:0,0:0:0:0:
185,130,29195,2,0,P|224:56|312:68,1,180,0|6,0:0|0:0,0:0:0:0:
408,172,30349,5,8,0:0:0:0:
456,228,30580,2,0,P|472:260|436:340,1,120,2|0,0:0|0:0,0:0:0:0:
400,276,31272,1,8,0:0:0:0:
256,260,31733,2,0,L|256:164,2,90,2|0|2,0:0|0:0|0:0,0:0:0:0:
112,276,32887,2,0,L|124:216,1,60,0|8,0:0|0:0,0:0:0:0:
200,92,33580,6,0,P|256:74|312:92,2,120,6|8|0,0:0|0:0|0:0,0:0:0:0:
256,228,34964,1,8,0:0:0:0:
256,228,35426,2,0,P|288:280|324:288,2,90,2|0|2,0:0|0:0|0:0,0:0:0:0:
400,232,36580,2,0,P|384:156|276:144,1,180,0|2,0:0|0:0,0:0:0:0:
164,188,37733,5,2,0:0:0:0:
164,188,38426,2,0,P|184:224|312:212,2,180,0|2|2,0:0|0:0|0:0,0:0:0:0:
272,88,40272,2,0,P|376:84|424:148,1,180,0|2,0:0|0:0,0:0:0:0:
306,220,41426,5,2,0:0:0:0:
306,220,42118,2,0,P|248:272|144:252,2,180,0|2|2,0:0|0:0|0:0,0:0:0:0:
284,148,43733,2,0,P|348:156|380:200,2,120,0|2|2,0:0|0:0|0:0,0:0:0:0:
144,180,45118,5,2,0:0:0:0:
144,180,45810,2,0,P|96:220|143:316,2,180,0|2|2,0:0|0:0|0:0,0:0:0:0:
208,216,47426,1,2,0:0:0:0:
332,292,47887,1,0,0:0:0:0:
372,152,48349,1,2,0:0:0:0:
252,76,48810,5,2,0:0:0:0:
252,76,49503,2,0,P|184:80|140:124,1,120,2|2,0:0|0:0,0:0:0:0:
80,240,50426,1,2,0:0:0:0:
204,312,50887,2,0,P|272:308|316:264,1,120,2|2,0:0|0:0,0:0:0:0:
320,204,51580,1,8,0:0:0:0:
340,60,52041,6,0,L|464:48,2,120,6|8|0,0:0|0:0|0:0,0:0:0:0:
268,68,53195,2,0,L|144:80,1,120,2|2,0:0|0:0,0:0:0:0:
76,88,53887,2,0,P|40:132|72:208,1,120,2|8,0:0|0:0,0:0:0:0:
112,232,54580,2,0,P|123:290|87:334,1,120,2|2,0:0|0:0,0:0:0:0:
16,344,55272,1,0,0:0:0:0:
4,272,55503,5,2,0:0:0:0:
12,128,55964,1,2,0:0:0:0:
112,232,56426,1,0,0:0:0:0:
124,88,56887,1,2,0:0:0:0:
220,196,57349,6,0,P|276:208|328:168,1,120,2|2,0:0|0:0,0:0:0:0:
356,32,58272,2,0,P|300:20|248:60,2,120,2|2|2,0:0|0:0|0:0,0:0:0:0:
314,90,59426,6,0,P|344:120|420:120,2,120,4|8|0,0:0|0:0|0:0,0:0:0:0:
256,220,60810,1,8,0:0:0:0:
198,90,61272,2,0,P|168:120|94:121,1,120,2|8,0:0|0:0,0:0:0:0:
62,56,61964,2,0,P|34:80|34:160,1,120,2|2,0:0|0:0,0:0:0:0:
56,300,62887,6,0,P|92:302|149:246,3,120,2|0|2|0,0:0|0:0|0:0|0:0,0:0:0:0:
34,157,64733,5,2,0:0:0:0:
132,52,65195,1,2,0:0:0:0:
212,172,65656,1,0,0:0:0:0:
308,64,66118,1,2,0:0:0:0:
364,196,66579,1,2,0:0:0:0:
364,268,66810,6,0,P|412:251|436:191,2,120,4|8|0,0:0|0:0|0:0,0:0:0:0:
232,208,68195,1,8,0:0:0:0:
232,208,68426,6,0,P|120:248|124:300,1,180,2|8,0:0|0:0,0:0:0:0:
168,344,69349,2,0,P|280:304|276:252,1,180,2|8,0:0|0:0,0:0:0:0:
312,196,70272,2,0,B|336:144|336:144|372:80|440:104,1,180,2|8,0:0|0:0,0:0:0:0:
408,172,71195,2,0,B|384:224|384:224|348:288|280:264,1,180,2|8,0:0|0:0,0:0:0:0:
210,291,72118,2,0,P|239:199|311:195,1,180,2|8,0:0|0:0,0:0:0:0:
280,264,73041,2,0,L|160:128,1,180,2|8,0:0|0:0,0:0:0:0:
16,104,74195,6,0,P|0:184|24:212,1,120,4|8,0:0|0:0,0:0:0:0:
76,260,74887,2,0,P|92:180|68:152,1,120
16,104,75580,1,8,0:0:0:0:
68,52,75810,6,0,L|256:48,1,180,2|8,0:0|0:0,0:0:0:0:
264,120,76733,2,0,L|84:123,1,180,2|8,0:0|0:0,0:0:0:0:
12,124,77657,2,0,P|16:212|96:272,1,180,2|8,0:0|0:0,0:0:0:0:
152,288,78580,2,0,P|240:284|300:204,1,180,2|8,0:0|0:0,0:0:0:0:
304,148,79503,1,0,0:0:0:0:
308,76,79733,6,0,P|360:64|400:76,2,90,2|0|2,0:0|0:0|0:0,0:0:0:0:
240,104,80657,1,0,0:0:0:0:
172,76,80887,2,0,P|178:145|224:176,1,120,2|0,0:0|0:0,0:0:0:0:
276,212,81580,6,0,P|312:252|292:328,1,120,4|8,0:0|0:0,0:0:0:0:
240,277,82272,2,0,L|120:313,1,120,2|0,0:0|0:0,0:0:0:0:
52,304,82964,2,0,P|62:351|99:380,2,90,8|0|0,0:0|0:0|0:0,0:0:0:0:
60,232,83887,1,8,0:0:0:0:
76,160,84118,2,0,P|120:92|224:88,1,180,2|8,0:0|0:0,0:0:0:0:
260,220,85272,6,0,P|308:256|372:240,1,120,6|8,0:0|0:0,0:0:0:0:
380,176,85964,2,0,P|332:140|268:156,1,120,2|0,0:0|0:0,0:0:0:0:
208,172,86657,2,0,P|172:172|144:144,1,60,8|0,0:0|0:0,0:0:0:0:
148,88,87118,2,0,P|88:120|88:192,1,120,2|8,0:0|0:0,0:0:0:0:
8,172,87810,2,0,P|40:232|112:232,1,120,2|0,0:0|0:0,0:0:0:0:
160,236,88503,1,8,0:0:0:0:
184,92,88964,6,0,P|248:80|328:152,2,180,6|0|8,0:0|0:0|0:0,0:0:0:0:
160,236,90810,2,0,P|96:248|16:176,2,180,6|0|8,0:0|0:0|0:0,0:0:0:0:
284,160,92657,6,0,P|352:144|404:176,1,120,6|8,0:0|0:0,0:0:0:0:
448,212,93349,2,0,P|448:270|404:307,1,120,2|0,0:0|0:0,0:0:0:0:
332,324,94041,1,8,0:0:0:0:
188,336,94503,2,0,L|64:348,1,120,2|8,0:0|0:0,0:0:0:0:
56,276,95195,2,0,L|252:256,1,180,2|8,0:0|0:0,0:0:0:0:
256,192,96349,12,4,98195,0:0:0:0:
196,96,112964,6,0,P|236:64|304:68,1,120,4|8,0:0|0:0,0:0:0:0:
324,136,113657,2,0,P|284:168|216:164,1,120
148,152,114349,2,0,L|84:172,1,60,8|0,0:0|0:0,0:0:0:0:
20,192,114810,6,0,P|20:244|84:304,1,120,2|8,0:0|0:0,0:0:0:0:
132,312,115503,2,0,L|272:328,1,120,2|2,0:0|0:0,0:0:0:0:
324,336,116195,1,8,0:0:0:0:
396,344,116426,5,2,0:0:0:0:
376,200,116887,1,0,0:0:0:0:
324,336,117349,1,2,0:0:0:0:
304,192,117810,1,0,0:0:0:0:
252,328,118272,6,0,P|188:352|144:328,1,120,2|0,0:0|0:0,0:0:0:0:
112,188,119195,2,0,P|176:164|220:188,2,120,2|0|2,0:0|0:0|0:0,0:0:0:0:
167,240,120349,5,4,0:0:0:0:
28,284,120810,1,8,0:0:0:0:
52,140,121272,1,0,0:0:0:0:
167,240,121733,2,0,L|216:280,1,60,8|0,0:0|0:0,0:0:0:0:
224,352,122195,6,0,P|276:328|284:260,1,120,2|8,0:0|0:0,0:0:0:0:
272,200,122887,2,0,P|283:142|335:118,1,120,2|2,0:0|0:0,0:0:0:0:
408,108,123580,1,8,0:0:0:0:
384,176,123810,6,0,P|396:236|448:284,3,120,2|0|2|0,0:0|0:0|0:0|0:0,0:0:0:0:
304,340,125657,5,2,0:0:0:0:
264,200,126118,1,0,0:0:0:0:
224,340,126580,1,2,0:0:0:0:
184,200,127041,1,0,0:0:0:0:
144,340,127503,1,2,0:0:0:0:
144,340,127733,6,0,P|84:320|64:268,1,120,4|8,0:0|0:0,0:0:0:0:
80,200,128426,2,0,L|112:60,1,120
124,12,129118,1,8,0:0:0:0:
180,60,129349,6,0,P|256:102|332:60,1,180,2|8,0:0|0:0,0:0:0:0:
404,76,130272,2,0,P|380:148|292:200,1,180,2|8,0:0|0:0,0:0:0:0:
217,199,131195,2,0,P|132:148|108:76,1,180,2|8,0:0|0:0,0:0:0:0:
180,60,132118,2,0,P|256:102|332:60,1,180,2|8,0:0|0:0,0:0:0:0:
396,28,133041,2,0,L|440:220,1,180,2|8,0:0|0:0,0:0:0:0:
448,276,133964,2,0,B|408:314|355:311|355:311|278:306,1,180,2|8,0:0|0:0,0:0:0:0:
132,292,135118,6,0,P|111:229|149:187,1,120,4|8,0:0|0:0,0:0:0:0:
148,120,135810,2,0,P|200:152|210:206,1,120
208,280,136503,1,8,0:0:0:0:
204,352,136733,6,0,P|292:356|348:288,1,180,2|8,0:0|0:0,0:0:0:0:
360,220,137657,2,0,P|316:142|229:131,1,180,2|8,0:0|0:0,0:0:0:0:
164,152,138580,2,0,P|116:226|147:308,1,180,2|8,0:0|0:0,0:0:0:0:
204,352,139503,2,0,P|292:356|348:288,1,180,2|8,0:0|0:0,0:0:0:0:
360,220,140426,1,0,0:0:0:0:
326,154,140657,6,0,P|366:146|410:166,2,90,2|0|2,0:0|0:0|0:0,0:0:0:0:
260,180,141580,1,0,0:0:0:0:
192,208,141810,2,0,L|72:252,1,120,2|0,0:0|0:0,0:0:0:0:
12,272,142503,5,4,0:0:0:0:
12,128,142964,1,8,0:0:0:0:
120,32,143426,2,0,P|188:32|224:80,1,120,2|8,0:0|0:0,0:0:0:0:
292,196,144349,2,0,P|328:168|340:116,2,90,4|0|0,0:0|0:0|0:0,0:0:0:0:
220,208,145272,1,2,0:0:0:0:
116,308,145733,1,8,0:0:0:0:
48,180,146195,6,0,P|48:128|100:72,2,120,4|8|2,0:0|0:0|0:0,0:0:0:0:
116,308,147580,1,8,0:0:0:0:
220,208,148041,2,0,P|272:208|328:260,1,120,4|8,0:0|0:0,0:0:0:0:
416,360,148964,6,0,P|496:300|452:164,1,240,2|4,2:0|0:0,2:0:0:0:
340,112,150349,5,8,0:0:0:0:
200,80,150810,1,2,0:0:0:0:
100,184,151272,1,8,0:0:0:0:
92,256,151503,2,0,P|124:292|196:292,1,120,2|0,0:0|0:0,0:0:0:0:
228,232,152195,2,0,P|256:223|284:232,1,60,8|0,0:0|0:0,0:0:0:0:
319,293,152657,2,0,P|388:292|420:256,1,120,2|8,0:0|0:0,0:0:0:0:
336,136,153580,5,4,0:0:0:0:
256,16,154041,1,8,0:0:0:0:
176,136,154503,1,2,0:0:0:0:
256,256,154964,2,0,P|248:280|256:320,1,60,8|0,0:0|0:0,0:0:0:0:
320,288,155426,2,0,L|448:272,1,120,2|8,0:0|0:0,0:0:0:0:
472,132,156349,2,0,L|344:148,1,120,2|2,0:0|0:0,0:0:0:0:
256,192,157041,12,0,159118,0:0:0:0:
64,48,166503,5,4,0:0:0:0:
96,188,166964,1,8,0:0:0:0:
164,60,167426,1,0,0:0:0:0:
196,200,167887,1,8,0:0:0:0:
272,76,168349,6,0,P|352:80|396:112,1,120,2|8,0:0|0:0,0:0:0:0:
424,160,169041,2,0,P|420:240|388:284,1,120,2|2,0:0|0:0,0:0:0:0:
328,288,169733,1,8,0:0:0:0:
260,268,169964,6,0,L|132:240,1,120,2|0,0:0|0:0,0:0:0:0:
148,96,170887,2,0,L|276:124,1,120,2|0,0:0|0:0,0:0:0:0:
408,148,171810,5,2,0:0:0:0:
480,272,172272,1,2,0:0:0:0:
336,276,172733,1,0,0:0:0:0:
408,148,173195,1,2,0:0:0:0:
480,272,173657,1,2,0:0:0:0:
408,304,173887,6,0,P|376:344|292:344,1,120,4|4,0:0|0:0,0:0:0:0:
104,280,175041,2,0,P|84:248|84:212,1,60,0|8,0:0|0:0,0:0:0:0:
84,152,175503,6,0,P|104:104|220:60,1,180,2|8,0:0|0:0,0:0:0:0:
295,59,176426,2,0,P|408:104|428:152,1,180,2|8,0:0|0:0,0:0:0:0:
432,224,177349,2,0,B|408:304|336:304|336:304|288:304,1,180,2|8,0:0|0:0,0:0:0:0:
220,304,178272,2,0,B|176:304|176:304|104:304|80:224,1,180,2|8,0:0|0:0,0:0:0:0:
84,152,179195,2,0,P|104:104|220:60,1,180,2|8,0:0|0:0,0:0:0:0:
295,59,180118,2,0,P|408:104|428:152,1,180,2|8,0:0|0:0,0:0:0:0:
400,296,181272,6,0,P|356:344|300:340,1,120,4|8,0:0|0:0,0:0:0:0:
328,272,181964,2,0,L|244:168,1,120
208,120,182657,1,8,0:0:0:0:
160,64,182887,6,0,P|120:56|52:156,1,180,2|8,0:0|0:0,0:0:0:0:
52,228,183810,2,0,P|120:328|160:320,1,180,2|8,0:0|0:0,0:0:0:0:
176,248,184733,2,0,P|256:213|336:248,1,180,2|8,0:0|0:0,0:0:0:0:
352,320,185657,2,0,P|392:328|460:228,1,180,2|8,0:0|0:0,0:0:0:0:
424,164,186580,1,0,0:0:0:0:
384,104,186810,6,0,P|392:56|440:36,2,90,2|0|2,0:0|0:0|0:0,0:0:0:0:
336,160,187733,1,0,0:0:0:0:
280,204,187964,2,0,P|212:196|164:80,1,180,2|4,0:0|0:0,0:0:0:0:
20,152,189118,6,0,L|4:280,2,120,8|0|8,0:0|0:0|0:0,0:0:0:0:
32,80,190272,2,0,P|112:56|184:116,1,180,2|8,0:0|0:0,0:0:0:0:
208,180,191195,2,0,P|296:208|340:132,1,180,2|8,0:0|0:0,0:0:0:0:
268,140,192118,2,0,P|308:216|404:208,1,180,2|8,0:0|0:0,0:0:0:0:
464,200,193041,2,0,P|476:248|376:336,1,180,2|8,0:0|0:0,0:0:0:0:
324,340,193964,2,0,L|128:348,1,180,2|8,0:0|0:0,0:0:0:0:
136,276,194887,2,0,L|332:268,1,180,2|8,0:0|0:0,0:0:0:0:
448,204,196041,6,0,P|416:152|348:148,3,120,4|8|0|8,0:0|0:0|0:0|0:0,0:0:0:0:
272,260,197887,6,0,P|304:312|372:316,3,120,4|8|0|8,0:0|0:0|0:0|0:0,0:0:0:0:
440,200,199733,5,4,0:0:0:0:
328,108,200195,1,8,0:0:0:0:
184,108,200657,1,0,0:0:0:0:
72,200,201118,1,8,0:0:0:0:
205,263,201580,6,0,P|256:290|306:263,1,120,6|8,0:0|0:0,0:0:0:0:
360,312,202272,2,2,P|255:363|152:312,1,240,2|0,0:0|0:0,0:0:0:0:
132,244,203426,5,4,0:0:0:0:
256,64,204118,1,0,0:0:0:0:
256,64,204349,1,8,0:0:0:0:
380,328,205272,5,4,0:0:0:0:
256,148,205964,1,0,0:0:0:0:
256,148,206195,2,0,B|216:148|216:148|180:160|180:160|132:160,1,120,8|8,0:0|0:0,0:0:0:0:
32,60,207118,5,4,0:0:0:0:
32,276,207810,1,0,0:0:0:0:
32,276,208041,2,0,B|72:276|72:276|108:288|108:288|160:288,2,120,8|0|0,0:0|0:0|0:0,0:0:0:0:
256,192,209195,12,2,210580,2:0:0:0:
