osu file format v12

[General]
AudioFilename: 07.Bye Bye.mp3
AudioLeadIn: 2000
PreviewTime: 66810
Countdown: 0
SampleSet: Normal
StackLeniency: 0.7
Mode: 0
LetterboxInBreaks: 0
EpilepsyWarning: 1
WidescreenStoryboard: 0

[Editor]
DistanceSpacing: 1.2
BeatDivisor: 2
GridSize: 4

[Metadata]
Title:Bye Bye
TitleUnicode:Bye Bye
Artist:T-ara
ArtistUnicode:T-ara
Creator:Tony
Version:Beamsy
Source:
Tags:IceBeam Absolute First Album Breaking Heart
BeatmapID:242163
BeatmapSetID:88958

[Difficulty]
HPDrainRate:2
CircleSize:4
OverallDifficulty:2
ApproachRate:3
SliderMultiplier:0.7
SliderTickRate:1

[Events]
//Background and Video events
0,0,"tara584758.jpg",0,0
//Break Periods
2,15318,21063
2,98395,111524
2,159318,165063
//Storyboard Layer 0 (Background)
//Storyboard Layer 1 (Fail)
//Storyboard Layer 2 (Pass)
//Storyboard Layer 3 (Foreground)
Sprite,Foreground,Centre,"SB\difbeam.png",320,240 M,0,207003,207118,330,120,330,110 F,0,207003,207118,0,1 F,0,207118,212426,1 F,0,212426,212657,1,0
//Storyboard Sound Samples
//Background Colour Transformations
3,100,163,162,255

[TimingPoints]
349.360902255639,461.538461538462,4,1,1,65,1,0
142503,-100,4,1,1,65,0,1
158657,-100,4,1,1,65,0,0
208503,-100,4,1,1,25,0,0
210580,-100,4,1,1,5,0,0

[Colours]
Combo1 : 100,77,145
Combo2 : 38,103,27
Combo3 : 71,125,192
Combo4 : 155,68,85

[HitObjects]
116,64,349,1,4,0:0:0:0:
84,140,810,2,0,P|80:212|104:292,1,140,8|8,0:0|0:0,0:0:0:0:
160,332,2195,1,0,0:0:0:0:
240,304,2657,2,0,L|396:292,1,140,8|8,0:0|0:0,0:0:0:0:
460,312,4041,5,0,0:0:0:0:
436,232,4503,2,0,B|456:168|456:168|432:92,1,140,8|8,0:0|0:0,0:0:0:0:
364,56,5887,1,0,0:0:0:0:
288,96,6349,2,0,P|216:88|152:48,1,140,8|8,0:0|0:0,0:0:0:0:
76,64,7733,5,0,0:0:0:0:
68,148,8195,2,0,P|60:224|100:296,1,140,8|8,0:0|0:0,0:0:0:0:
152,332,9580,1,0,0:0:0:0:
228,296,10041,2,0,B|292:276|304:320|372:288,1,140,8|8,0:0|0:0,0:0:0:0:
448,308,11426,5,0,0:0:0:0:
420,228,11887,2,0,P|432:160|424:76,1,140,8|8,0:0|0:0,0:0:0:0:
352,52,13272,1,0,0:0:0:0:
280,96,13733,2,0,L|124:88,1,140,8|8,0:0|0:0,0:0:0:0:
56,84,15118,5,2,2:0:0:0:
236,296,22503,5,4,0:0:0:0:
176,240,22964,2,0,P|120:236|64:256,2,105,0|0|4,0:0|0:0|0:0,0:0:0:0:
236,296,24810,2,0,P|292:300|348:280,1,105
432,204,26195,5,4,0:0:0:0:
380,140,26657,2,0,P|368:92|372:24,2,105,0|0|4,0:0|0:0|0:0,0:0:0:0:
432,204,28503,2,0,P|444:252|440:320,1,105
436,348,29426,1,8,0:0:0:0:
352,340,29887,5,4,0:0:0:0:
268,332,30349,2,0,L|196:328|140:328,1,105,8|0,0:0|0:0,0:0:0:0:
120,328,31272,2,0,P|56:324|28:324,1,70,8|4,0:0|0:0,0:0:0:0:
56,240,32195,2,0,P|44:184|56:116,1,105,8|0,0:0|0:0,0:0:0:0:
60,96,33118,1,8,0:0:0:0:
132,56,33580,5,4,0:0:0:0:
208,92,34041,2,0,P|264:92|324:72,1,105,8|0,0:0|0:0,0:0:0:0:
348,96,34964,2,0,L|432:100,1,70,8|4,0:0|0:0,0:0:0:0:
448,180,35887,2,0,P|448:240|436:304,1,105,8|0,0:0|0:0,0:0:0:0:
436,328,36810,1,8,0:0:0:0:
356,356,37272,5,0,0:0:0:0:
292,300,37733,2,0,P|240:288|180:292,1,105
160,324,38657,2,0,L|64:316,1,70
64,240,39580,2,0,P|48:172|64:88,1,140
120,48,40964,5,0,0:0:0:0:
200,80,41426,2,0,P|252:64|296:36,1,105
336,48,42349,2,0,L|416:56,1,70
448,128,43272,2,0,B|464:196|464:196|432:276,1,140
372,312,44657,5,0,0:0:0:0:
292,288,45118,2,0,P|224:284|176:280,1,105
144,280,46041,2,0,L|64:276,1,70
60,192,46964,2,0,P|40:128|56:56,1,140
132,28,48349,5,0,0:0:0:0:
208,60,48810,2,0,P|260:52|308:20,1,105
344,32,49733,2,0,L|420:40,1,70
460,112,50657,2,0,B|444:156|464:184|464:184|440:208|448:256,1,140,0|8,0:0|0:0,0:0:0:0:
396,312,52041,5,4,0:0:0:0:
324,268,52503,2,0,B|260:248|248:292|180:260,1,140,8|8,0:0|0:0,0:0:0:0:
112,304,53887,1,0,0:0:0:0:
112,220,54349,2,0,P|92:156|104:80,1,140,8|8,0:0|0:0,0:0:0:0:
172,40,55733,5,0,0:0:0:0:
248,76,56195,2,0,P|316:72|376:28,1,140,8|8,0:0|0:0,0:0:0:0:
456,52,57580,1,0,0:0:0:0:
424,128,58041,2,0,P|444:196|404:268,1,140,8|8,0:0|0:0,0:0:0:0:
364,320,59426,5,4,0:0:0:0:
292,272,59887,2,0,B|260:260|248:244|248:244|208:256|152:240,1,140,8|8,0:0|0:0,0:0:0:0:
88,280,61272,1,0,0:0:0:0:
40,212,61733,2,0,B|20:144|20:144|40:64,1,140,8|8,0:0|0:0,0:0:0:0:
108,32,63118,5,0,0:0:0:0:
180,76,63580,2,0,P|240:68|312:24,1,140,8|8,0:0|0:0,0:0:0:0:
384,64,64964,1,2,2:0:0:0:
96,68,66810,5,4,0:0:0:0:
72,148,67272,2,0,P|72:196|84:272,1,105,8|0,0:0|0:0,0:0:0:0:
80,296,68195,2,0,L|152:288,1,70,8|0,0:0|0:0,0:0:0:0:
224,332,69118,2,0,P|296:316|356:260,1,140,8|8,0:0|0:0,0:0:0:0:
424,244,70503,5,0,0:0:0:0:
404,164,70964,2,0,P|412:112|408:44,1,105,8|0,0:0|0:0,0:0:0:0:
384,28,71887,2,0,L|292:24,1,70,8|0,0:0|0:0,0:0:0:0:
248,80,72810,2,0,P|176:68|112:24,1,140,8|8,0:0|0:0,0:0:0:0:
60,92,74195,5,4,0:0:0:0:
96,168,74657,2,0,P|92:228|124:280,1,105,8|0,0:0|0:0,0:0:0:0:
108,308,75580,2,0,L|184:296,1,70,8|0,0:0|0:0,0:0:0:0:
256,328,76503,2,0,B|288:304|324:320|324:320|348:296|392:308,1,140,8|8,0:0|0:0,0:0:0:0:
460,264,77887,5,0,0:0:0:0:
416,192,78349,2,0,P|424:132|416:72,1,105,8|0,0:0|0:0,0:0:0:0:
420,44,79272,2,0,L|324:36,1,70,8|0,0:0|0:0,0:0:0:0:
276,80,80195,2,0,P|200:76|128:40,1,140,8|8,0:0|0:0,0:0:0:0:
68,88,81580,5,4,0:0:0:0:
100,164,82041,2,0,P|96:224|120:280,1,105,8|0,0:0|0:0,0:0:0:0:
104,308,82964,2,0,L|196:296,1,70,8|0,0:0|0:0,0:0:0:0:
248,260,83887,2,0,P|312:268|364:288,1,105,8|0,0:0|0:0,0:0:0:0:
388,300,84810,1,8,0:0:0:0:
444,236,85272,5,0,0:0:0:0:
400,164,85733,2,0,P|408:116|396:48,1,105,8|0,0:0|0:0,0:0:0:0:
372,32,86657,2,0,L|296:36,1,70,8|0,0:0|0:0,0:0:0:0:
224,68,87580,2,0,P|164:60|112:32,1,105,8|0,0:0|0:0,0:0:0:0:
84,48,88503,1,8,0:0:0:0:
36,116,88964,5,4,0:0:0:0:
88,184,89426,2,0,P|88:264|120:332,1,140,8|8,0:0|0:0,0:0:0:0:
184,360,90810,1,4,0:0:0:0:
240,296,91272,2,0,P|240:216|208:148,1,140,8|8,0:0|0:0,0:0:0:0:
184,84,92657,5,4,0:0:0:0:
252,32,93118,2,0,P|324:36|400:40,1,140,8|8,0:0|0:0,0:0:0:0:
444,104,94503,1,4,0:0:0:0:
384,164,94964,2,0,P|312:160|236:156,1,140,8|8,0:0|0:0,0:0:0:0:
164,188,96349,6,0,L|76:196,1,70,4|4,0:0|0:0,0:0:0:0:
108,276,97272,2,0,L|196:268,1,70,4|4,0:0|0:0,0:0:0:0:
248,220,98195,5,4,0:0:0:0:
92,68,112964,5,4,0:0:0:0:
64,148,113426,2,0,P|56:224|88:292,1,140,8|8,0:0|0:0,0:0:0:0:
140,340,114810,1,0,0:0:0:0:
220,316,115272,2,0,P|296:308|364:300,1,140,8|8,0:0|0:0,0:0:0:0:
444,316,116657,5,0,0:0:0:0:
456,232,117118,2,0,B|472:164|472:164|444:92,1,140,8|8,0:0|0:0,0:0:0:0:
376,52,118503,1,0,0:0:0:0:
324,120,118964,2,0,B|260:96|248:144|188:112,1,140,8|8,0:0|0:0,0:0:0:0:
108,84,120349,5,4,0:0:0:0:
56,148,120810,2,0,P|56:224|72:288,1,140,8|8,0:0|0:0,0:0:0:0:
140,336,122195,1,0,0:0:0:0:
196,272,122657,2,0,P|196:196|180:132,1,140,8|8,0:0|0:0,0:0:0:0:
156,52,124041,5,0,0:0:0:0:
240,68,124503,2,0,L|384:52,1,140,8|8,0:0|0:0,0:0:0:0:
464,44,125887,1,2,2:0:0:0:
420,300,127733,5,4,0:0:0:0:
340,320,128195,2,0,P|292:308|248:276,1,105,8|0,0:0|0:0,0:0:0:0:
208,292,129118,2,0,L|132:284,1,70,8|0,0:0|0:0,0:0:0:0:
64,248,130041,2,0,P|48:184|56:112,1,140,8|8,0:0|0:0,0:0:0:0:
124,60,131426,5,0,0:0:0:0:
200,96,131887,2,0,P|252:88|300:56,1,105,8|0,0:0|0:0,0:0:0:0:
336,72,132810,2,0,L|416:80,1,70,8|0,0:0|0:0,0:0:0:0:
456,148,133733,2,0,B|472:220|472:220|444:280,1,140,8|8,0:0|0:0,0:0:0:0:
372,320,135118,5,4,0:0:0:0:
292,292,135580,2,0,L|168:280,1,105,8|0,0:0|0:0,0:0:0:0:
152,308,136503,2,0,P|144:272|140:236,1,70,8|0,0:0|0:0,0:0:0:0:
92,168,137426,2,0,B|104:132|92:100|92:100|116:68|116:32,1,140,8|8,0:0|0:0,0:0:0:0:
196,56,138810,5,0,0:0:0:0:
280,44,139272,2,0,P|328:36|380:16,1,105,8|0,0:0|0:0,0:0:0:0:
408,48,140195,2,0,L|500:60,1,70,8|0,0:0|0:0,0:0:0:0:
464,140,141118,2,0,P|480:208|440:280,1,140,8|8,0:0|0:0,0:0:0:0:
384,320,142503,5,4,0:0:0:0:
304,300,142964,2,0,L|220:296,1,70,8|2,0:0|0:0,0:0:0:0:
152,304,143887,2,0,B|128:240|128:240|140:164,1,140,8|8,0:0|0:0,0:0:0:0:
136,84,145272,1,2,0:0:0:0:
220,96,145733,6,0,P|284:80|344:32,1,140,8|8,0:0|0:0,0:0:0:0:
424,16,147118,1,2,0:0:0:0:
468,88,147580,2,0,P|484:156|456:224,1,140,8|8,0:0|0:0,0:0:0:0:
400,276,148964,2,0,L|252:264,1,140,2|4,2:0|0:0,0:0:0:0:
192,312,150349,5,8,0:0:0:0:
24,296,151272,1,8,0:0:0:0:
40,128,152195,1,8,0:0:0:0:
208,144,153118,1,8,0:0:0:0:
200,228,153580,5,0,0:0:0:0:
284,216,154041,1,8,0:0:0:0:
452,200,154964,1,8,0:0:0:0:
436,32,155887,1,8,0:0:0:0:
268,48,156810,1,8,0:0:0:0:
256,192,157272,12,4,159118,0:0:0:0:
440,332,166503,5,4,0:0:0:0:
360,308,166964,2,0,P|288:312|212:336,1,140,8|8,0:0|0:0,0:0:0:0:
144,352,168349,1,0,0:0:0:0:
104,280,168810,2,0,P|80:216|100:136,1,140,8|8,0:0|0:0,0:0:0:0:
156,88,170195,5,0,0:0:0:0:
232,124,170657,2,0,L|376:116,1,140,8|8,0:0|0:0,0:0:0:0:
456,116,172041,1,2,2:0:0:0:
192,324,173887,5,0,0:0:0:0:
116,292,174349,2,0,P|104:236|108:172,1,105
112,148,175272,2,0,L|204:140,1,70,4|4,0:0|0:0,0:0:0:0:
252,100,176195,2,0,B|292:88|308:60|308:60|348:68|404:48,1,140,8|8,0:0|0:0,0:0:0:0:
456,88,177580,5,0,0:0:0:0:
436,168,178041,2,0,P|448:236|428:284,1,105,8|0,0:0|0:0,0:0:0:0:
444,312,178964,2,0,P|404:304|360:300,1,70,8|0,0:0|0:0,0:0:0:0:
292,292,179887,2,0,P|224:296|140:340,1,140,8|8,0:0|0:0,0:0:0:0:
80,300,181272,5,4,0:0:0:0:
96,216,181733,2,0,P|84:168|92:100,1,105,8|0,0:0|0:0,0:0:0:0:
96,72,182657,2,0,P|148:64|172:60,1,70,8|0,0:0|0:0,0:0:0:0:
248,76,183580,2,0,B|312:48|312:48|384:64,1,140,8|8,0:0|0:0,0:0:0:0:
456,100,184964,5,0,0:0:0:0:
436,184,185426,2,0,P|436:236|420:296,1,105,8|0,0:0|0:0,0:0:0:0:
428,328,186349,2,0,P|388:320|356:316,1,70,8|0,0:0|0:0,0:0:0:0:
324,240,187272,2,0,B|264:216|244:256|168:232,1,140,8|8,0:0|0:0,0:0:0:0:
108,260,188657,5,4,0:0:0:0:
68,188,189118,2,0,P|56:136|68:80,1,105,8|0,0:0|0:0,0:0:0:0:
104,68,190041,2,0,P|144:64|184:64,1,70,8|0,0:0|0:0,0:0:0:0:
248,108,190964,2,0,P|316:100|376:56,1,140,8|8,0:0|0:0,0:0:0:0:
444,104,192349,5,0,0:0:0:0:
424,184,192810,2,0,P|428:240|412:300,1,105,8|0,0:0|0:0,0:0:0:0:
424,328,193733,2,0,L|340:320,1,70,8|0,0:0|0:0,0:0:0:0:
284,272,194657,2,0,P|272:204|284:132,1,140,8|8,0:0|0:0,0:0:0:0:
240,64,196041,5,4,0:0:0:0:
160,84,196503,2,0,P|104:76|60:56,1,105,8|0,0:0|0:0,0:0:0:0:
40,92,197426,2,0,P|44:132|52:164,1,70,8|4,0:0|0:0,0:0:0:0:
72,244,198349,2,0,P|144:244|208:276,1,140,8|8,0:0|0:0,0:0:0:0:
248,344,199733,5,4,0:0:0:0:
316,292,200195,2,0,P|372:288|424:284,1,105,8|0,0:0|0:0,0:0:0:0:
456,308,201118,2,0,P|464:264|464:232,1,70,8|4,0:0|0:0,0:0:0:0:
448,156,202041,2,0,P|376:148|284:140,1,140,8|8,0:0|0:0,0:0:0:0:
224,132,203426,6,0,P|180:112|140:68,1,105,4|0,0:0|0:0,0:0:0:0:
100,80,204349,1,8,0:0:0:0:
52,240,205272,2,0,P|52:296|68:348,1,105,4|0,0:0|0:0,0:0:0:0:
104,364,206195,2,0,P|164:356|184:356,1,70,8|8,0:0|0:0,0:0:0:0:
256,356,207118,5,4,0:0:0:0:
256,192,208041,1,8,0:0:0:0:
256,192,208503,12,0,210580,0:0:0:0:
