osu file format v13

[General]
AudioFilename: T-ara - Bo Peep Bo Peep.mp3
AudioLeadIn: 0
PreviewTime: -1
Countdown: 1
SampleSet: None
StackLeniency: 0.7
Mode: 0
LetterboxInBreaks: 1
WidescreenStoryboard: 1

[Editor]
DistanceSpacing: 1.3
BeatDivisor: 4
GridSize: 4
TimelineZoom: 2.7

[Metadata]
Title:Bo Peep Bo Peep
TitleUnicode:Bo Peep Bo Peep
Artist:T-ara
ArtistUnicode:T-ara
Creator:[-mii-chan-]
Version:K-08
Source:
Tags:
BeatmapID:440685
BeatmapSetID:182387

[Difficulty]
HPDrainRate:8
CircleSize:4
OverallDifficulty:6
ApproachRate:9
SliderMultiplier:1.4
SliderTickRate:2

[Events]
//Background and Video events
0,0,"BG.jpg",0,0
//Break Periods
2,90255,93439
2,154239,166447
//Storyboard Layer 0 (Background)
//Storyboard Layer 1 (Fail)
//Storyboard Layer 2 (Pass)
//Storyboard Layer 3 (Foreground)
//Storyboard Sound Samples
//Background Colour Transformations
3,100,128,255,128

[TimingPoints]
290,468.75,4,2,0,100,1,0
14821,-100,4,2,0,46,0,0
15245,-100,4,2,0,100,0,0
20915,-66.6666666666667,4,2,0,100,0,0
44681,-50,4,2,0,42,0,0
45407,-66.6666666666667,4,2,0,100,0,0
45450,-66.6666666666667,4,2,0,100,0,0
60140,-50,4,2,0,100,0,1
70016,-66.6666666666667,4,2,0,100,0,1
74704,-58.8235294117647,4,2,0,100,0,1
88415,-100,4,2,0,100,0,1
90148,-100,4,2,0,100,0,0
93805,-66.6666666666667,4,2,0,100,0,0
108445,-52.6315789473684,4,2,0,100,0,0
123566,-50,4,2,0,100,0,0
123957,-50,4,2,0,100,0,1
154183,-50,4,2,0,100,0,0
184040,-50,4,2,0,100,0,1

[Colours]
Combo1 : 0,179,89
Combo2 : 0,202,0
Combo3 : 23,249,153

[HitObjects]
88,52,289,6,2,B|80:112|112:128|76:136|72:236|80:184,1,140
64,236,992,1,8,0:0:0:0:
132,296,1227,1,8,0:0:0:0:
268,308,1696,1,2,0:0:0:0:
302,308,1813,1,2,0:0:0:0:
337,309,1930,1,2,0:0:0:0:
372,310,2048,1,2,0:0:0:0:
448,172,2399,1,8,0:0:0:0:
244,40,2633,5,2,0:0:0:0:
128,176,2868,1,8,0:0:0:0:
376,112,3102,1,2,0:0:0:0:
232,280,3336,1,8,0:0:0:0:
376,304,3571,2,4,P|404:248|448:176,1,140
392,112,4508,2,2,L|232:112,1,140
92,124,5563,5,8,0:0:0:0:
92,120,5680,1,8,0:0:0:0:
95,122,5797,1,8,0:0:0:0:
232,296,6149,1,0,0:0:0:0:
254,193,6383,1,0,0:0:0:0:
254,190,6501,1,0,0:0:0:0:
258,192,6618,1,0,0:0:0:0:
252,16,6852,2,0,B|264:64|268:64|248:64|252:88|280:104|260:104|248:112|256:160,1,140
255,153,7555,1,0,0:0:0:0:
120,344,7790,5,0,0:0:0:0:
240,344,8024,1,0,0:0:0:0:
340,276,8258,1,0,0:0:0:0:
360,96,8493,2,0,L|304:140,1,70
264,140,8961,1,0,0:0:0:0:
100,88,9196,1,0,0:0:0:0:
212,36,9430,1,0,0:0:0:0:
360,92,9665,1,0,0:0:0:0:
428,184,9899,1,0,0:0:0:0:
348,272,10133,2,0,L|288:328,1,70
168,336,10602,5,0,0:0:0:0:
52,272,10836,1,0,0:0:0:0:
88,144,11071,1,0,0:0:0:0:
308,204,11305,1,0,0:0:0:0:
328,112,11540,1,0,0:0:0:0:
160,240,11774,1,0,0:0:0:0:
264,320,12008,1,0,0:0:0:0:
376,288,12243,1,0,0:0:0:0:
472,216,12477,1,0,0:0:0:0:
476,104,12711,6,0,L|396:56,1,70
232,104,13180,1,0,0:0:0:0:
108,196,13415,1,0,0:0:0:0:
254,193,13649,1,0,0:0:0:0:
254,190,13766,1,0,0:0:0:0:
258,192,13883,1,0,0:0:0:0:
248,340,14118,1,0,0:0:0:0:
416,336,14352,1,0,0:0:0:0:
425,302,14469,1,0,0:0:0:0:
434,268,14586,1,0,0:0:0:0:
443,234,14703,1,0,0:0:0:0:
456,184,14821,6,0,B|416:176|380:176|380:180,1,70
312,188,15290,1,0,0:0:0:0:
192,80,15524,1,0,0:0:0:0:
64,144,15758,1,0,0:0:0:0:
156,316,15992,1,0,0:0:0:0:
272,280,16227,1,0,0:0:0:0:
288,176,16461,1,0,0:0:0:0:
392,208,16696,2,0,P|452:196|432:120,1,140
340,80,17399,1,0,0:0:0:0:
32,88,17633,5,0,0:0:0:0:
84,192,17868,1,0,0:0:0:0:
88,320,18102,1,0,0:0:0:0:
104,324,18337,2,0,L|176:344,1,70
320,92,19040,5,0,0:0:0:0:
388,144,19274,1,0,0:0:0:0:
472,112,19508,1,0,0:0:0:0:
404,36,19743,1,0,0:0:0:0:
116,224,19977,1,0,0:0:0:0:
40,280,20211,1,0,0:0:0:0:
104,328,20446,1,0,0:0:0:0:
180,316,20680,1,0,0:0:0:0:
152,40,20915,6,0,P|84:88|68:136,1,105.000004005432
320,332,21383,2,0,P|388:300|400:244,1,105.000004005432
244,192,22086,1,0,0:0:0:0:
244,192,22555,1,0,0:0:0:0:
244,186,22673,1,0,0:0:0:0:
248,189,22790,1,0,0:0:0:0:
60,56,23024,6,0,L|176:56,1,105.000004005432
172,120,23493,1,0,0:0:0:0:
344,280,23727,1,0,0:0:0:0:
240,200,23961,1,0,0:0:0:0:
152,288,24196,2,0,L|32:288,1,105.000004005432
352,48,24665,2,0,P|364:124|392:140,1,105.000004005432
148,48,25133,2,0,P|152:120|96:144,1,105.000004005432
252,60,25602,1,0,0:0:0:0:
252,164,25836,1,0,0:0:0:0:
348,292,26071,2,0,P|248:244|132:316,1,210.000008010865
52,112,26774,5,0,0:0:0:0:
144,112,27008,1,0,0:0:0:0:
104,216,27243,1,0,0:0:0:0:
256,224,27477,1,0,0:0:0:0:
400,120,27711,2,0,L|248:120,1,105.000004005432
184,120,28180,1,0,0:0:0:0:
35,119,28415,5,0,0:0:0:0:
62,164,28532,1,0,0:0:0:0:
96,204,28649,1,0,0:0:0:0:
87,253,28766,1,0,0:0:0:0:
114,298,28883,1,0,0:0:0:0:
120,340,29000,1,0,0:0:0:0:
168,360,29118,2,0,L|232:344,2,52.5000020027161,0|0|0,0:0|0:0|0:0,0:0:0:0:
420,340,29586,2,0,L|432:200,1,105.000004005432
416,352,30055,6,0,L|432:208,1,105.000004005432
304,140,30524,5,0,0:0:0:0:
408,184,30758,1,0,0:0:0:0:
448,96,30993,1,0,0:0:0:0:
324,28,31227,2,0,P|216:52|108:24,1,210.000008010865
92,128,31930,1,0,0:0:0:0:
128,312,32165,1,0,0:0:0:0:
376,312,32633,1,0,0:0:0:0:
248,192,32868,1,0,0:0:0:0:
400,188,33102,1,0,0:0:0:0:
272,328,33336,1,0,0:0:0:0:
452,340,33571,1,0,0:0:0:0:
120,344,34039,5,0,0:0:0:0:
220,312,34274,1,0,0:0:0:0:
160,220,34508,1,0,0:0:0:0:
240,184,34743,1,0,0:0:0:0:
132,120,34977,2,0,L|344:48,1,210.000008010865
412,84,35680,1,0,0:0:0:0:
300,48,35914,1,0,0:0:0:0:
196,128,36383,1,0,0:0:0:0:
256,204,36618,1,0,0:0:0:0:
332,296,36852,1,0,0:0:0:0:
188,344,37086,2,0,L|60:344,1,105.000004005432
256,172,37790,5,0,0:0:0:0:
256,256,38024,1,0,0:0:0:0:
252,340,38258,1,0,0:0:0:0:
356,340,38493,2,0,L|492:340,1,105.000004005432
376,264,39196,1,0,0:0:0:0:
280,176,39430,1,0,0:0:0:0:
76,264,39664,1,0,0:0:0:0:
136,168,40133,1,0,0:0:0:0:
224,264,40367,1,0,0:0:0:0:
292,80,40602,1,0,0:0:0:0:
404,320,40836,1,0,0:0:0:0:
456,64,41071,1,0,0:0:0:0:
456,64,41539,6,0,L|344:140,1,105.000004005432
316,160,42008,1,0,0:0:0:0:
184,72,42243,1,0,0:0:0:0:
64,144,42477,2,0,L|176:144,1,105.000004005432
244,152,42946,1,0,0:0:0:0:
184,72,43414,1,0,0:0:0:0:
248,152,43649,1,0,0:0:0:0:
312,280,43883,1,0,0:0:0:0:
272,216,44117,1,0,0:0:0:0:
104,200,44352,1,0,0:0:0:0:
184,248,44587,1,0,0:0:0:0:
104,312,44821,2,0,P|212:316|416:332,1,280
416,324,45524,5,0,0:0:0:0:
472,256,45758,1,0,0:0:0:0:
472,148,45993,1,0,0:0:0:0:
432,36,46227,2,0,B|384:76|368:88|324:64|296:40|288:24|284:16|264:16|248:8|232:12,1,210.000008010865
96,44,46930,1,0,0:0:0:0:
36,176,47164,2,0,B|160:136|196:176|264:176,1,210.000008010865
344,208,47867,1,0,0:0:0:0:
156,320,48102,1,0,0:0:0:0:
216,88,48336,1,0,0:0:0:0:
280,248,48571,1,0,0:0:0:0:
64,168,48805,1,0,0:0:0:0:
324,168,49040,2,0,B|268:172|212:168|208:144|284:156|272:232|228:192|148:156,5,210.000008010865
88,168,51852,5,0,0:0:0:0:
260,268,52087,1,0,0:0:0:0:
424,352,52321,1,0,0:0:0:0:
424,352,52790,1,0,0:0:0:0:
480,240,53024,1,0,0:0:0:0:
380,116,53258,2,0,P|308:164|260:156,1,105.000004005432
152,148,53727,1,0,0:0:0:0:
160,152,54196,1,0,0:0:0:0:
240,276,54430,1,0,0:0:0:0:
380,280,54665,1,0,0:0:0:0:
468,164,54899,1,0,0:0:0:0:
264,104,55133,1,0,0:0:0:0:
104,128,55367,6,0,P|64:192|128:280,1,157.500006008148
240,288,55836,2,0,L|236:56,1,210.000008010865
256,192,56657,12,0,58415,0:0:0:0:
124,104,59352,5,0,0:0:0:0:
124,98,59469,1,0,0:0:0:0:
128,101,59586,1,0,0:0:0:0:
220,196,59821,2,0,L|144:284,1,105.000004005432
48,332,60290,2,0,P|184:300|328:352,1,262.500010013581
424,256,60992,1,0,0:0:0:0:
456,120,61227,2,0,B|332:36|168:64,1,280
84,120,61930,1,0,0:0:0:0:
208,196,62164,1,0,0:0:0:0:
76,120,62399,1,0,0:0:0:0:
284,288,62633,1,0,0:0:0:0:
80,128,62868,1,0,0:0:0:0:
112,320,63102,1,0,0:0:0:0:
204,324,63571,5,0,0:0:0:0:
316,328,63805,1,0,0:0:0:0:
448,328,64040,1,0,0:0:0:0:
320,72,64508,1,0,0:0:0:0:
200,72,64743,1,0,0:0:0:0:
84,92,64977,1,0,0:0:0:0:
192,264,65446,2,0,L|332:264,1,140
352,284,65914,1,0,0:0:0:0:
244,196,66149,1,0,0:0:0:0:
280,332,66383,1,0,0:0:0:0:
424,232,66617,1,0,0:0:0:0:
140,80,66852,1,0,0:0:0:0:
400,72,67204,5,0,0:0:0:0:
400,65,67321,1,0,0:0:0:0:
344,164,67555,2,0,L|232:256,1,140
224,264,68258,1,0,0:0:0:0:
236,256,68492,2,0,L|364:144,2,140
200,280,69196,1,0,0:0:0:0:
32,176,69430,1,0,0:0:0:0:
256,152,69665,1,0,0:0:0:0:
368,64,69899,1,0,0:0:0:0:
224,32,70133,2,0,P|104:28|24:104,1,210.000008010865
36,180,70837,1,0,0:0:0:0:
120,240,71071,1,0,0:0:0:0:
208,304,71305,1,0,0:0:0:0:
448,344,71540,5,0,0:0:0:0:
448,344,71774,1,0,0:0:0:0:
448,344,72008,1,0,0:0:0:0:
132,96,72477,1,0,0:0:0:0:
132,96,72711,1,0,0:0:0:0:
132,96,72946,1,0,0:0:0:0:
400,248,73415,1,0,0:0:0:0:
400,242,73532,1,0,0:0:0:0:
404,245,73649,1,0,0:0:0:0:
400,248,73766,1,0,0:0:0:0:
396,240,73883,1,0,0:0:0:0:
292,96,74118,1,0,0:0:0:0:
228,240,74352,1,0,0:0:0:0:
68,56,74586,1,0,0:0:0:0:
200,144,74821,2,0,P|144:220|104:192,1,119.000002269745
83,154,75290,5,0,0:0:0:0:
80,268,75524,1,0,0:0:0:0:
232,204,75759,1,0,0:0:0:0:
236,92,75993,1,0,0:0:0:0:
376,176,76228,1,0,0:0:0:0:
288,272,76521,1,0,0:0:0:0:
128,192,76755,1,0,0:0:0:0:
208,84,76930,1,0,0:0:0:0:
280,176,77165,2,0,P|360:136|384:196,1,119.000002269745
192,280,77633,2,0,P|124:224|100:256,1,119.000002269745
304,292,78102,1,0,0:0:0:0:
140,164,78336,1,0,0:0:0:0:
288,208,78571,2,0,L|448:228,1,119.000002269745
248,324,79040,5,0,0:0:0:0:
252,216,79274,1,0,0:0:0:0:
260,108,79508,1,0,0:0:0:0:
384,192,79743,1,0,0:0:0:0:
248,324,79977,1,0,0:0:0:0:
252,216,80211,1,0,0:0:0:0:
260,108,80446,1,0,0:0:0:0:
112,208,80680,1,0,0:0:0:0:
256,248,80915,2,0,L|376:336,1,119.000002269745
364,200,81383,2,0,L|240:96,1,119.000002269745
56,184,82086,1,0,0:0:0:0:
432,192,82555,1,0,0:0:0:0:
248,32,82790,6,0,L|248:176,1,119.000002269745
132,316,83258,1,0,0:0:0:0:
376,328,83493,1,0,0:0:0:0:
252,328,83727,2,0,L|252:192,1,119.000002269745
384,36,84196,1,0,0:0:0:0:
120,32,84430,1,0,0:0:0:0:
36,124,84665,1,0,0:0:0:0:
80,268,84899,1,0,0:0:0:0:
192,116,85133,1,0,0:0:0:0:
268,272,85368,1,0,0:0:0:0:
332,184,85602,1,0,0:0:0:0:
420,116,85836,1,0,0:0:0:0:
284,60,86071,2,0,L|48:60,1,178.500003404617
64,88,86540,1,0,0:0:0:0:
76,224,86774,6,0,L|160:352,1,119.000002269745
160,352,87243,1,0,0:0:0:0:
264,280,87477,2,0,L|392:160,1,119.000002269745
404,160,87946,1,0,0:0:0:0:
472,56,88180,1,0,0:0:0:0:
336,52,88415,1,0,0:0:0:0:
302,62,88532,1,0,0:0:0:0:
268,69,88649,1,0,0:0:0:0:
233,72,88766,1,0,0:0:0:0:
198,70,88883,1,0,0:0:0:0:
164,63,89000,1,0,0:0:0:0:
130,53,89118,1,0,0:0:0:0:
252,188,89587,5,0,0:0:0:0:
252,188,90055,5,0,0:0:0:0:
32,80,94039,6,0,P|96:44|152:56,1,105
204,108,94508,1,0,0:0:0:0:
308,76,94743,1,0,0:0:0:0:
440,24,94977,2,0,B|448:80|476:124|420:168|440:252,2,210.000008010865,0|0|0,0:0|0:0|0:0,0:0:0:0:
456,128,96383,1,0,0:0:0:0:
312,216,96617,1,0,0:0:0:0:
104,112,96852,1,0,0:0:0:0:
304,104,97086,1,0,0:0:0:0:
160,256,97321,1,0,0:0:0:0:
460,332,97789,5,0,0:0:0:0:
404,252,98024,1,0,0:0:0:0:
284,312,98258,1,0,0:0:0:0:
160,180,98493,2,0,L|40:180,1,105.000004005432
208,56,99196,2,0,L|324:56,2,105.000004005432,0|0|0,0:0|0:0|0:0,0:0:0:0:
352,192,100133,1,0,0:0:0:0:
256,48,100368,1,0,0:0:0:0:
144,204,100602,1,0,0:0:0:0:
256,48,100836,1,0,0:0:0:0:
352,192,101071,1,0,0:0:0:0:
456,292,101539,6,0,B|456:336|328:340,1,105.000004005432,0|0,0:0|0:0,0:0:0:0:
200,284,102008,1,0,0:0:0:0:
40,128,102242,2,0,P|72:56|136:44,1,105.000004005432,0|0,0:0|0:0,0:0:0:0:
172,116,102711,1,0,0:0:0:0:
248,72,102946,1,0,0:0:0:0:
324,128,103180,1,0,0:0:0:0:
400,76,103415,1,0,0:0:0:0:
312,184,103883,1,0,0:0:0:0:
88,64,104118,1,0,0:0:0:0:
88,160,104352,1,0,0:0:0:0:
88,260,104586,1,0,0:0:0:0:
180,336,104821,1,0,0:0:0:0:
400,32,105290,6,0,P|416:120|392:148,1,105.000004005432,0|0,0:0|0:0,0:0:0:0:
160,28,105758,2,0,P|96:88|124:120,1,105.000004005432
344,136,106227,1,0,0:0:0:0:
136,132,106461,1,0,0:0:0:0:
408,136,106696,1,0,0:0:0:0:
64,100,107164,6,0,P|64:168|44:236,1,105.000004005432
304,112,107633,2,0,P|344:200|356:220,1,105.000004005432
180,212,108102,2,0,L|184:320,1,105.000004005432,0|0,0:0|0:0,0:0:0:0:
224,344,108571,2,0,B|336:352|432:364|480:336|488:272,1,265.999992897034
480,256,109274,5,0,0:0:0:0:
424,132,109508,1,0,0:0:0:0:
284,48,109743,1,0,0:0:0:0:
172,152,109977,2,0,P|72:236|160:312,1,265.999992897034
248,312,110680,1,0,0:0:0:0:
348,328,110915,2,0,P|432:240|328:148,1,265.999992897034
248,144,111617,1,0,0:0:0:0:
148,60,111852,1,0,0:0:0:0:
148,53,111969,1,0,0:0:0:0:
153,56,112086,1,0,0:0:0:0:
36,140,112321,1,0,0:0:0:0:
136,224,112555,1,0,0:0:0:0:
288,304,112790,6,0,B|424:216|368:272|348:264|340:232|340:204|324:208|288:256|328:300|384:292|424:188,6,265.999992897034,0|0|0|0|0|0|0,0:0|0:0|0:0|0:0|0:0|0:0|0:0,0:0:0:0:
80,200,115836,1,0,0:0:0:0:
380,224,116071,1,0,0:0:0:0:
380,224,116422,1,0,0:0:0:0:
380,224,116539,1,0,0:0:0:0:
264,80,116774,1,0,0:0:0:0:
136,112,117008,2,0,L|24:208,1,132.999996448517,0|0,0:0|0:0,0:0:0:0:
92,268,117477,2,0,P|228:336|360:336,1,265.999992897034
460,284,118180,1,0,0:0:0:0:
328,204,118415,1,0,0:0:0:0:
156,232,118649,1,0,0:0:0:0:
84,316,118883,1,0,0:0:0:0:
156,232,119118,1,0,0:0:0:0:
256,60,119352,6,0,P|344:116|368:188,1,132.999996448517
200,328,119821,2,0,L|68:276,1,132.999996448517
256,192,120172,12,0,122165,0:0:0:0:
408,200,123102,5,0,0:0:0:0:
408,193,123219,1,0,0:0:0:0:
413,196,123336,1,0,0:0:0:0:
204,32,123571,2,0,L|136:192,1,140
208,284,124040,2,0,L|512:288,1,280
296,120,124743,1,0,0:0:0:0:
264,284,124977,2,0,L|-56:284,1,280,0|0,0:0|0:0,0:0:0:0:
104,284,125680,1,0,0:0:0:0:
220,288,125914,1,0,0:0:0:0:
200,176,126149,1,0,0:0:0:0:
340,284,126383,1,0,0:0:0:0:
272,148,126618,1,0,0:0:0:0:
104,284,126852,1,0,0:0:0:0:
456,324,127321,6,0,L|452:144,1,140
460,56,127790,1,0,0:0:0:0:
84,88,128258,2,0,L|88:232,1,140
76,324,128727,1,0,0:0:0:0:
232,124,129196,2,0,L|396:124,1,140,0|0,0:0|0:0,0:0:0:0:
412,216,129665,2,0,L|260:212,1,140
348,216,130133,1,0,0:0:0:0:
284,124,130368,1,0,0:0:0:0:
256,324,130602,1,0,0:0:0:0:
64,220,130954,1,0,0:0:0:0:
64,220,131071,1,0,0:0:0:0:
128,132,131305,2,0,L|296:128,1,140,0|0,0:0|0:0,0:0:0:0:
324,176,131774,1,0,0:0:0:0:
272,120,132008,2,0,L|104:132,1,140
112,228,132477,1,0,0:0:0:0:
208,292,132711,5,0,0:0:0:0:
312,332,132946,1,0,0:0:0:0:
216,80,133180,1,0,0:0:0:0:
296,176,133415,1,0,0:0:0:0:
416,248,133649,2,0,P|412:304|288:320,1,140
240,312,134117,2,0,P|140:332|128:284,1,140,0|0,0:0|0:0,0:0:0:0:
56,252,134586,2,0,P|16:172|60:144,1,140,0|0,0:0|0:0,0:0:0:0:
96,116,134938,1,0,0:0:0:0:
96,116,135055,1,0,0:0:0:0:
212,180,135290,1,0,0:0:0:0:
268,36,135524,2,0,P|416:104|432:128,1,140
264,192,135992,5,0,0:0:0:0:
264,92,136227,1,0,0:0:0:0:
260,20,136461,2,0,P|120:96|108:120,1,140
120,140,136930,1,0,0:0:0:0:
252,292,137164,1,0,0:0:0:0:
412,168,137399,1,0,0:0:0:0:
264,48,137633,1,0,0:0:0:0:
120,140,137868,1,0,0:0:0:0:
256,284,138102,1,0,0:0:0:0:
412,168,138336,1,0,0:0:0:0:
264,48,138571,1,0,0:0:0:0:
112,144,138805,2,0,P|104:236|168:288,1,140
412,168,139274,6,0,P|464:240|424:272,1,140
136,152,139743,1,0,0:0:0:0:
112,248,139977,1,0,0:0:0:0:
248,228,140211,1,0,0:0:0:0:
220,328,140446,1,0,0:0:0:0:
348,312,140680,2,0,L|504:288,1,140
344,200,141149,2,0,L|500:184,1,140
220,116,141617,2,0,L|36:112,1,140,0|0,0:0|0:0,0:0:0:0:
224,52,142086,1,0,0:0:0:0:
4,36,142321,1,0,0:0:0:0:
68,128,142790,6,0,L|76:292,1,140
168,200,143258,1,0,0:0:0:0:
280,200,143493,1,0,0:0:0:0:
324,76,143727,2,0,L|168:80,1,140
172,292,144196,2,0,L|336:292,1,140
416,128,144664,1,0,0:0:0:0:
412,240,144899,1,0,0:0:0:0:
224,184,145133,1,0,0:0:0:0:
88,264,145368,1,0,0:0:0:0:
24,136,145602,1,0,0:0:0:0:
92,80,145836,2,0,B|144:24|208:36|408:32,1,280
360,32,146422,1,0,0:0:0:0:
360,25,146540,1,0,0:0:0:0:
376,280,146774,6,0,L|240:352,1,140,0|0,0:0|0:0,0:0:0:0:
88,236,147243,1,0,0:0:0:0:
188,148,147477,1,0,0:0:0:0:
272,248,147711,1,0,0:0:0:0:
48,128,147946,1,0,0:0:0:0:
196,60,148180,1,0,0:0:0:0:
308,156,148415,1,0,0:0:0:0:
408,260,148649,1,0,0:0:0:0:
224,312,148883,1,0,0:0:0:0:
112,184,149117,1,0,0:0:0:0:
404,176,149352,1,0,0:0:0:0:
240,32,149586,1,0,0:0:0:0:
240,328,149821,1,0,0:0:0:0:
172,200,150290,5,0,0:0:0:0:
320,204,150524,1,0,0:0:0:0:
244,208,150758,1,0,0:0:0:0:
424,208,150993,1,0,0:0:0:0:
292,104,151227,1,0,0:0:0:0:
208,104,151461,1,0,0:0:0:0:
368,104,151696,1,0,0:0:0:0:
128,104,151930,1,0,0:0:0:0:
60,232,152165,1,0,0:0:0:0:
78,261,152282,1,0,0:0:0:0:
103,286,152399,1,0,0:0:0:0:
132,305,152516,1,0,0:0:0:0:
165,317,152633,1,0,0:0:0:0:
200,321,152750,1,0,0:0:0:0:
235,318,152868,1,0,0:0:0:0:
440,272,153102,1,0,0:0:0:0:
372,156,153337,1,0,0:0:0:0:
252,208,153571,1,0,0:0:0:0:
72,208,153805,6,0,P|132:100|200:64,1,140
256,192,167047,12,0,169040,0:0:0:0:
364,252,169508,5,0,0:0:0:0:
116,256,169977,1,0,0:0:0:0:
364,252,170446,1,0,0:0:0:0:
112,256,170680,1,0,0:0:0:0:
112,249,170798,1,0,0:0:0:0:
118,252,170915,1,0,0:0:0:0:
216,344,171149,1,0,0:0:0:0:
328,300,171383,1,0,0:0:0:0:
408,236,171618,1,0,0:0:0:0:
248,240,171852,2,0,L|248:72,2,140,0|0|0,0:0|0:0|0:0,0:0:0:0:
176,96,172790,5,0,0:0:0:0:
292,120,173024,1,0,0:0:0:0:
380,208,173258,1,0,0:0:0:0:
348,328,173493,1,0,0:0:0:0:
164,340,173727,1,0,0:0:0:0:
48,276,173961,1,0,0:0:0:0:
28,136,174196,1,0,0:0:0:0:
116,196,174430,2,0,L|240:252,2,70,0|0|0,0:0|0:0|0:0,0:0:0:0:
224,136,174899,1,0,0:0:0:0:
368,156,175133,1,0,0:0:0:0:
436,272,175368,1,0,0:0:0:0:
328,320,175602,1,0,0:0:0:0:
156,304,175836,1,0,0:0:0:0:
260,232,176071,1,0,0:0:0:0:
256,40,176540,5,0,0:0:0:0:
400,164,177008,1,0,0:0:0:0:
100,176,177477,1,0,0:0:0:0:
80,40,177946,1,0,0:0:0:0:
256,188,178415,1,0,0:0:0:0:
396,76,178883,1,0,0:0:0:0:
416,236,179352,1,0,0:0:0:0:
264,316,179821,1,0,0:0:0:0:
116,292,180290,2,0,P|8:196|100:128,1,280
176,128,180992,1,0,0:0:0:0:
176,121,181110,1,0,0:0:0:0:
182,124,181227,1,0,0:0:0:0:
384,100,181696,1,0,0:0:0:0:
408,236,182164,5,0,0:0:0:0:
383,248,182282,1,0,0:0:0:0:
357,259,182399,1,0,0:0:0:0:
330,268,182516,1,0,0:0:0:0:
303,275,182633,1,0,0:0:0:0:
276,281,182750,1,0,0:0:0:0:
248,284,182867,1,0,0:0:0:0:
220,286,182985,1,0,0:0:0:0:
192,285,183102,1,0,0:0:0:0:
256,192,183219,12,0,184040,0:0:0:0:
120,96,184508,5,0,0:0:0:0:
232,192,184743,1,0,0:0:0:0:
372,276,184977,1,0,0:0:0:0:
372,92,185446,1,0,0:0:0:0:
232,192,185680,1,0,0:0:0:0:
368,192,185914,1,0,0:0:0:0:
232,96,186149,1,0,0:0:0:0:
68,192,186383,1,0,0:0:0:0:
120,304,186618,2,0,L|268:308,1,140
412,212,187321,5,0,0:0:0:0:
416,104,187555,1,0,0:0:0:0:
420,32,187790,2,0,B|296:96|276:148|116:44,1,280
44,168,188492,1,0,0:0:0:0:
88,248,188727,2,0,B|192:216|168:272|400:332,1,280
416,216,189430,1,0,0:0:0:0:
296,116,189665,1,0,0:0:0:0:
188,244,189899,1,0,0:0:0:0:
48,56,190133,1,0,0:0:0:0:
208,168,190368,1,0,0:0:0:0:
368,296,190602,1,0,0:0:0:0:
400,88,190954,1,0,0:0:0:0:
400,88,191071,1,0,0:0:0:0:
244,156,191305,5,0,0:0:0:0:
116,260,191540,2,0,P|184:225|272:236,1,140,0|0,0:0|0:0,0:0:0:0:
248,284,192008,1,0,0:0:0:0:
380,296,192243,2,0,B|360:227|336:224|224:236,1,140
312,164,192711,1,0,0:0:0:0:
176,300,192946,1,0,0:0:0:0:
172,160,193180,1,0,0:0:0:0:
324,304,193415,1,0,0:0:0:0:
116,344,193649,1,0,0:0:0:0:
360,100,193883,1,0,0:0:0:0:
112,88,194118,1,0,0:0:0:0:
392,344,194352,1,0,0:0:0:0:
176,300,194586,1,0,0:0:0:0:
312,160,194821,1,0,0:0:0:0:
172,160,195055,1,0,0:0:0:0:
384,328,195290,5,0,0:0:0:0:
384,328,195524,1,0,0:0:0:0:
384,328,195758,1,0,0:0:0:0:
56,64,196227,5,0,0:0:0:0:
56,64,196462,1,0,0:0:0:0:
56,64,196696,1,0,0:0:0:0:
128,208,197165,2,0,B|220:188|400:232|440:208,1,280,0|0,0:0|0:0,0:0:0:0:
404,220,197985,1,0,0:0:0:0:
404,213,198102,1,0,0:0:0:0:
410,216,198219,1,0,0:0:0:0:
404,220,198336,1,0,0:0:0:0:
404,213,198453,1,0,0:0:0:0:
416,108,198571,2,0,B|353:57|336:56|280:52,1,140
104,96,199040,6,0,P|48:156|56:228,1,140
232,304,199508,2,0,P|336:244|320:192,1,140,0|0,0:0|0:0,0:0:0:0:
104,92,199977,2,0,P|40:156|40:216,1,140
240,308,200446,2,0,P|328:312|368:236,1,140
108,92,200914,2,0,P|40:160|24:220,1,140
240,308,201383,2,0,P|364:264|368:220,1,140
304,192,201852,1,0,0:0:0:0:
476,104,202086,1,0,0:0:0:0:
264,36,202321,1,0,0:0:0:0:
104,188,202790,5,0,0:0:0:0:
388,188,203024,1,0,0:0:0:0:
192,316,203258,1,0,0:0:0:0:
256,32,203493,1,0,0:0:0:0:
336,316,203727,1,0,0:0:0:0:
96,184,203961,1,0,0:0:0:0:
388,188,204196,1,0,0:0:0:0:
192,316,204430,1,0,0:0:0:0:
256,32,204665,1,0,0:0:0:0:
340,304,204899,1,0,0:0:0:0:
96,184,205133,1,0,0:0:0:0:
388,188,205368,1,0,0:0:0:0:
184,32,205836,6,0,P|88:88|16:208,1,210
30,166,206305,1,0,0:0:0:0:
30,159,206422,1,0,0:0:0:0:
36,162,206540,1,0,0:0:0:0:
180,292,206774,2,0,B|256:228|344:292|360:292,1,140
268,156,207243,1,0,0:0:0:0:
320,32,207477,2,0,B|232:68|184:36|152:28,1,140
268,156,207946,1,0,0:0:0:0:
268,156,208180,1,0,0:0:0:0:
80,112,208415,6,0,B|24:196|64:232|32:260,1,140
400,248,208883,2,0,B|416:152|432:136|384:116|396:112,1,140
376,108,209352,1,0,0:0:0:0:
60,252,209586,1,0,0:0:0:0:
92,108,209821,1,0,0:0:0:0:
224,180,210289,5,0,0:0:0:0:
376,108,210524,1,0,0:0:0:0:
92,100,210758,1,0,0:0:0:0:
232,284,210992,1,0,0:0:0:0:
224,180,211227,1,0,0:0:0:0:
372,96,211461,1,0,0:0:0:0:
92,100,211696,1,0,0:0:0:0:
224,280,211930,1,0,0:0:0:0:
400,244,212165,5,0,0:0:0:0:
363,184,212282,1,0,0:0:0:0:
306,145,212399,1,0,0:0:0:0:
238,131,212516,1,0,0:0:0:0:
170,147,212633,1,0,0:0:0:0:
114,188,212751,1,0,0:0:0:0:
79,248,212868,1,0,0:0:0:0:
228,280,213102,5,0,0:0:0:0:
232,280,213336,5,0,0:0:0:0:
232,280,213571,1,0,0:0:0:0:
232,273,213688,5,0,0:0:0:0:
238,276,213805,5,0,0:0:0:0:
232,276,213922,5,0,0:0:0:0:
