osu file format v14

[General]
AudioFilename: IE.mp3
AudioLeadIn: 0
PreviewTime: 50240
Countdown: 0
SampleSet: Normal
StackLeniency: 0.9
Mode: 0
LetterboxInBreaks: 0
WidescreenStoryboard: 0

[Editor]
Bookmarks: 76719
DistanceSpacing: 1
BeatDivisor: 4
GridSize: 4
TimelineZoom: 1

[Metadata]
Title:Maji de Kansha! (Anime Opening Ver.)
TitleUnicode:マジで感謝! (アニメオープニング Ver.)
Artist:T-Pistonz+KMC
ArtistUnicode:T-Pistonz+KMC
Creator:Cloudchaser
Version:Dekaane's Normal!
Source:イナズマイレブン
Tags:ティーピストンズプラスケムシ raimon soccer football Ti Pīzutonzu purasu Kemushi TPK 天本義人 Yoshito Amamoto Tooru Yamasaki 山崎徹 Hiroshi Yamasaki 山崎弘 Inazuma Eleven 2 Kyōi no shinryakusha nintendo ds fire edicion cloudsplash16 dakedekaane
BeatmapID:359738
BeatmapSetID:144761

[Difficulty]
HPDrainRate:4
CircleSize:3.3
OverallDifficulty:4
ApproachRate:5
SliderMultiplier:1.5
SliderTickRate:1

[Events]
//Background and Video events
0,0,"Inazuma irebun.jpg",0,0
Video,0,"Gero's Video.avi"
//Break Periods
//Storyboard Layer 0 (Background)
//Storyboard Layer 1 (Fail)
//Storyboard Layer 2 (Pass)
//Storyboard Layer 3 (Foreground)
//Storyboard Sound Samples

[TimingPoints]
2673,540.540540540541,4,1,1,70,1,0
50240,-100,4,1,1,70,0,1
69159,-100,4,1,1,70,0,0
69700,-100,4,1,1,70,0,1
85645,-100,4,1,1,70,0,0

[Colours]
Combo1 : 255,128,64
Combo2 : 0,128,255
Combo3 : 0,255,64
Combo4 : 255,255,128
SliderBorder : 255,255,255

[HitObjects]
225,144,2673,6,0,P|292:115|351:155,1,150,2|2,0:2|0:2,0:0:0:0:
408,294,3754,2,0,P|467:334|505:331,2,112.5,2|2|2,0:2|0:2|0:2,0:0:0:0:
259,268,5105,5,0,0:0:0:0:
259,268,5375,2,0,L|111:293,1,150,2|2,0:2|0:2,0:0:0:0:
41,260,6186,1,0,0:0:0:0:
47,183,6456,2,0,L|34:109,1,75,2|2,0:2|0:2,0:0:0:0:
76,43,6997,6,0,P|143:15|210:45,2,150,2|2|2,0:2|0:2|0:2,0:0:0:0:
44,320,9159,5,2,0:2:0:0:
104,367,9429,1,0,0:0:0:0:
180,352,9700,1,2,0:2:0:0:
332,352,10240,1,2,0:2:0:0:
408,367,10510,1,0,0:0:0:0:
468,320,10781,2,0,L|474:245,1,75,2|0,0:2|0:0,0:0:0:0:
480,168,11321,6,0,P|448:32|308:28,1,300,2|0,0:2|0:0,0:0:0:0:
180,112,12943,1,12,0:0:0:0:
180,272,13483,5,4,0:0:0:0:
256,256,13754,1,0,0:0:0:0:
332,240,14024,1,8,0:0:0:0:
447,137,14564,2,0,P|434:66|370:32,1,150,0|8,0:0|0:0,0:0:0:0:
292,32,15375,1,2,0:2:0:0:
228,76,15645,6,0,L|154:90,2,75,0|0|8,0:0|0:0|0:0,0:0:0:0:
357,160,16727,1,0,0:0:0:0:
433,145,16997,1,0,0:0:0:0:
509,130,17267,1,8,0:0:0:0:
509,284,17808,5,0,0:0:0:0:
433,299,18078,1,0,0:0:0:0:
357,314,18348,1,8,0:0:0:0:
205,344,18889,2,0,P|168:280|180:208,1,150,0|8,0:0|0:0,0:0:0:0:
231,149,19700,1,2,0:2:0:0:
201,77,19970,6,0,L|126:66,1,75,2|0,0:2|0:0,0:0:0:0:
112,141,20510,2,0,L|37:130,1,75,8|0,0:0|0:0,0:0:0:0:
23,206,21051,2,0,P|47:274|5:333,1,150,2|8,0:2|0:0,0:0:0:0:
158,360,22132,6,0,L|232:352,1,75,4|4,0:2|0:3,0:0:0:0:
256,121,23213,2,0,L|330:113,1,75,4|4,0:2|0:3,0:0:0:0:
500,271,24294,6,0,L|484:121,1,150,4|2,0:2|0:3,0:0:0:0:
358,32,25375,2,0,P|322:43|285:42,1,75,0|2,0:0|0:0,0:0:0:0:
208,30,25916,2,0,P|170:28|135:40,1,75,2|2,0:3|0:0,0:0:0:0:
80,96,26456,5,4,0:3:0:0:
64,249,26997,1,2,0:3:0:0:
185,344,27537,2,0,L|259:338,1,75,0|2,0:0|0:0,0:0:0:0:
308,278,28078,2,0,L|382:272,1,75,2|2,0:3|0:0,0:0:0:0:
440,323,28618,6,0,P|457:253|410:199,1,150,8|2,0:3|0:3,0:0:0:0:
256,192,29700,1,0,0:0:0:0:
256,192,29970,2,0,L|181:183,2,75,2|2|2,0:0|0:3|0:0,0:0:0:0:
332,192,30781,6,0,P|368:127|346:58,1,150,4|2,0:3|0:3,0:0:0:0:
193,32,31862,1,8,0:0:0:0:
193,32,32132,1,2,0:0:0:0:
193,32,32402,1,4,0:2:0:0:
89,146,32943,6,0,L|95:295,1,150,8|2,0:3|0:3,0:0:0:0:
241,348,34024,2,0,L|237:273,2,75,0|2|2,0:0|0:0|0:3,0:0:0:0:
393,322,35105,5,4,0:3:0:0:
465,296,35375,1,0,0:0:0:0:
500,227,35645,2,0,L|488:72,1,150,2|0,0:3|0:0,0:0:0:0:
411,79,36456,2,0,L|419:4,2,75,2|2|2,0:0|0:3|0:0,0:0:0:0:
364,141,37267,5,8,0:3:0:0:
256,252,37808,2,0,P|189:282|105:241,1,150,2|0,0:3|0:0,0:0:0:0:
70,200,38618,1,2,0:0:0:0:
69,123,38889,1,2,0:3:0:0:
196,36,39429,6,0,L|191:110,1,75,4|2,0:3|0:3,0:0:0:0:
168,264,40240,1,2,0:3:0:0:
167,263,40510,2,0,P|231:227|298:253,1,150,0|2,0:0|0:3,0:0:0:0:
411,360,41591,5,4,0:0:0:0:
471,217,42132,1,8,0:0:0:0:
319,188,42673,1,0,0:0:0:0:
349,117,42943,1,0,0:0:0:0:
379,45,43213,1,4,0:2:0:0:
396,197,43754,6,0,P|356:258|284:257,1,150,2|2,0:0|0:0,0:0:0:0:
241,193,44564,2,0,P|168:192|129:252,1,150,2|2,0:0|0:0,0:0:0:0:
356,299,45916,6,0,P|419:263|423:191,3,150,2|10|2|6,0:0|0:0|0:0|0:0,0:0:0:0:
344,60,48078,2,2,B|304:52|264:68|264:68|240:76|208:92|192:140|200:188|256:192|312:188|320:140|304:92|272:76|248:68|248:68|208:52|168:60,1,450,2|6,0:0|0:0,0:0:0:0:
89,192,50240,5,4,0:0:0:0:
232,252,50781,1,12,0:0:0:0:
372,188,51321,2,0,L|364:76,2,112.5,2|2|2,0:0|0:0|0:0,0:0:0:0:
383,342,52673,1,0,0:0:0:0:
383,341,52943,2,0,P|314:364|257:320,1,150,8|0,0:0|0:0,0:0:0:0:
234,246,53754,2,0,L|224:160,2,75,0|10|2,0:0|0:0|0:0,0:0:0:0:
183,303,54564,6,0,L|32:320,2,150,0|8|0,0:0|0:0|0:0,0:0:0:0:
386,192,56456,1,0,0:0:0:0:
386,192,56727,2,0,L|235:175,1,150,0|8,0:0|0:0,0:0:0:0:
82,176,57808,1,8,0:0:0:0:
73,100,58078,1,0,0:0:0:0:
65,24,58348,1,4,0:0:0:0:
186,120,58889,5,2,0:0:0:0:
336,80,59429,1,8,0:0:0:0:
455,176,59970,2,0,P|484:128|485:72,2,112.5,2|2|2,0:0|0:0|0:0,0:0:0:0:
340,280,61321,1,0,0:0:0:0:
340,280,61591,2,0,L|190:294,1,150,8|0,0:0|0:0,0:0:0:0:
113,286,62402,1,8,0:0:0:0:
35,280,62673,1,8,0:0:0:0:
112,145,63213,6,0,P|115:72|67:17,2,150,2|2|6,0:0|0:0|0:0,0:0:0:0:
41,310,65375,5,2,0:2:0:0:
104,356,65645,1,0,0:0:0:0:
179,336,65916,1,8,0:0:0:0:
333,336,66456,1,2,0:2:0:0:
408,356,66727,1,0,0:0:0:0:
471,310,66997,2,0,L|476:236,1,75,8|0,0:0|0:0,0:0:0:0:
480,158,67537,6,2,P|466:42|398:137,1,300,6|0,0:0|0:0,0:0:0:0:
360,288,69159,1,12,0:0:0:0:
208,252,69700,6,0,L|199:326,2,75,4|0|8,0:0|0:0|0:0,0:0:0:0:
304,132,70781,1,0,0:0:0:0:
304,132,71051,2,0,L|312:57,2,75,0|8|2,0:0|0:0|0:0,0:0:0:0:
316,208,71862,6,0,L|390:216,2,75,0|0|8,0:0|0:0|0:0,0:0:0:0:
186,292,72943,1,0,0:0:0:0:
109,283,73213,1,0,0:0:0:0:
32,275,73483,1,8,0:0:0:0:
32,120,74024,5,0,0:0:0:0:
109,128,74294,1,0,0:0:0:0:
186,137,74564,1,8,0:0:0:0:
320,60,75105,1,0,0:0:0:0:
320,60,75375,2,0,L|394:51,2,75,0|8|2,0:0|0:0|0:0,0:0:0:0:
292,132,76186,6,0,L|217:123,1,75,2|0,0:0|0:0,0:0:0:0:
186,52,76727,2,0,L|111:60,1,75,10|0,0:0|0:0,0:0:0:0:
78,129,77267,2,0,P|112:194|88:263,1,150,2|8,0:0|0:0,0:0:0:0:
222,340,78348,6,0,L|296:336,2,75,0|0|8,0:0|0:0|0:0,0:0:0:0:
119,224,79429,1,0,0:0:0:0:
119,224,79700,2,0,L|44:220,2,75,0|8|2,0:0|0:0|0:0,0:0:0:0:
178,272,80510,6,0,L|137:335,2,75,0|0|8,0:0|0:0|0:0,0:0:0:0:
180,117,81591,1,0,0:0:0:0:
256,104,81862,1,0,0:0:0:0:
332,91,82132,1,8,0:0:0:0:
472,155,82673,6,0,L|479:229,1,75,2|0,0:0|0:0,0:0:0:0:
402,230,83213,2,0,L|409:304,1,75,2|0,0:0|0:0,0:0:0:0:
332,305,83754,2,0,P|270:343|201:321,1,150,2|8,0:0|0:0,0:0:0:0:
147,176,84835,6,0,L|139:101,1,75,2|0,0:0|0:0,0:0:0:0:
213,61,85375,2,0,L|220:135,1,75,10|0,0:0|0:0,0:0:0:0:
256,192,85781,12,4,87402,0:0:0:0:
