osu file format v9

[General]
AudioFilename: Katte Nakou ze! (jubeat edit).mp3
AudioLeadIn: 2000
PreviewTime: 81128
Countdown: 0
SampleSet: Normal
StackLeniency: 0.7
Mode: 1
LetterboxInBreaks: 1

[Editor]
Bookmarks: 22953,31327,44108,52922,81128,95232,111098
DistanceSpacing: 0.5
BeatDivisor: 2
GridSize: 32

[Metadata]
Title:Katte Nakou ze! (jubeat edit)
Artist:T-Pistonz+KMC
Creator:PoochyEXE
Version:Taiko Muzukashii
Source:jubeat knit / Inazuma Eleven
Tags:Bemani Inazuma Eleven Level-5 anime game soccer football

[Difficulty]
HPDrainRate:5
CircleSize:5
OverallDifficulty:5
ApproachRate:0
SliderMultiplier:1.2
SliderTickRate:2

[Events]
//Background and Video events
0,0,"Katte Nakou ze!-bg.jpg"
//Break Periods
//Storyboard Layer 0 (Background)
//Storyboard Layer 1 (Fail)
//Storyboard Layer 2 (Pass)
//Storyboard Layer 3 (Foreground)
//Storyboard Sound Samples
//Background Colour Transformations
3,100,163,162,255

[TimingPoints]
36,440.722785368004,4,1,0,60,1,0
52922,-100,4,1,0,80,0,1
67025,-100,4,1,0,60,0,0
95232,-100,4,1,0,80,0,1
113081,-100,4,1,0,60,0,0

[Colours]
Combo1 : 128,0,255
Combo2 : 240,5,5
Combo3 : 255,150,0
Combo4 : 255,255,0
Combo5 : 5,240,5
Combo6 : 0,255,255
Combo7 : 5,5,240

[HitObjects]
192,128,476,1,0
192,128,697,1,0
320,128,917,1,2
320,128,1137,1,2
0,32,1578,2,0,B|128:32,1,120
192,128,2459,1,0
320,128,2680,1,2
320,128,2900,1,2
192,128,3121,1,0
320,128,3341,1,2
320,128,3451,1,2
192,128,3561,1,0
192,128,3782,1,0
320,128,4002,1,2
192,128,4222,1,0
320,128,4333,1,2
192,128,4443,1,0
192,128,4663,1,0
192,128,5324,1,0
192,128,5545,1,0
192,128,5765,1,0
192,128,5985,1,0
320,128,6206,1,2
320,128,6426,1,2
192,128,6646,1,0
192,128,6867,1,0
320,128,7087,1,2
192,128,7307,1,0
192,128,7418,1,0
320,128,7528,1,2
192,128,7748,1,0
320,128,7969,1,2
192,128,8189,1,0
192,128,8630,1,0
192,128,8740,1,0
320,128,8850,1,2
192,128,9070,1,0
192,128,9291,1,0
192,128,9511,1,0
320,128,9731,1,2
320,256,10172,1,6
192,256,10613,1,4
192,128,11054,1,0
192,128,11274,1,0
320,128,11384,1,2
320,128,11715,1,2
192,128,11935,1,0
320,128,12376,1,2
192,128,12596,1,0
192,128,12816,1,0
320,128,13037,1,2
192,128,13478,1,0
192,128,13698,1,0
320,128,13808,1,2
192,128,14579,1,0
192,128,14800,1,0
320,128,14910,1,2
320,128,15240,1,2
192,128,15461,1,0
320,128,15681,1,2
192,128,15902,1,0
192,128,16122,1,0
192,128,16563,1,0
320,128,16783,1,2
192,128,17003,1,0
320,128,17224,1,2
192,128,17334,1,0
192,256,17664,1,4
192,128,18105,1,0
192,128,18325,1,0
320,128,18435,1,2
320,128,18766,1,2
192,128,18986,1,0
320,128,19427,1,2
192,128,19647,1,0
192,128,19867,1,0
320,128,20088,1,2
192,128,20529,1,0
192,128,20749,1,0
320,128,20859,1,2
192,128,21630,1,0
192,128,21851,1,0
320,128,21961,1,2
320,128,22291,1,2
192,128,22512,1,0
320,128,22732,1,2
192,128,22953,1,0
192,128,23063,1,0
192,128,23173,1,0
192,128,23394,1,0
192,128,23504,1,0
192,128,23614,1,0
192,256,23835,1,4
320,256,24165,1,6
192,256,24716,1,4
192,128,25157,1,0
320,128,25377,1,2
192,128,25487,1,0
0,32,25818,2,0,B|128:32,1,120,4|6
320,128,26920,1,2
192,128,27140,1,0
320,128,27250,1,2
192,256,27581,1,4
192,128,28242,1,0
192,128,28462,1,0
320,128,28682,1,2
320,128,28903,1,2
192,128,29123,1,0
192,128,29344,1,0
192,128,29454,1,0
320,128,29564,1,2
320,128,29674,1,2
192,128,29784,1,0
192,128,29894,1,0
320,128,30005,1,2
320,256,30335,1,6
192,256,30666,1,4
192,256,30886,1,4
192,128,31327,1,0
192,128,31547,1,0
320,128,31768,1,2
320,256,31988,1,6
192,128,32208,1,0
192,128,32318,1,0
192,128,32429,1,0
192,128,32539,1,0
192,128,32649,1,0
320,128,32869,1,2
192,128,33090,1,0
192,128,33310,1,0
320,256,33530,1,6
192,256,33861,1,4
320,256,34192,1,6
192,128,34522,1,0
320,128,34632,1,2
320,128,34742,1,2
320,128,34853,1,2
192,128,35073,1,0
192,128,35183,1,0
320,128,35293,1,2
192,128,35514,1,0
320,128,35624,1,2
192,128,35844,1,0
192,128,35954,1,0
320,128,36175,1,2
192,256,36615,1,4
320,256,36946,1,6
192,128,37277,1,0
192,128,37387,1,0
192,128,37497,1,0
192,128,37607,1,0
192,128,37717,1,0
192,128,37827,1,0
320,128,37938,1,2
192,128,38158,1,0
320,128,38599,1,2
192,128,38709,1,0
320,128,38819,1,0
320,128,39149,1,0
192,128,39370,1,0
192,128,39480,1,0
320,256,39701,1,6
192,256,40141,1,4
320,128,40582,1,2
320,128,40692,1,2
320,128,40802,1,2
192,128,40913,1,0
192,128,41133,1,0
192,128,41243,1,0
320,256,41463,1,6
192,256,41904,1,4
192,128,42125,1,0
192,256,42345,1,4
320,256,42786,1,6
320,128,43226,1,2
320,128,43447,1,2
192,128,43667,1,0
192,128,43777,1,0
192,128,43887,1,0
192,256,44108,1,4
320,256,44549,1,6
192,256,44989,1,4
320,256,45430,1,6
0,32,45871,2,0,B|128:32,1,120
192,256,46752,1,4
0,32,47413,2,0,B|128:32,1,120
192,128,48074,1,0
192,256,48515,1,4
192,256,48956,1,4
320,256,49396,1,6
192,256,49837,1,4
192,256,50278,1,4
320,256,50498,1,6
256,192,50939,8,0,51820
320,256,52482,5,6
192,256,52702,1,4
0,32,52922,2,0,B|256:32,1,240
192,128,54024,1,0
192,128,54244,1,0
320,128,54465,1,2
320,128,54905,1,2
192,128,55126,1,0
192,128,55346,1,0
320,128,55567,1,2
320,128,55787,1,2
192,128,56007,1,0
192,128,56228,1,0
0,32,56447,2,0,B|256:32,1,240
192,128,57549,1,0
192,128,57769,1,0
320,128,57990,1,2
320,128,58430,1,2
192,128,58651,1,0
192,128,58871,1,0
320,128,59092,1,2
320,128,59312,1,2
192,128,59532,1,0
192,128,59753,1,0
192,256,60415,1,4
192,256,60855,1,4
320,256,61296,1,6
320,128,61737,1,2
192,128,61957,1,0
192,128,62398,1,0
320,128,62838,1,2
192,128,63059,1,0
192,128,63279,1,0
192,128,64161,1,0
192,128,64381,1,0
320,128,64601,1,2
320,128,64822,1,2
0,32,65042,2,0,B|128:32,1,120
192,256,65703,1,4
320,128,66144,1,2
192,128,66364,1,0
320,128,66474,1,2
192,128,66695,1,0
320,128,66805,1,2
0,32,67025,2,0,B|256:32,1,240
192,128,68127,1,0
192,128,68347,1,0
320,128,68568,1,2
320,128,69008,1,2
192,128,69229,1,0
192,128,69449,1,0
320,128,69670,1,2
320,128,69890,1,2
192,128,70110,1,0
192,128,70331,1,0
0,32,70550,2,0,B|256:32,1,240
192,128,71652,1,0
192,128,71872,1,0
320,128,72093,1,2
320,128,72533,1,2
192,128,72754,1,0
192,128,72974,1,0
320,128,73195,1,2
320,128,73415,1,2
192,128,73635,1,0
192,128,73856,1,0
192,256,74518,1,4
192,256,74958,1,4
320,256,75399,1,6
320,128,75840,1,2
192,128,76060,1,0
192,128,76281,1,0
192,128,76501,1,0
320,128,76941,1,2
192,128,77162,1,0
192,128,77382,1,0
256,192,77603,8,0,78484
192,128,79145,5,0
320,128,79366,1,2
320,128,79586,1,2
192,128,79806,1,0
320,128,80027,1,2
320,256,80467,1,6
192,256,80688,1,4
192,256,81128,1,4
192,256,81790,1,4
320,256,82671,1,6
320,128,83112,1,2
192,128,83332,1,0
192,128,83552,1,0
320,128,83773,1,2
320,128,83993,1,2
192,256,84654,1,4
192,256,85316,1,4
320,256,86197,1,6
320,128,86638,1,2
192,128,86858,1,0
192,128,87078,1,0
320,128,87299,1,2
320,128,87519,1,2
192,256,88180,1,4
192,256,88842,1,4
320,256,89723,1,6
320,128,90164,1,2
192,128,90384,1,0
192,128,90604,1,0
320,128,90825,1,2
320,128,91045,1,2
320,256,91706,1,6
320,256,92368,1,6
320,256,93469,1,6
192,256,93689,1,4
320,256,93909,1,6
192,256,94129,1,4
320,256,94350,1,6
192,256,94570,1,4
320,256,94791,1,6
192,256,95011,1,4
192,256,95232,1,4
192,256,95894,1,4
320,256,96775,1,6
320,128,97216,1,2
192,128,97436,1,0
192,128,97656,1,0
320,128,97877,1,2
320,128,98097,1,2
192,256,98757,1,4
192,256,99419,1,4
320,256,100300,1,6
320,128,100741,1,2
192,128,100961,1,0
192,128,101402,1,0
320,128,101622,1,2
320,256,102283,1,6
320,256,102724,1,6
192,256,103165,1,4
192,256,103385,1,4
320,256,104046,1,6
192,256,104266,1,4
192,128,104707,1,0
192,128,105148,1,0
192,128,105589,1,0
256,192,105809,8,0,106911
320,256,107572,5,6
320,128,108013,1,2
192,128,108233,1,0
320,128,108454,1,2
192,128,108674,1,0
192,128,108894,1,0
320,256,109114,1,6
192,128,110216,1,0
192,128,110437,1,0
192,128,110547,1,0
192,128,110657,1,0
192,128,110877,1,0
320,256,111098,1,6
192,256,111318,1,4
192,256,111538,1,4
320,256,111759,1,6
192,256,112420,1,4
