osu file format v9

[General]
AudioFilename: Katte Nakou ze! (jubeat edit).mp3
AudioLeadIn: 2000
PreviewTime: 81128
Countdown: 0
SampleSet: Normal
StackLeniency: 0.7
Mode: 0
LetterboxInBreaks: 1

[Editor]
Bookmarks: 22953,31327,44108,52922,81128,95232,111098
DistanceSpacing: 0.5
BeatDivisor: 4
GridSize: 4

[Metadata]
Title:Katte Nakou ze! (jubeat edit)
Artist:T-Pistonz+KMC
Creator:PoochyEXE
Version:Extreme
Source:jubeat knit / Inazuma Eleven
Tags:Bemani Inazuma Eleven Level-5 anime game soccer football

[Difficulty]
HPDrainRate:6
CircleSize:5
OverallDifficulty:6
ApproachRate:7
SliderMultiplier:2
SliderTickRate:2

[Events]
//Background and Video events
0,0,"Katte Nakou ze!-bg.jpg"
//Break Periods
//Storyboard Layer 0 (Background)
//Storyboard Layer 1 (Fail)
//Storyboard Layer 2 (Pass)
//Storyboard Layer 3 (Foreground)
//Storyboard Sound Samples
//Background Colour Transformations
3,100,163,162,255

[TimingPoints]
36,440.722785368004,4,1,0,60,1,0
44108,-100,4,1,0,80,0,1
52922,-100,4,1,0,60,0,0
81128,-100,4,1,0,80,0,1
111098,-100,4,1,0,100,0,1
113081,-100,4,1,0,60,0,0

[Colours]
Combo1 : 128,0,255
Combo2 : 240,5,5
Combo3 : 255,150,0
Combo4 : 255,255,0
Combo5 : 5,240,5
Combo6 : 0,255,255
Combo7 : 5,5,240

[HitObjects]
32,352,476,2,0,B|96:352|96:288,1,100,8|0
96,240,917,2,0,B|96:168|24:168,1,100,8|0
128,96,1578,2,0,B|256:80|336:160|216:272|96:160|176:80|320:96,1,400,2|0
368,88,2680,5,8
416,96,2900,1,0
452,128,3121,1,8
460,176,3341,2,8,B|396:176,2,50,0|0|8
452,224,3782,1,0
416,256,4002,1,8
368,264,4222,2,0,B|368:208,2,50,0|0|8
320,256,4663,1,0
320,112,5324,5,8
288,80,5545,1,0
240,80,5765,1,8
208,112,5985,1,0
208,160,6206,2,0,B|240:232|272:160,3,100,8|0|8|0
304,176,7087,5,10
312,224,7307,2,0,B|256:224,2,50,0|0|8
304,272,7748,1,0
272,312,7969,1,8
224,312,8189,2,0,B|152:312|152:168|224:168,1,200
248,180,8740,6,0,B|224:224,1,50,0|8
176,232,9070,1,0
128,208,9291,1,8
112,160,9511,1,0
128,112,9731,1,8
200,48,10172,1,4
320,48,10613,5,4
216,112,11054,1,8
256,160,11274,2,0,B|312:160,1,50
392,104,11715,2,0,B|456:104|456:168,1,100,0|8
448,264,12376,2,0,B|448:328|384:328,2,100,0|0|8
448,264,13037,2,0,B|448:200|384:168|320:200|320:256,1,200
264,256,13698,2,2,B|208:256,1,50,8|2
136,256,14139,5,0
64,184,14579,1,8
88,136,14800,2,0,B|128:96,1,50,0|2
208,80,15240,1,0
256,80,15461,1,8
304,96,15681,1,0
336,128,15902,1,0
344,176,16122,2,0,B|344:216|368:232|392:216|392:176|392:176|392:136|416:120|440:136|440:176,1,200
432,216,16783,1,0
408,256,17003,1,0
368,280,17224,2,2,B|320:296,1,50,10|2
252,304,17664,5,4
160,304,18105,1,8
120,320,18325,2,2,B|120:352|80:352,1,50
24,304,18766,1,0
16,256,18987,2,0,B|16:128|136:256|136:128,1,200,8|0
160,96,19648,1,0
208,80,19868,1,8
256,96,20088,2,0,B|256:128|288:144|320:128|320:96|320:96|320:64|352:48|384:64|384:96,1,200
384,136,20749,2,8,B|384:192,1,50,8|2
456,176,21190,5,4
448,272,21631,1,8
432,312,21851,2,0,B|384:352,1,50
320,344,22292,1,0
272,328,22512,1,8
236,296,22733,1,0
188,288,22953,5,8
188,288,23063,1,0
188,288,23173,1,8
148,324,23394,1,8
148,324,23504,1,0
148,324,23614,1,8
100,300,23835,2,12,B|44:300|44:196|100:196,1,150
48,80,24716,5,4
128,32,25157,1,0
168,64,25377,2,0,B|192:112,1,50
204,176,25818,2,0,B|124:112|20:224|124:336|204:272,1,300,2|0
160,224,26920,5,0
168,176,27140,2,0,B|208:136,1,50
272,120,27581,2,0,B|408:120|344:192|344:192|272:272|400:272,1,300,2|0
432,240,28462,5,0
448,192,28682,1,0
424,152,28903,1,0
384,128,29123,1,0
340,128,29344,1,0
320,116,29454,1,0
320,92,29564,1,0
340,80,29674,1,0
340,56,29784,1,0
320,44,29894,1,0
296,48,30004,6,8,B|208:48|208:152,2,150
288,96,30886,1,4
336,176,31327,5,8
304,212,31547,1,0
256,228,31767,1,8
208,212,31988,1,2
176,176,32208,2,0,B|176:120,4,50,8|0|0|0|8
144,212,32869,1,0
96,212,33089,1,8
64,176,33310,1,0
48,128,33530,6,8,B|48:32|136:32,2,150,10|10|10
120,128,34522,2,0,B|176:128,3,50
208,152,35073,2,0,B|208:96,2,50
192,200,35513,2,0,B|152:240,1,50
152,288,35844,2,0,B|192:328,1,50
240,328,36174,1,10
340,348,36615,5,0
340,348,36836,2,0,B|396:348,1,50,0|2
420,280,37276,2,0,B|460:240,1,50
456,216,37497,2,0,B|416:176,3,50
396,176,37937,1,2
352,160,38158,1,2
328,72,38598,6,0,B|328:8,2,50,0|0|0
288,128,39149,1,0
288,128,39370,2,0,B|232:128,1,50
192,128,39700,2,12,B|176:64|128:32|80:64|64:128,1,200
24,208,40582,6,0,B|8:232|24:256,3,50
56,288,41133,2,0,B|80:296|104:288,1,50
132,260,41463,2,12,B|164:224|164:172|132:140|80:140|48:172,1,200
96,208,42124,5,0
96,208,42345,2,12,B|144:256|216:248|224:176|184:136,1,200
224,48,43226,1,8
184,32,43446,1,0
144,48,43667,2,0,B|96:96,2,50,8|0|0
96,128,44107,6,12,B|96:256|96:256|192:256|192:256,1,200
192,160,44989,2,12,B|238:248|238:248|288:160|288:160,1,200
352,104,45870,6,4,B|320:240|448:296|512:192|448:88|320:144|352:280,1,400
296,192,47193,1,0
272,144,47413,2,4,B|200:100|128:144|128:240|200:284|272:240,1,300
316,152,48515,1,6
224,192,48955,1,6
160,240,49396,22,4,B|160:304|96:320|32:304|32:240,1,200
96,136,50278,2,4,B|96:248,1,100
192,272,50939,2,12,B|216:224|216:224|160:224|160:224|200:104|200:104|296:104|296:104|256:192|256:192|320:200|320:200|160:328|160:328,1,700,14|12
112,348,52702,1,12
64,352,52922,6,0,B|16:336|16:304|64:288|64:288|112:272|112:240|64:224|64:224|16:208|16:176|64:160|64:160|112:144|112:112|64:96|64:96|16:80|16:48|64:32,1,500,2|0
104,32,54244,2,0,B|168:32|168:96,1,100
256,96,54905,1,0
240,144,55126,1,8
256,192,55346,1,0
304,208,55566,1,8
352,192,55787,1,0
368,144,56007,1,8
352,96,56227,1,0
304,80,56448,6,0,B|280:0|168:0|120:152|168:272|264:320|392:232,1,500,2|0
424,248,57770,1,0
432,296,57990,1,0
352,344,58431,1,0
320,312,58651,1,8
288,280,58872,1,0
256,312,59092,1,8
224,344,59312,1,0
192,312,59533,1,8
160,280,59753,1,0
64,176,60414,5,0
88,80,60855,1,2
184,80,61296,1,2
216,176,61736,2,0,B|256:232|296:176,1,100
328,80,62397,1,0
408,32,62838,1,2
448,48,63059,1,0
480,80,63279,2,0,B|496:96|496:128|480:128|448:128|448:160|480:160|528:160|528:192|480:192|448:192|448:224|480:224|496:224|496:240|480:256,1,200
424,336,64160,5,0
376,328,64381,1,8
336,304,64601,1,0
312,264,64821,1,8
304,216,65042,2,8,B|304:124|392:124|392:216|496:216|496:88|412:88,1,300,8|12
324,48,66144,1,12
272,48,66364,2,12,B|248:100,1,50
200,92,66695,2,12,B|180:44,1,50
104,112,67025,38,0,B|68:200|68:200|112:288|112:288|224:288|224:288|268:200|268:200|232:112,1,500,2|0
192,112,68347,1,0
144,112,68568,1,0
192,192,69008,1,0
168,152,69229,1,8
120,152,69449,1,0
96,192,69669,1,8
144,192,69890,1,0
168,232,70110,1,8
152,272,70330,1,0
152,272,70551,6,0,B|120:328|120:328|88:384|248:384|216:328|216:328|184:272|344:272|312:328|312:328|280:384|400:360,1,500,2|0
416,320,71873,1,0
424,272,72093,1,0
408,176,72534,1,0
384,136,72754,1,8
336,136,72975,1,0
312,176,73195,1,8
336,216,73416,1,0
384,216,73636,1,8
408,176,73856,1,0
272,272,74517,5,4
224,192,74958,1,2
176,112,75399,1,2
80,104,75840,2,0,B|16:104|16:168,1,100
16,208,76280,2,0,B|16:272|80:272,1,100
160,304,76941,5,2
208,320,77162,1,0
256,336,77382,1,0
256,336,77602,2,0,B|448:200|391:87|318:58|222:98|176:200|205:273|323:324|459:132,1,700
456,88,79365,5,0
432,48,79586,1,0
392,32,79806,1,0
344,32,80026,2,0,B|344:100|176:20|176:88,1,200,2|0
176,88,80687,1,2
172,176,81128,6,0,B|236:256|236:256|236:352|236:352,1,200,6|0
276,352,81789,2,0,B|276:256|276:256|340:176|340:176,1,200,6|0
384,256,82671,1,2
440,176,83111,1,0
432,128,83332,1,0
408,88,83552,1,0
368,64,83773,1,0
320,56,83993,1,2
340,176,84654,6,0,B|276:256|276:256|276:352|276:352,1,200,6|0
236,352,85315,2,0,B|236:256|236:256|172:176|172:176,1,200,6|0
128,256,86196,1,2
36,224,86637,1,0
72,192,86858,1,0
36,160,87078,1,0
72,128,87298,1,0
36,96,87519,1,2
172,48,88180,6,0,B|236:128|236:128|236:224|236:224,1,200,6|0
276,224,88841,2,0,B|276:128|276:128|340:48|340:48,1,200,6|0
420,100,89722,1,2
460,188,90163,1,0
444,236,90383,1,0
396,252,90604,1,0
348,236,90824,1,0
332,188,91044,1,2
328,32,91706,6,0,B|264:112|264:112|264:208|264:208,1,200,6|0
224,208,92367,2,0,B|224:112|224:112|160:32|160:32,1,200,6|0
128,144,93468,2,8,B|56:216,1,100,12|8
128,216,93909,2,8,B|56:288,1,100,12|8
128,288,94350,2,8,B|56:216,1,100,12|8
128,216,94791,2,8,B|56:144,1,100,12|8
124,96,95231,6,0,B|188:176|188:176|188:272|188:272,1,200,6|0
228,272,95892,2,0,B|228:176|228:176|292:96|292:96,1,200,6|0
292,196,96774,1,2
264,292,97215,1,0
216,308,97435,1,8
168,292,97655,1,0
152,244,97876,1,8
152,196,98096,1,2
124,64,98757,22,0,B|188:144|188:144|188:240|188:240,1,200,6|0
228,240,99418,2,0,B|228:144|228:144|292:64|292:64,1,200,6|0
384,64,100300,1,2
324,144,100740,1,0
276,144,100961,1,0
192,96,101401,1,0
192,48,101622,1,0
128,48,102283,85,12
128,144,102724,1,12
128,240,103164,2,12,B|128:352,1,100,12|8
192,200,104046,2,8,B|256:336|256:336|320:200|320:200,1,300,14|12
348,108,105148,1,4
256,100,105588,1,4
256,98,105809,22,0,B|285:152|285:152|349:162|349:162|302:206|302:206|315:275|315:275|256:241|256:241|196:275|196:275|209:206|209:206|162:162|162:162|228:152|228:152,1,600,2|0
176,80,107572,6,0,B|56:88|48:208,1,200,2|0
56,252,108233,1,0
88,288,108453,1,0
128,312,108673,1,0
176,320,108894,1,0
224,320,109114,6,0,B|464:272|224:224|464:176,1,300,2|0
464,72,110216,1,0
496,112,110436,2,0,B|512:136|496:160,2,50
464,72,110877,1,0
416,56,111097,6,4,B|384:152,1,100,6|4
336,148,111538,2,4,B|312:52,1,100,4|6
312,216,112419,2,2,B|312:160|240:152|208:232|248:288|312:308|372:280|376:208,1,300,2|0
