osu file format v9

[General]
AudioFilename: Katte Nakou ze! (jubeat edit).mp3
AudioLeadIn: 2000
PreviewTime: 81128
Countdown: 0
SampleSet: Normal
StackLeniency: 0.4
Mode: 0
LetterboxInBreaks: 1

[Editor]
Bookmarks: 22953,31327,44108,52922,81128,95232,111098
DistanceSpacing: 1
BeatDivisor: 4
GridSize: 4

[Metadata]
Title:Katte Nakou ze! (jubeat edit)
Artist:T-Pistonz+KMC
Creator:PoochyEXE
Version:Advanced
Source:jubeat knit / Inazuma Eleven
Tags:Bemani Inazuma Eleven Level-5 anime game soccer football

[Difficulty]
HPDrainRate:3
CircleSize:4
OverallDifficulty:3
ApproachRate:4
SliderMultiplier:1
SliderTickRate:2

[Events]
//Background and Video events
0,0,"Katte Nakou ze!-bg.jpg"
//Break Periods
//Storyboard Layer 0 (Background)
//Storyboard Layer 1 (Fail)
//Storyboard Layer 2 (Pass)
//Storyboard Layer 3 (Foreground)
//Storyboard Sound Samples
//Background Colour Transformations
3,100,163,162,255

[TimingPoints]
36,440.722785368004,4,1,0,60,1,0
36,-66.6666666666667,4,1,0,60,0,0
44108,-50,4,1,0,80,0,1
52922,-66.6666666666667,4,1,0,60,0,0
81128,-50,4,1,0,80,0,1
111098,-66.6666666666667,4,1,0,100,0,1
113081,-66.6666666666667,4,1,0,60,0,0

[Colours]
Combo1 : 128,0,255
Combo2 : 240,5,5
Combo3 : 255,150,0
Combo4 : 255,255,0
Combo5 : 5,240,5
Combo6 : 0,255,255
Combo7 : 5,5,240

[HitObjects]
64,288,476,1,0
64,144,917,1,0
272,208,1578,2,0,B|272:320|368:440|464:320|464:208,1,374.999988824129,2|0
368,80,3121,1,8
368,224,3561,1,0
232,152,4002,1,8
232,304,4443,2,2,B|312:304,1,74.9999977648259
400,96,5324,5,0
272,32,5765,1,8
144,96,6206,2,0,B|64:96|64:96,2,74.9999977648259,0|0|8
128,240,7087,6,0,B|128:280|128:280|128:344|224:344|224:280|224:280|224:216|320:216|320:280|320:280|320:312,1,374.999988824129
464,360,8630,2,0,B|496:320|496:288|464:288|400:288|400:224|464:224|528:224|528:160|464:160|400:160|400:96|464:96|496:96|496:64|464:24,1,374.999988824129
320,64,10172,1,6
176,64,10613,5,0
64,160,11054,2,0,B|112:216|160:160,1,112.499996647239,8|0
336,136,11935,1,8
256,252,12376,1,0
320,216,12596,1,0
384,180,12816,1,8
448,144,13037,1,0
256,32,13698,1,10
64,256,14579,6,0,B|64:320|144:320,1,112.499996647239,8|0
272,192,15461,1,8
276,320,15902,1,0
312,256,16122,1,0
384,128,16563,1,0
308,128,16783,1,0
160,128,17224,1,10
272,224,17664,5,0
160,336,18105,2,0,B|80:336|80:272,1,112.499996647239,8|0
160,112,18987,1,8
304,64,19427,1,0
260,124,19648,1,0
216,184,19868,1,8
172,244,20088,1,0
304,64,20749,1,10
448,320,21631,6,0,B|408:248|368:320,1,112.499996647239,8|0
192,320,22512,1,8
136,184,22953,2,0,B|136:144,2,37.4999988824129,8|0|8
56,184,23394,2,8,B|56:144,2,37.4999988824129,8|0|8
56,264,23835,2,2,B|96:336|136:264,1,112.499996647239
48,96,24716,69,4
192,64,25157,2,0,B|264:104|192:144,2,112.499996647239,8|0|0
48,232,26479,1,4
192,272,26920,2,0,B|264:232|192:192,2,112.499996647239,8|0|0
256,56,28242,85,0
380,136,28682,1,8
384,276,29123,2,0,B|308:276|308:276|300:292|300:292|280:260|280:260|260:292|260:292|240:260|240:260|220:292|220:292|212:276|212:276|180:212|116:180|48:212|20:292|52:356|140:364,1,599.999982118607
128,288,31327,69,0
144,208,31767,1,8
64,208,32208,5,0
80,136,32649,1,0
96,64,33090,1,0
168,64,33530,85,8
240,64,33971,1,0
208,144,34412,1,0
280,160,34852,1,0
224,224,35293,5,8
168,288,35734,1,0
112,352,36175,1,8
212,352,36615,6,4,B|280:352|280:280,1,112.499996647239,12|4
368,192,37497,1,8
336,96,37937,1,0
304,192,38378,1,8
392,136,38819,1,0
280,136,39260,1,8
176,136,39700,2,4,B|112:136|112:48|64:48,1,149.999995529652,4|12
64,160,40582,5,0
104,264,41023,1,8
208,304,41463,2,4,B|304:304|304:216,1,149.999995529652,4|12
400,152,42345,5,2
328,64,42785,1,2
256,152,43226,1,8
184,64,43667,1,8
48,192,44108,6,4,B|48:320|48:320|128:320|128:320,1,200
208,216,44989,2,4,B|256:304|256:304|304:216|304:216,1,200
344,80,45870,6,0,B|192:16|152:96|256:264|360:96|320:16|168:80,1,400,2|0
64,296,47413,2,0,B|64:352|128:352|128:320|128:320|128:288|192:288|192:320|192:320|192:352|256:352|256:320|256:320|256:296,1,300,2|0
392,240,48515,1,4
256,176,48956,1,4
112,216,49396,21,4
112,216,49837,1,4
112,216,50278,2,4,B|56:216|56:288,1,100
208,264,50939,2,12,B|232:216|232:216|176:216|176:216|216:96|216:96|312:96|312:96|272:184|272:184|336:192|336:192|176:320|176:320,1,700,6|4
148,236,52922,6,0,B|186:216|252:140|186:64|109:7|33:64|-32:140|33:216|71:236,1,449.999986588955,2|8
112,160,54685,1,0
176,96,55126,1,8
260,68,55567,1,0
344,96,56008,1,8
408,160,56448,6,0,B|446:236|446:236|408:313|408:313|302:313|302:313|264:236|264:236|302:160|302:160,1,449.999986588955,2|8
356,236,58211,1,0
312,316,58652,1,8
228,356,59093,1,0
136,356,59534,1,8
64,160,60414,5,8
136,80,60855,1,0
208,160,61296,1,10
136,240,61737,2,0,B|136:288|184:288,1,74.9999977648259
104,352,62398,1,0
72,240,62838,2,0,B|72:288|24:288,2,74.9999977648259
280,344,64160,5,0
280,232,64601,1,0
184,288,65042,1,0
208,96,65703,5,8
112,144,66144,1,8
120,32,66584,1,8
240,32,67025,6,0,B|424:96|240:144|240:144|52:192|240:256,1,449.999986588955,2|8
304,336,68788,1,0
400,336,69228,1,8
464,256,69669,1,0
400,176,70110,1,8
304,176,70551,6,0,B|208:304|128:304|72:224|128:144|208:144|304:256,1,449.999986588955,2|8
384,192,72314,1,0
352,96,72755,1,8
256,96,73196,1,0
224,192,73637,1,8
80,144,74517,5,8
192,144,74958,1,8
136,48,75399,1,10
80,144,75840,2,0,B|48:176|80:208|80:208|112:240|80:272|80:272|48:304|80:336|80:336|88:344|88:344,1,224.999993294478
256,256,76941,5,0
296,344,77382,1,0
296,344,77603,2,0,B|320:336|368:304|408:224|352:120|256:96|160:120|104:224|144:304|192:336|216:344,1,524.999984353781
256,320,79365,5,4
224,232,79806,1,4
288,152,80247,1,4
256,64,80688,1,6
160,176,81128,6,0,B|224:240|224:240|224:352|224:352,1,200,6|0
288,352,81789,2,0,B|288:240|288:240|352:176|352:176,1,200,6|0
416,272,82671,1,0
480,176,83112,1,0
448,128,83332,1,0
416,80,83552,2,0,B|312:80,1,100
256,80,83993,1,0
352,176,84654,6,0,B|288:248|288:248|288:352|288:352,1,200,6|0
224,352,85315,2,0,B|224:248|224:248|160:176|160:176,1,200,6|0
148,288,86197,1,0
56,352,86637,1,0
36,300,86858,1,0
32,244,87078,2,0,B|20:196|68:196|56:144,1,100
40,100,87519,1,0
160,32,88180,6,0,B|224:104|224:104|224:208|224:208,1,200,6|0
288,208,88841,2,0,B|288:104|288:104|352:32|352:32,1,200,6|0
448,96,89722,1,0
416,200,90163,1,0
376,240,90384,1,0
320,248,90604,2,0,B|264:248|228:212,1,100
204,160,91045,1,0
72,48,91706,6,0,B|136:112|136:112|136:224|136:224,1,200,6|0
200,224,92367,2,0,B|200:112|200:112|264:48|264:48,1,200,6|0
448,160,93469,2,8,B|448:224|384:224,1,100
328,224,93909,2,8,B|264:224|264:160,1,100
264,104,94350,2,8,B|264:40|328:40,1,100
384,40,94791,2,8,B|448:40|448:104,1,100
448,176,95231,6,0,B|384:256|384:256|384:352|384:352,1,200,6|0
320,352,95893,2,0,B|320:256|320:256|256:176|256:176,1,200,6|0
220,280,96774,1,0
136,352,97215,1,0
84,324,97435,1,0
32,296,97656,2,0,B|32:192,1,100
84,172,98096,1,2
160,32,98757,6,0,B|224:96|224:96|224:208|224:208,1,200,6|0
288,208,99418,2,0,B|288:96|288:96|352:32|352:32,1,200,6|0
448,80,100300,2,0,B|488:200|368:240,1,200
320,256,100961,2,0,B|200:296|160:176,1,200
144,128,101622,1,0
104,48,102283,5,4
104,144,102724,1,4
104,240,103164,2,0,B|104:344,1,100,4|4
192,208,104046,2,0,B|256:344|256:344|320:208|320:208,1,300,6|4
416,168,105148,1,4
432,64,105588,1,0
432,64,105809,6,0,B|160:32|144:192|256:232|368:192|352:32|80:64,1,600,6|0
136,168,107572,6,0,B|176:232|176:232|232:232|232:232|184:280|184:280|200:344|200:344|136:312|136:312|72:344|72:344|88:280|88:280|40:232|40:232|96:232,1,600,6|0
32,128,109335,6,0,B|96:128|96:96|96:96|96:64|160:64|160:96|160:96|160:128|224:128|224:96|224:96|224:64|288:64|288:96|288:96|288:128|352:128|352:96|352:96|352:64|416:64|416:96|416:96|416:128|480:128,1,600,6|0
300,192,111097,6,4,B|256:232|212:192,3,100,6|4|4|6
356,240,112420,2,2,B|256:332|156:240,1,224.999993294478,6|0
