osu file format v12

[General]
AudioFilename: Inazuma Eleven GO Chrono Stone Opening 1.mp3
AudioLeadIn: 0
PreviewTime: 61708
Countdown: 0
SampleSet: Soft
StackLeniency: 0.7
Mode: 0
LetterboxInBreaks: 0

[Editor]
Bookmarks: 41875
DistanceSpacing: 0.8
BeatDivisor: 4
GridSize: 8

[Metadata]
Title:Jounetsu de Mune Atsu! (TV Size)
TitleUnicode:Jounetsu de Mune Atsu! (TV Size)
Artist:T-Pistonz+KMC
ArtistUnicode:T-Pistonz+KMC
Creator:irenechung98
Version:Easy
Source:Inazuma Eleven Go 2 Chrono stone
Tags:anime inazuma inazuma eleven inazuma eleven go chrono stone K i A i
BeatmapID:179341
BeatmapSetID:59023

[Difficulty]
HPDrainRate:2
CircleSize:3
OverallDifficulty:1
ApproachRate:2
SliderMultiplier:1
SliderTickRate:1

[Events]
//Background and Video events
Video,320,"Inazuma Eleven GO Chrono Stone OP 1 Subbed_(480p).flv"
0,0,"Easy.jpg",0,0
//Break Periods
2,20909,28149
//Storyboard Layer 0 (Background)
//Storyboard Layer 1 (Fail)
//Storyboard Layer 2 (Pass)
//Storyboard Layer 3 (Foreground)
//Storyboard Sound Samples
//Background Colour Transformations
3,100,0,0,0

[TimingPoints]
710,499.990652498755,4,2,0,89,1,0
61583,-100,4,2,0,89,0,1
83922,-100,4,2,0,89,0,0

[Colours]
Combo1 : 255,204,128
Combo2 : 140,253,140
Combo3 : 131,131,252
Combo4 : 252,131,131
Combo5 : 251,66,66

[HitObjects]
344,176,4709,2,0,L|344:276,3,100
448,276,6709,2,0,L|448:160,3,100
288,224,8709,6,0,P|352:160|288:96,2,200
437,166,11709,1,4,0:0:0:0:
328,56,12709,6,8,L|216:56,2,100
276,140,14209,1,2,0:0:0:0:
328,216,14709,2,8,L|440:216,2,100
232,244,16209,1,2,0:0:0:0:
164,176,16709,5,2,0:0:0:0:
184,76,17209,1,2,0:0:0:0:
284,76,17709,2,0,B|348:76,2,50
256,192,18709,12,4,20709,0:0:0:0:
64,96,29709,5,0,0:0:0:0:
64,176,30209,2,0,P|96:224|64:272,2,100
64,96,31709,1,8,0:0:0:0:
224,96,32709,2,0,L|288:176,1,100
364,152,33709,5,8,0:0:0:0:
364,252,34209,2,0,P|412:284|460:252,2,100
336,160,35709,1,0,0:0:0:0:
476,236,36709,2,2,L|412:316,1,100
336,288,37709,5,8,0:0:0:0:
320,208,38209,2,0,P|240:128|264:288,1,400
352,292,40709,1,2,0:0:0:0:
452,292,41209,1,0,0:0:0:0:
392,208,41709,6,0,L|392:104,1,100
312,112,42709,2,0,L|312:216,1,100
232,216,43709,2,0,L|112:216,2,100
328,216,45209,1,4,0:0:0:0:
232,216,45709,6,0,P|328:120|424:216,1,300
328,216,47709,2,0,P|232:312|136:216,1,300
60,152,49709,5,8,0:0:0:0:
156,120,50209,2,0,L|236:56,1,100
308,128,51209,1,0,0:0:0:0:
311,207,51709,6,2,L|391:271,1,100,2|2,0:0|0:0,0:0:0:0:
468,278,52709,1,2,0:0:0:0:
468,192,53209,1,0,0:0:0:0:
468,92,53709,5,8,0:0:0:0:
392,156,54209,2,0,L|280:156,1,100
192,152,55209,1,0,0:0:0:0:
116,216,55709,2,2,L|36:280,1,100
40,180,56709,1,0,0:0:0:0:
240,200,57708,6,0,L|240:312,2,100
340,200,59208,1,8,0:0:0:0:
440,200,59708,2,0,L|440:88,2,100
236,328,61708,6,0,L|336:328,2,100
232,228,63208,1,8,0:0:0:0:
232,128,63708,2,0,L|132:128,2,100,0|0|0,0:0|0:0|0:0,0:0:0:0:
332,128,65208,1,8,0:0:0:0:
408,64,65708,6,2,B|512:64|512:64|512:176,1,200
444,232,67208,1,0,0:0:0:0:
344,232,67708,2,2,B|344:328|344:328|448:328,1,200,0|2,0:0|0:0,0:0:0:0:
400,132,69708,6,8,L|400:28,2,100
300,132,71208,1,0,0:0:0:0:
200,132,71708,2,8,L|200:236,2,100
100,132,73208,1,0,0:0:0:0:
104,232,73708,5,2,0:0:0:0:
304,232,74708,1,2,0:0:0:0:
256,192,75708,12,0,77208,0:0:0:0:
360,192,77708,6,0,B|360:96|360:96|248:96|248:96,1,200
80,192,79708,2,0,B|80:288|80:288|192:288|192:288,1,200
284,292,81208,1,2,0:0:0:0:
256,192,81708,12,4,83708,0:0:0:0:
