osu file format v4

[General]
AudioFilename: T&S seq. factory - TRANOID.mp3
AudioLeadIn: 0
AudioHash: 7dfac0fd1307a32b23f4756058f2b732
PreviewTime: -1
SampleSet: Normal
EditorBookmarks: 79946

[Metadata]
Title:TRANOID
Artist:T&S seq. factory
Creator:Surge
Version:Normal

[Difficulty]
HPDrainRate:4
CircleSize:6
OverallDifficulty:5
SliderMultiplier: 0.7
SliderTickRate: 1

[Events]
1,-1200,"T&S seq. factory - TRANOID.avi"
2,39417,43381
3,0,163,162,255

[TimingPoints]
1243,461.538461538462,4,1,0
38280,315.789473684211,4,1,0

[HitObjects]
224,160,1243,1,0,
288,160,2165,1,0,
352,160,3088,1,0,
416,160,4011,1,0,
416,224,4934,5,0,
352,224,5857,1,0,
288,224,6780,1,0,
224,224,7703,1,0,
32,160,8626,5,0,
96,160,9549,2,0,C|96:160|224:64,2,140
160,192,12318,2,0,C|160:192|416:64,1,280
256,128,16010,5,0,
160,96,18778,2,0,B|160:96|160:192|256:256|416:320,1,350
408,315,21547,2,0,B|408:315|416:256|384:192,1,122.5
352,128,23393,6,0,B|352:128|320:96|192:96,1,140
128,128,25239,1,0,
96,96,25700,1,0,
128,96,26162,1,0,
96,128,26623,1,0,
384,192,28931,5,0,
416,192,29392,1,0,
448,192,29854,1,0,
416,160,30315,1,0,
363,130,30777,2,0,B|363:130|320:96|224:96,1,140
160,192,34468,6,0,B|160:192|256:64,1,140
352,192,36314,2,0,B|352:192|256:320,1,140
256,192,38270,12,4,39217
256,64,44581,5,0,
256,64,45212,1,0,
256,128,45844,5,0,
256,128,46475,1,0,
256,192,47107,5,0,
256,192,47738,1,0,
256,256,48370,5,0,
256,256,49001,1,0,
160,96,49633,5,0,
160,96,49949,5,0,
160,96,50264,5,0,
160,96,50580,5,0,
352,96,52159,5,0,
352,96,52474,5,0,
352,96,52790,5,0,
352,96,53106,5,0,
181,211,54689,5,0,
224,256,55005,5,0,
288,288,55321,5,0,
352,256,55636,5,0,
203,205,57215,5,0,
160,160,57531,5,0,
96,128,57847,5,0,
32,160,58162,5,0,
97,102,59737,5,0,
128,128,60053,1,0,
160,96,60369,1,0,
192,128,60685,1,0,
224,96,61000,2,0,B|224:96|256:128|256:192|256:256|288:288|352:288,1,210
352,256,62263,5,0,
384,224,62579,1,0,
352,192,62895,1,0,
384,160,63211,1,0,
352,128,63526,2,0,B|352:128|288:128|160:224,1,210
128,192,64789,5,0,
96,128,65421,1,0,
128,64,66052,1,0,
160,96,66368,1,0,
192,64,66684,1,0,
224,96,67000,1,0,
352,64,68579,6,0,B|352:64|416:64,3,70
383,102,69842,5,0,
352,128,70158,1,0,
320,96,70474,1,0,
288,128,70790,1,0,
256,96,71105,2,0,B|256:96|224:128|224:192|224:256|192:288|128:288,1,210
128,256,72368,5,0,
96,224,72684,1,0,
128,192,73000,1,0,
96,160,73316,1,0,
128,128,73631,2,0,B|128:128|192:128|320:224,1,210
352,192,74894,5,0,
320,128,75526,1,0,
352,64,76157,1,0,
384,96,76473,1,0,
416,64,76789,1,0,
448,96,77105,1,0,
416,128,77420,6,0,B|416:128|352:192|128:192,1,280
96,128,79946,2,0,B|96:128|160:192|384:192,1,280
192,320,82472,2,0,B|192:320|256:256|256:32,1,280
256,192,86265,2,0,C|256:192|224:160|256:128|320:128|320:224|200:232|147:114|256:64,1,630
