osu file format v14

[General]
AudioFilename: pazolite.mp3
AudioLeadIn: 0
PreviewTime: 185010
Countdown: 0
SampleSet: Normal
StackLeniency: 0.7
Mode: 0
LetterboxInBreaks: 0
WidescreenStoryboard: 0

[Editor]
DistanceSpacing: 0.7
BeatDivisor: 4
GridSize: 8
TimelineZoom: 2.699999

[Metadata]
Title:Distorted Lovesong
TitleUnicode:Distorted Lovesong
Artist:T+Pazolite feat. Rizna
ArtistUnicode:T+Pazolite feat. Rizna
Creator:Drezahk
Version:Distorsion
Source:
Tags:hardcore tano*c syndrome 4 short version
BeatmapID:988692
BeatmapSetID:461663

[Difficulty]
HPDrainRate:7
CircleSize:3.8
OverallDifficulty:9.2
ApproachRate:9.6
SliderMultiplier:2
SliderTickRate:1

[Events]
//Background and Video events
0,0,"Dis.jpg",0,0
//Break Periods
//Storyboard Layer 0 (Background)
//Storyboard Layer 1 (Fail)
//Storyboard Layer 2 (Pass)
//Storyboard Layer 3 (Foreground)
//Storyboard Sound Samples

[TimingPoints]
10,250,4,1,1,100,1,0
10,-100,4,1,3,100,0,0
197,-100,4,1,3,5,0,0
260,-100,4,1,3,100,0,0
447,-100,4,1,3,5,0,0
510,-100,4,1,3,100,0,0
697,-100,4,1,3,5,0,0
760,-100,4,1,2,100,0,0
947,-100,4,1,1,5,0,0
1010,-100,4,1,1,75,0,0
17010,-100,4,1,1,75,0,0
34010,-133.333333333333,4,2,4,65,0,0
50697,-133.333333333333,4,2,4,5,0,0
50760,-133.333333333333,4,2,4,65,0,0
50947,-133.333333333333,4,2,4,5,0,0
51010,-133.333333333333,4,2,4,65,0,0
55697,-133.333333333333,4,2,4,5,0,0
55760,-133.333333333333,4,2,4,65,0,0
55947,-133.333333333333,4,2,4,5,0,0
56010,-133.333333333333,4,2,4,65,0,0
64510,-100,4,1,2,70,0,0
65010,-100,4,1,1,70,0,0
73760,-100,4,1,2,70,0,0
74010,-100,4,1,1,70,0,0
77760,-100,4,1,2,70,0,0
78010,-100,4,1,1,70,0,0
78260,-100,4,1,2,70,0,0
78510,-100,4,1,1,70,0,0
78760,-100,4,1,2,70,0,0
79010,-100,4,1,1,70,0,0
80010,-100,4,1,2,70,0,0
80510,-100,4,1,1,70,0,0
81010,-83.3333333333333,4,1,1,85,0,1
113010,-100,4,1,1,75,0,0
121010,-100,4,1,1,75,0,0
129010,-133.333333333333,4,1,1,65,0,0
144010,-133.333333333333,4,1,4,70,0,0
184260,-133.333333333333,4,1,3,100,0,0
184447,-133.333333333333,4,1,3,100,0,0
184510,-133.333333333333,4,1,3,100,0,0
184697,-133.333333333333,4,1,3,100,0,0
184760,-133.333333333333,4,1,2,100,0,0
185010,-133.333333333333,4,1,1,70,0,0
201010,-83.3333333333333,4,1,1,85,0,1
233010,-100,4,1,1,75,0,0
241010,-100,4,1,1,75,0,0
250010,-133.333333333333,4,2,4,65,0,0
264260,-133.333333333333,4,2,4,50,0,0
264510,-133.333333333333,4,2,4,40,0,0
264760,-133.333333333333,4,2,4,30,0,0
265010,-133.333333333333,4,2,4,10,0,0

[HitObjects]
256,192,10,6,0,P|280:128|248:32,1,150
256,192,260,2,0,P|312:184|392:256,1,150
256,192,510,2,0,P|216:224|120:216,1,150
335,109,760,6,0,P|383:157|383:237,1,150,2|0,0:0|0:0,0:0:0:0:
464,224,1010,6,0,P|424:304|312:288,1,200,4|0,0:0|0:0,0:0:0:0:
152,336,1385,1,0,0:0:0:0:
208,188,1510,1,8,0:0:0:0:
84,288,1635,1,0,0:0:0:0:
192,276,1760,2,0,L|104:200,1,100
58,156,2010,5,4,0:0:0:0:
58,156,2072,1,0,0:0:0:0:
58,156,2135,1,0,0:0:0:0:
188,64,2260,2,0,L|84:64,1,100
208,156,2510,2,0,L|316:156,1,100,8|0,0:0|0:0,0:0:0:0:
280,264,2760,2,0,P|264:316|280:380,1,100
368,308,3010,6,0,P|396:208|368:104,1,200,4|0,0:0|0:0,0:0:0:0:
280,168,3385,1,0,0:0:0:0:
232,72,3510,1,8,0:0:0:0:
168,160,3635,1,0,0:0:0:0:
104,72,3760,1,0,0:0:0:0:
40,160,3885,1,0,0:0:0:0:
40,160,3947,1,0,0:0:0:0:
40,160,4010,5,4,0:0:0:0:
112,240,4135,1,0,0:0:0:0:
176,320,4260,2,0,L|248:232,1,100
232,72,4510,2,0,L|344:104,1,100,12|0,0:0|0:0,0:0:0:0:
400,184,4760,1,4,0:0:0:0:
400,208,4822,1,0,0:0:0:0:
400,232,4885,1,0,0:0:0:0:
400,256,4947,1,0,0:0:0:0:
400,280,5010,6,0,B|288:312|288:312|224:224,1,200,4|0,0:0|0:0,0:0:0:0:
280,144,5385,1,0,0:0:0:0:
80,208,5510,1,8,0:0:0:0:
144,96,5635,1,0,0:0:0:0:
176,320,5760,2,0,L|72:320,1,100
24,124,6010,6,0,L|80:208,1,100,4|0,0:0|0:0,0:0:0:0:
208,232,6260,1,0,0:0:0:0:
80,208,6385,1,0,0:0:0:0:
208,232,6510,2,0,L|208:104,1,100,8|0,0:0|0:0,0:0:0:0:
296,40,6760,1,0,0:0:0:0:
352,160,6885,1,0,0:0:0:0:
208,104,7010,6,0,B|144:96|144:96|48:40|48:40|80:40,1,200,4|0,0:0|0:0,0:0:0:0:
96,168,7385,1,0,0:0:0:0:
208,104,7510,2,0,L|296:208,1,100,8|0,0:0|0:0,0:0:0:0:
304,304,7760,1,0,0:0:0:0:
192,240,7885,1,0,0:0:0:0:
176,256,7947,1,0,0:0:0:0:
160,272,8010,6,0,L|48:272,1,100,4|0,0:0|0:0,0:0:0:0:
32,144,8260,1,0,0:0:0:0:
136,64,8385,1,0,0:0:0:0:
144,192,8510,1,12,0:0:0:0:
64,128,8635,1,0,0:0:0:0:
168,48,8760,1,4,0:0:0:0:
176,176,8885,1,0,0:0:0:0:
192,184,8947,1,0,0:0:0:0:
208,192,9010,6,0,B|344:152|344:152|384:96,1,200,4|0,0:0|0:0,0:0:0:0:
448,216,9385,1,0,0:0:0:0:
336,288,9510,2,0,L|456:288,1,100,8|0,0:0|0:0,0:0:0:0:
288,328,9760,2,0,L|408:328,1,100
336,188,10010,6,0,L|336:288,1,100,4|0,0:0|0:0,0:0:0:0:
208,288,10260,1,0,0:0:0:0:
448,216,10385,1,0,0:0:0:0:
336,152,10510,2,0,L|232:88,1,100,8|0,0:0|0:0,0:0:0:0:
88,96,10760,2,0,L|173:148,1,100
200,160,10947,1,0,0:0:0:0:
224,176,11010,6,0,P|144:232|24:256,1,200,4|0,0:0|0:0,0:0:0:0:
192,352,11385,1,0,0:0:0:0:
200,160,11510,1,8,0:0:0:0:
280,256,11635,1,0,0:0:0:0:
80,176,11760,1,0,0:0:0:0:
192,320,11885,1,0,0:0:0:0:
208,320,11947,1,0,0:0:0:0:
224,320,12010,6,0,P|272:336|328:336,2,100,4|0|0,0:0|0:0|0:0,0:0:0:0:
104,280,12385,1,0,0:0:0:0:
48,112,12510,1,12,0:0:0:0:
168,160,12635,1,0,0:0:0:0:
24,248,12760,1,4,0:0:0:0:
136,80,12885,1,0,0:0:0:0:
352,328,13010,6,0,B|256:272|256:152,1,200,4|0,0:0|0:0,0:0:0:0:
376,216,13385,1,0,0:0:0:0:
448,112,13510,2,0,L|336:112,1,100,8|0,0:0|0:0,0:0:0:0:
248,32,13760,2,0,L|352:32,1,100
448,112,14010,6,0,P|464:160|448:216,1,100,4|0,0:0|0:0,0:0:0:0:
370,311,14260,2,0,P|359:262|375:215,1,100
288,104,14510,1,8,0:0:0:0:
168,192,14635,1,0,0:0:0:0:
376,216,14760,1,0,0:0:0:0:
248,352,14885,1,0,0:0:0:0:
248,336,14947,1,0,0:0:0:0:
248,320,15010,6,0,P|248:216|208:112,1,200,4|0,0:0|0:0,0:0:0:0:
64,144,15385,1,0,0:0:0:0:
64,160,15447,1,0,0:0:0:0:
64,176,15510,2,0,L|128:264,1,100,8|0,0:0|0:0,0:0:0:0:
288,104,15760,1,0,0:0:0:0:
168,152,15885,1,0,0:0:0:0:
168,168,15947,1,0,0:0:0:0:
168,192,16010,6,0,B|224:192|224:192|272:208|272:208,2,100,4|0|0,0:0|0:0|0:0,0:0:0:0:
48,312,16385,1,0,0:0:0:0:
248,352,16510,1,12,0:0:0:0:
120,240,16635,1,0,0:0:0:0:
144,368,16760,1,4,0:0:0:0:
304,280,16885,1,0,0:0:0:0:
288,280,16947,1,0,0:0:0:0:
264,280,17010,6,0,P|240:176|296:96,1,200,6|2,0:0|0:0,0:0:0:0:
376,200,17385,1,0,0:0:0:0:
456,96,17510,2,0,L|336:48,1,100,10|4,0:0|0:0,0:0:0:0:
194,64,17760,2,0,L|286:101,1,100,2|0,0:0|0:0,0:0:0:0:
376,200,18010,6,0,P|392:248|376:304,1,100,6|0,0:0|0:0,0:0:0:0:
281,197,18260,2,0,P|270:148|286:101,1,100,2|0,0:0|0:0,0:0:0:0:
184,176,18510,1,10,0:0:0:0:
88,88,18635,1,0,0:0:0:0:
200,152,18760,1,2,0:0:0:0:
80,112,18885,1,0,0:0:0:0:
32,224,19010,6,0,B|96:224|96:224|136:256|136:256|232:256,1,200,6|2,0:0|0:0,0:0:0:0:
368,320,19385,1,0,0:0:0:0:
281,197,19510,1,10,0:0:0:0:
220,256,19635,1,4,0:0:0:0:
448,248,19760,1,2,0:0:0:0:
160,336,19885,1,4,0:0:0:0:
176,336,19947,1,0,0:0:0:0:
200,336,20010,6,0,B|256:336|256:336|296:296,2,100,2|0|2,0:0|0:0|0:0,0:0:0:0:
112,240,20385,1,0,0:0:0:0:
168,120,20510,1,10,0:0:0:0:
56,56,20635,1,0,0:0:0:0:
200,208,20760,5,2,0:0:0:0:
80,160,20885,1,0,0:0:0:0:
160,40,21010,2,0,B|232:40|232:40|336:128,1,200,6|2,0:0|0:0,0:0:0:0:
320,256,21385,1,0,0:0:0:0:
304,256,21447,1,0,0:0:0:0:
280,256,21510,2,0,L|192:344,1,100,10|4,0:0|0:0,0:0:0:0:
112,240,21760,2,0,L|24:328,1,100,2|0,0:0|0:0,0:0:0:0:
80,160,22010,6,0,L|168:80,1,100,6|0,0:0|0:0,0:0:0:0:
200,208,22260,2,0,L|288:128,1,100,2|0,0:0|0:0,0:0:0:0:
392,88,22510,2,0,B|336:88|336:88|288:56,1,100,10|0,0:0|0:0,0:0:0:0:
200,108,22760,2,0,L|200:232,1,100,2|0,0:0|0:0,0:0:0:0:
416,272,23010,6,2,P|368:312|232:312,1,200,6|2,0:0|0:0,0:0:0:0:
120,256,23385,1,0,0:0:0:0:
120,256,23447,1,0,0:0:0:0:
120,256,23510,2,0,P|104:200|120:160,1,100,10|4,0:0|0:0,0:0:0:0:
200,64,23760,1,2,0:0:0:0:
360,168,23885,1,4,0:0:0:0:
344,168,23947,1,0,0:0:0:0:
320,168,24010,6,0,P|264:168|200:192,2,100,2|0|2,0:0|0:0|0:0,0:0:0:0:
416,272,24385,1,0,0:0:0:0:
222,180,24510,1,10,0:0:0:0:
344,88,24635,1,0,0:0:0:0:
272,304,24760,1,2,0:0:0:0:
360,168,24885,1,0,0:0:0:0:
222,180,25010,6,2,P|136:176|200:128,1,200,6|2,0:0|0:0,0:0:0:0:
280,48,25385,1,0,0:0:0:0:
272,304,25510,2,0,L|160:280,1,100,10|4,0:0|0:0,0:0:0:0:
48,320,25760,2,0,P|80:272|64:224,1,100,2|0,0:0|0:0,0:0:0:0:
222,180,26010,6,0,L|88:160,1,100,6|0,0:0|0:0,0:0:0:0:
56,64,26260,2,0,L|154:78,1,100,2|0,0:0|0:0,0:0:0:0:
272,112,26510,1,10,0:0:0:0:
288,120,26572,1,0,0:0:0:0:
304,128,26635,1,0,0:0:0:0:
376,240,26760,2,0,L|408:128,1,100,2|0,0:0|0:0,0:0:0:0:
184,280,27010,6,2,B|280:304|280:304|192:376,1,200,6|2,0:0|0:0,0:0:0:0:
104,280,27385,1,0,0:0:0:0:
144,160,27510,2,0,L|16:128,1,100,10|4,0:0|0:0,0:0:0:0:
136,48,27760,1,2,0:0:0:0:
272,112,27885,1,4,0:0:0:0:
312,112,27947,1,0,0:0:0:0:
352,112,28010,6,0,B|416:112|416:112|456:96,2,100,2|0|2,0:0|0:0|0:0,0:0:0:0:
320,240,28385,1,0,0:0:0:0:
448,184,28510,1,10,0:0:0:0:
416,320,28635,1,0,0:0:0:0:
344,200,28760,1,2,0:0:0:0:
472,144,28885,1,0,0:0:0:0:
440,280,29010,6,2,B|304:328|304:328|232:288,1,200,6|2,0:0|0:0,0:0:0:0:
136,232,29385,1,0,0:0:0:0:
184,104,29510,1,10,0:0:0:0:
64,176,29635,1,4,0:0:0:0:
312,112,29760,2,0,L|216:176,1,100,2|0,0:0|0:0,0:0:0:0:
136,232,30010,6,0,L|136:368,1,100,6|0,0:0|0:0,0:0:0:0:
64,176,30260,2,0,P|80:128|64:80,1,100,2|0,0:0|0:0,0:0:0:0:
184,104,30510,2,0,L|288:32,1,100,10|0,0:0|0:0,0:0:0:0:
280,184,30760,1,2,0:0:0:0:
392,96,30885,1,0,0:0:0:0:
392,328,31010,6,2,P|288:312|200:264,1,200,6|2,0:0|0:0,0:0:0:0:
128,152,31385,1,0,0:0:0:0:
392,96,31510,2,0,L|272:120,1,100,10|4,0:0|0:0,0:0:0:0:
216,232,31760,1,2,0:0:0:0:
200,56,31885,1,4,0:0:0:0:
200,40,31947,1,0,0:0:0:0:
200,24,32010,6,0,B|128:40|128:40|80:24,2,100,2|0|2,0:0|0:0|0:0,0:0:0:0:
304,136,32385,1,0,0:0:0:0:
64,208,32510,1,2,0:0:0:0:
192,288,32635,1,2,0:0:0:0:
64,88,32760,1,2,0:0:0:0:
208,144,32885,1,2,0:0:0:0:
48,328,33010,5,6,0:0:0:0:
352,112,34010,5,0,0:0:0:0:
296,200,34260,1,0,0:0:0:0:
192,200,34510,1,0,0:0:0:0:
136,112,34760,1,0,0:0:0:0:
192,200,35010,6,0,P|208:272|192:352,1,150.000005722046
296,320,35510,1,0,0:0:0:0:
360,240,35760,1,0,0:0:0:0:
344,136,36010,6,0,P|264:120|192:72,1,150.000005722046
120,152,36510,1,0,0:0:0:0:
80,248,36760,1,0,0:0:0:0:
264,296,37010,5,0,0:0:0:0:
232,200,37260,1,0,0:0:0:0:
288,288,37510,1,0,0:0:0:0:
216,208,37760,1,0,0:0:0:0:
376,208,38010,6,0,P|352:128|368:56,1,150.000005722046
432,144,38510,2,0,P|455:214|443:287,1,150.000005722046
344,320,39010,5,0,0:0:0:0:
240,288,39260,1,0,0:0:0:0:
184,200,39510,1,0,0:0:0:0:
256,280,39760,1,0,0:0:0:0:
80,296,40010,6,0,B|80:208|80:208|104:144,1,150.000005722046
162,53,40510,2,0,B|183:111|183:111|183:199,1,150.000005722046
288,192,41010,5,0,0:0:0:0:
360,328,41260,1,0,0:0:0:0:
424,192,41510,1,0,0:0:0:0:
360,56,41760,1,0,0:0:0:0:
288,192,42010,6,0,L|120:192,1,150.000005722046
104,336,42510,1,0,0:0:0:0:
240,272,42760,1,0,0:0:0:0:
424,192,43010,6,0,L|424:352,1,150.000005722046
352,224,43510,2,0,L|352:48,1,150.000005722046
96,112,44010,6,0,L|256:112,1,150.000005722046
280,184,44510,2,0,L|128:184,1,150.000005722046
176,328,45010,5,0,0:0:0:0:
72,224,45260,1,0,0:0:0:0:
16,368,45510,1,0,0:0:0:0:
152,312,45760,1,0,0:0:0:0:
304,312,46010,5,0,0:0:0:0:
448,344,46260,1,0,0:0:0:0:
400,200,46510,1,0,0:0:0:0:
400,48,46760,1,0,0:0:0:0:
256,96,47010,5,0,0:0:0:0:
104,96,47260,1,0,0:0:0:0:
104,248,47510,1,0,0:0:0:0:
256,248,47760,1,0,0:0:0:0:
160,152,48010,5,0,0:0:0:0:
168,160,48260,5,0,0:0:0:0:
176,168,48510,5,0,0:0:0:0:
184,176,48760,5,0,0:0:0:0:
352,80,49010,6,0,P|376:160|360:224,1,150.000005722046
176,296,49510,1,0,0:0:0:0:
56,144,49760,1,0,0:0:0:0:
352,80,50010,6,0,B|288:80|288:80|256:112|256:112|200:112,1,150.000005722046
336,264,50510,2,0,L|416:176,1,112.500004291535
411,180,50760,2,0,P|440:240|400:304,1,112.500004291535
426,281,51010,5,0,0:0:0:0:
232,304,51260,1,0,0:0:0:0:
72,192,51510,1,0,0:0:0:0:
208,48,51760,1,0,0:0:0:0:
160,240,52010,6,0,B|224:184|224:184|248:112,2,150.000005722046
344,296,52760,1,0,0:0:0:0:
448,136,53010,6,0,B|360:136|360:136|296:88,2,150.000005722046
280,232,53760,1,0,0:0:0:0:
200,288,53885,1,0,0:0:0:0:
200,288,53947,1,0,0:0:0:0:
200,288,54010,6,0,B|120:320|120:320|32:320,1,150.000005722046
112,136,54510,1,0,0:0:0:0:
296,80,54760,1,0,0:0:0:0:
104,56,55010,6,0,B|216:40|216:40|256:16,1,150.000005722046
320,200,55510,2,0,B|248:184|248:184|192:136,1,112.500004291535
218,158,55760,6,0,B|184:216|184:216|184:280,1,112.500004291535
184,261,56010,6,0,P|232:312|184:304,1,150.000005722046
64,184,56510,5,0,0:0:0:0:
224,72,56760,1,0,0:0:0:0:
328,304,57010,6,0,P|368:280|304:272,2,150.000005722046
144,368,57760,1,0,0:0:0:0:
305,262,58010,6,0,B|337:198|337:198|337:110,1,150.000005722046
160,200,58510,1,0,0:0:0:0:
56,32,58760,1,0,0:0:0:0:
248,72,59010,6,0,P|168:104|88:120,1,150.000005722046
104,312,59510,1,0,0:0:0:0:
264,200,59760,1,0,0:0:0:0:
424,312,60010,6,0,P|408:240|424:160,1,150.000005722046
272,288,60510,1,0,0:0:0:0:
96,208,60760,1,0,0:0:0:0:
184,168,60885,1,0,0:0:0:0:
184,168,60947,1,0,0:0:0:0:
184,168,61010,6,0,B|264:120|264:120|328:120,2,150.000005722046
352,272,61760,1,0,0:0:0:0:
472,120,62010,5,0,0:0:0:0:
392,280,62260,1,0,0:0:0:0:
336,96,62510,2,0,B|264:152|264:152|264:240,1,150.000005722046
264,210,63010,5,0,0:0:0:0:
256,192,63135,12,0,64385,0:0:0:0:
112,88,64510,6,0,L|200:88,1,50
192,88,64635,1,2,0:0:0:0:
224,96,64697,1,2,0:0:0:0:
256,112,64760,1,2,0:0:0:0:
272,136,64822,1,2,0:0:0:0:
280,168,64885,1,2,0:0:0:0:
272,200,64947,1,0,0:0:0:0:
248,224,65010,6,2,B|208:336|208:336|296:320,1,200,6|2,0:0|0:0,0:0:0:0:
360,256,65385,1,0,0:0:0:0:
368,160,65510,2,0,P|344:88|304:40,1,100,0|4,0:0|0:0,0:0:0:0:
224,96,65760,1,0,0:0:0:0:
184,316,65885,1,2,0:0:0:0:
112,248,66010,6,0,B|64:176|64:176|64:56,1,200,4|2,0:0|0:0,0:0:0:0:
136,128,66385,1,0,0:0:0:0:
184,216,66510,2,0,L|184:336,1,100
280,352,66760,2,0,L|280:240,1,100
408,88,67010,6,2,B|336:88|336:88|272:64|272:64|192:64,1,200,6|2,0:0|0:0,0:0:0:0:
112,248,67510,2,0,L|144:360,1,100,4|4,0:0|0:0,0:0:0:0:
224,296,67760,1,0,0:0:0:0:
240,280,67822,1,0,0:0:0:0:
248,264,67885,1,4,0:0:0:0:
256,248,67947,1,0,0:0:0:0:
256,232,68010,6,0,L|232:168,1,50
232,168,68135,2,0,L|248:96,1,50
248,104,68260,2,0,L|288:64,1,50
304,64,68385,2,0,L|376:64,1,50
368,72,68510,6,0,L|408:112,1,50
416,128,68635,2,0,L|432:184,1,50
424,192,68760,2,0,L|400:248,1,50
384,248,68885,2,0,L|320:264,1,50
328,280,69010,6,2,B|264:376|264:376|168:360,1,200,4|0,0:0|0:0,0:0:0:0:
120,280,69385,1,0,0:0:0:0:
32,232,69510,2,0,L|136:168,1,100,0|4,0:0|0:0,0:0:0:0:
216,208,69760,1,0,0:0:0:0:
232,192,69822,1,0,0:0:0:0:
240,176,69885,1,0,0:0:0:0:
240,160,69947,1,0,0:0:0:0:
232,144,70010,6,2,P|336:96|400:32,1,200,6|2,0:0|0:0,0:0:0:0:
424,192,70385,1,0,0:0:0:0:
328,280,70510,2,0,B|256:336|256:336|176:336|112:368,1,200
40,40,71010,6,2,P|104:96|64:216,1,200,6|2,0:0|0:0,0:0:0:0:
224,56,71510,2,0,L|328:104,1,100,4|4,0:0|0:0,0:0:0:0:
312,200,71760,2,0,L|200:144,1,100,0|4,0:0|0:0,0:0:0:0:
144,304,72010,6,0,L|104:248,3,50
136,176,72260,2,0,L|160:128,3,50
344,112,72510,6,0,L|280:88,1,50
376,184,72635,2,0,L|432:144,1,50
400,64,72760,2,0,L|464:64,1,50
480,80,72885,1,0,0:0:0:0:
480,96,72947,1,0,0:0:0:0:
480,112,73010,6,2,B|496:208|496:208|424:288,1,200,6|2,0:0|0:0,0:0:0:0:
336,248,73385,1,0,0:0:0:0:
288,336,73510,2,0,P|240:264|248:216,1,100,0|4,0:0|0:0,0:0:0:0:
248,216,73697,1,0,0:0:0:0:
264,184,73760,1,2,0:0:0:0:
272,160,73822,1,2,0:0:0:0:
272,136,73885,1,2,0:0:0:0:
256,112,73947,1,2,0:0:0:0:
232,96,74010,6,0,B|176:112|176:112|96:96,1,100,6|0,0:0|0:0,0:0:0:0:
72,184,74260,1,0,0:0:0:0:
112,280,74385,1,0,0:0:0:0:
272,264,74510,2,0,L|208:264,3,50
152,192,74760,2,0,L|200:168,1,50
344,120,74885,2,0,L|344:184,1,50
392,280,75010,6,0,B|440:256|440:256|440:192,2,100,6|0|2,0:0|0:0|0:0,0:0:0:0:
312,344,75385,1,0,0:0:0:0:
175,291,75510,2,0,L|287:259,1,100,0|4,0:0|0:0,0:0:0:0:
360,216,75760,2,0,L|296:192,1,50,2|0,0:0|0:0,0:0:0:0:
280,136,75885,2,0,L|224:160,1,50,6|0,0:0|0:0,0:0:0:0:
152,192,76010,6,0,P|112:152|88:96,1,100
56,208,76260,2,0,L|32:328,1,100
136,280,76510,1,0,0:0:0:0:
152,272,76572,1,0,0:0:0:0:
176,272,76635,1,0,0:0:0:0:
192,280,76697,1,0,0:0:0:0:
208,296,76760,2,0,L|264:264,1,50
320,368,76885,2,0,L|264:312,1,50
368,312,77010,6,2,P|432:248|408:144,1,200,6|2,0:0|0:0,0:0:0:0:
104,24,77510,6,2,P|136:112|216:104,1,150,6|2,0:0|0:0,0:0:0:0:
208,48,77760,2,2,P|240:72|248:88,1,50
304,128,77885,2,2,L|248:168,1,50
360,40,78010,6,2,B|384:144|384:144|360:224,1,150,6|2,0:0|0:0,0:0:0:0:
456,120,78260,2,2,L|440:56,1,50
448,192,78385,2,2,L|504:192,1,50
496,264,78510,6,2,B|440:320|440:320|352:312,1,150,6|2,0:0|0:0,0:0:0:0:
216,264,78760,2,2,L|288:240,1,50
312,360,78885,2,2,B|292:321|292:321|272:312,1,50
208,344,79010,6,2,B|152:360|152:360|120:256,1,150,6|2,0:0|0:0,0:0:0:0:
24,128,79260,6,0,B|120:200|120:200|168:176,1,150,4|0,0:0|0:0,0:0:0:0:
224,112,79510,2,0,L|88:112,1,100,6|4,0:0|0:0,0:0:0:0:
304,264,79760,2,0,L|232:144,1,100,6|4,0:0|0:0,0:0:0:0:
64,304,80010,6,2,L|48:248,3,50
104,128,80260,2,2,L|80:192,1,50
144,272,80385,2,2,L|160:208,1,50
224,112,80510,1,2,0:0:0:0:
240,144,80572,1,0,0:0:0:0:
264,168,80635,1,0,0:0:0:0:
296,184,80697,1,0,0:0:0:0:
320,112,80760,5,2,0:0:0:0:
360,144,80822,1,0,0:0:0:0:
384,192,80885,1,2,0:0:0:0:
392,240,80947,1,2,0:0:0:0:
376,288,81010,6,0,B|336:328|336:328|272:328,1,119.999996337891,6|0,0:0|0:0,0:0:0:0:
128,216,81260,1,2,0:0:0:0:
296,184,81385,1,0,0:0:0:0:
192,40,81510,2,0,L|72:40,1,119.999996337891,2|4,0:0|0:0,0:0:0:0:
32,216,81760,2,0,P|56:160|104:128,1,119.999996337891,2|0,0:0|0:0,0:0:0:0:
208,368,82010,6,2,P|240:304|128:216,1,239.999992675781,6|2,0:0|0:0,0:0:0:0:
272,104,82385,1,0,0:0:0:0:
96,120,82510,2,0,B|160:128|160:128|232:160,1,119.999996337891,2|0,0:0|0:0,0:0:0:0:
360,248,82760,2,0,B|368:192|368:192|360:128,1,119.999996337891,2|0,0:0|0:0,0:0:0:0:
64,112,83010,6,2,P|128:72|72:144,1,239.999992675781,6|2,0:0|0:0,0:0:0:0:
272,208,83385,1,0,0:0:0:0:
256,232,83447,1,0,0:0:0:0:
240,256,83510,2,0,P|160:256|104:232,1,119.999996337891,2|4,0:0|0:0,0:0:0:0:
256,120,83760,1,2,0:0:0:0:
312,288,83885,1,4,0:0:0:0:
168,184,84010,5,2,0:0:0:0:
424,120,84135,1,0,0:0:0:0:
256,120,84260,2,0,L|136:96,1,119.999996337891,2|0,0:0|0:0,0:0:0:0:
32,176,84510,1,2,0:0:0:0:
64,192,84572,1,0,0:0:0:0:
88,216,84635,1,0,0:0:0:0:
96,248,84697,1,0,0:0:0:0:
88,280,84760,2,0,L|152:312,3,59.9999981689454,2|0|0|0,0:0|0:0|0:0|0:0,0:0:0:0:
160,336,85010,6,2,B|256:336|256:336|312:288|312:288|408:288,1,239.999992675781,6|2,0:0|0:0,0:0:0:0:
240,224,85385,1,0,0:0:0:0:
304,56,85510,1,2,0:0:0:0:
382,288,85635,1,4,0:0:0:0:
168,144,85760,1,2,0:0:0:0:
408,56,85885,1,0,0:0:0:0:
240,224,86010,6,0,B|256:136|256:136|240:96,1,119.999996337891,6|0,0:0|0:0,0:0:0:0:
72,56,86260,2,0,B|48:144|48:144|64:176,1,119.999996337891,2|0,0:0|0:0,0:0:0:0:
160,336,86510,2,2,P|72:304|160:256,1,239.999992675781
176,256,86822,1,0,0:0:0:0:
200,272,86885,1,0,0:0:0:0:
216,288,86947,1,0,0:0:0:0:
232,312,87010,6,2,B|304:312|304:312|344:136,1,239.999992675781,6|2,0:0|0:0,0:0:0:0:
376,328,87385,1,0,0:0:0:0:
248,200,87510,1,2,0:0:0:0:
392,312,87635,1,4,0:0:0:0:
232,224,87760,2,0,P|184:176|160:112,1,119.999996337891,2|4,0:0|0:0,0:0:0:0:
24,16,88010,6,2,P|56:96|16:264,1,239.999992675781
163,128,88385,1,0,0:0:0:0:
120,304,88510,1,2,0:0:0:0:
24,16,88635,1,0,0:0:0:0:
200,40,88760,2,2,L|160:40,3,39.9999987792969
336,56,89010,6,2,B|376:144|376:144|352:208|352:208|440:208,1,239.999992675781,6|2,0:0|0:0,0:0:0:0:
288,320,89385,1,0,0:0:0:0:
163,128,89510,1,2,0:0:0:0:
288,240,89635,1,4,0:0:0:0:
48,232,89760,2,0,B|72:168|72:168|48:112,1,119.999996337891,2|0,0:0|0:0,0:0:0:0:
200,40,90010,6,2,B|240:104|240:104|240:176|240:176|200:192|200:192|200:256,1,239.999992675781,6|2,0:0|0:0,0:0:0:0:
352,144,90385,1,0,0:0:0:0:
163,128,90510,1,2,0:0:0:0:
344,112,90635,1,0,0:0:0:0:
344,288,90760,1,2,0:0:0:0:
320,112,90885,1,0,0:0:0:0:
216,264,91010,6,2,B|112:336|112:336|240:336,1,239.999992675781,6|2,0:0|0:0,0:0:0:0:
80,232,91385,1,0,0:0:0:0:
56,192,91447,1,0,0:0:0:0:
64,144,91510,2,0,P|80:88|64:24,1,119.999996337891,2|4,0:0|0:0,0:0:0:0:
163,128,91760,2,0,P|176:185|160:243,1,119.999996337891,2|4,0:0|0:0,0:0:0:0:
320,112,92010,6,2,P|368:176|256:160,1,239.999992675781
400,304,92385,1,0,0:0:0:0:
320,112,92510,1,2,0:0:0:0:
208,256,92635,1,0,0:0:0:0:
440,168,92760,2,0,P|416:96|368:48,1,119.999996337891,2|0,0:0|0:0,0:0:0:0:
320,112,93010,6,2,B|288:200|288:200|312:296|224:344,1,239.999992675781,6|2,0:0|0:0,0:0:0:0:
104,224,93385,1,0,0:0:0:0:
152,48,93510,1,2,0:0:0:0:
168,72,93572,1,0,0:0:0:0:
184,96,93635,1,4,0:0:0:0:
192,128,93697,1,0,0:0:0:0:
192,160,93760,2,0,B|120:144|120:144|48:144,1,119.999996337891,2|0,0:0|0:0,0:0:0:0:
136,312,94010,5,6,0:0:0:0:
280,208,94135,1,0,0:0:0:0:
64,112,94260,1,2,0:0:0:0:
232,56,94385,1,0,0:0:0:0:
136,312,94510,6,2,P|200:352|328:272,1,239.999992675781
344,248,94822,1,0,0:0:0:0:
344,208,94885,1,0,0:0:0:0:
432,48,95010,6,0,P|448:160|432:312,1,239.999992675781,4|0,0:0|0:0,0:0:0:0:
232,56,95385,2,0,P|272:128|192:72,1,239.999992675781,4|0,0:0|0:0,0:0:0:0:
240,224,95760,2,0,P|176:216|120:144,1,119.999996337891,4|0,0:0|0:0,0:0:0:0:
248,320,96010,6,0,L|288:328,5,39.9999987792969
85,343,96260,2,0,L|149:303,1,59.9999981689454
135,180,96385,2,0,L|56:216,1,59.9999981689454
240,224,96510,1,2,0:0:0:0:
256,200,96572,1,0,0:0:0:0:
264,168,96635,1,0,0:0:0:0:
264,136,96697,1,0,0:0:0:0:
248,112,96760,2,0,P|224:56|248:0,1,119.999996337891,2|0,0:0|0:0,0:0:0:0:
400,216,97010,6,2,P|440:168|360:208,1,239.999992675781,6|2,0:0|0:0,0:0:0:0:
264,336,97385,1,0,0:0:0:0:
128,272,97510,1,2,0:0:0:0:
264,168,97635,1,4,0:0:0:0:
176,376,97760,1,2,0:0:0:0:
304,248,97885,1,0,0:0:0:0:
135,180,98010,6,0,L|135:60,1,119.999996337891,6|0,0:0|0:0,0:0:0:0:
40,216,98260,2,0,L|40:360,1,119.999996337891,2|0,0:0|0:0,0:0:0:0:
216,288,98510,1,2,0:0:0:0:
56,208,98635,1,0,0:0:0:0:
200,304,98760,1,2,0:0:0:0:
72,192,98885,1,0,0:0:0:0:
168,56,99010,6,2,P|296:96|400:64,1,239.999992675781,6|2,0:0|0:0,0:0:0:0:
360,248,99385,1,0,0:0:0:0:
200,304,99510,1,2,0:0:0:0:
394,67,99635,1,4,0:0:0:0:
264,192,99760,1,2,0:0:0:0:
440,184,99885,1,4,0:0:0:0:
400,360,100010,6,0,L|272:320,1,119.999996337891,2|0,0:0|0:0,0:0:0:0:
168,232,100260,2,0,P|126:274|120:336,1,119.999996337891,2|0,0:0|0:0,0:0:0:0:
40,240,100510,1,2,0:0:0:0:
32,208,100572,1,0,0:0:0:0:
32,168,100635,1,0,0:0:0:0:
40,136,100697,1,0,0:0:0:0:
56,104,100760,2,0,P|112:120|184:104,1,119.999996337891,2|0,0:0|0:0,0:0:0:0:
394,67,101010,6,0,P|336:50|278:61,1,119.999996337891,6|0,0:0|0:0,0:0:0:0:
312,240,101260,1,2,0:0:0:0:
200,96,101385,1,0,0:0:0:0:
376,144,101510,1,2,0:0:0:0:
168,232,101635,1,4,0:0:0:0:
312,240,101760,2,0,P|328:312|312:360,1,119.999996337891,2|0,0:0|0:0,0:0:0:0:
168,232,102010,6,0,P|154:174|170:117,1,119.999996337891,6|0,0:0|0:0,0:0:0:0:
376,144,102260,2,0,P|312:128|248:144,1,119.999996337891,2|0,0:0|0:0,0:0:0:0:
408,240,102510,2,0,L|472:120,1,119.999996337891,2|0,0:0|0:0,0:0:0:0:
304,48,102760,1,2,0:0:0:0:
264,48,102822,1,0,0:0:0:0:
224,48,102885,1,0,0:0:0:0:
184,48,102947,1,0,0:0:0:0:
144,48,103010,6,2,P|120:160|0:144,1,239.999992675781,6|2,0:0|0:0,0:0:0:0:
176,240,103385,1,0,0:0:0:0:
312,120,103510,1,2,0:0:0:0:
272,336,103635,1,4,0:0:0:0:
200,168,103760,1,2,0:0:0:0:
376,336,103885,1,4,0:0:0:0:
168,352,104010,6,0,B|96:328|96:328|56:280,1,119.999996337891,2|0,0:0|0:0,0:0:0:0:
56,112,104260,2,0,P|96:160|96:216,1,119.999996337891,2|0,0:0|0:0,0:0:0:0:
352,264,104510,2,0,B|280:256|280:256|240:208,1,119.999996337891,2|0,0:0|0:0,0:0:0:0:
176,56,104760,2,2,L|200:104,3,39.9999987792969
168,352,105010,6,2,P|104:312|200:312,1,239.999992675781,6|2,0:0|0:0,0:0:0:0:
264,136,105385,1,0,0:0:0:0:
352,264,105510,2,0,B|376:200|376:200|376:128,1,119.999996337891,2|4,0:0|0:0,0:0:0:0:
176,56,105760,2,0,P|176:128|208:192,1,119.999996337891,2|0,0:0|0:0,0:0:0:0:
256,304,106010,5,6,0:0:0:0:
264,72,106135,1,0,0:0:0:0:
256,320,106260,1,2,0:0:0:0:
296,48,106385,1,0,0:0:0:0:
256,336,106510,1,2,0:0:0:0:
328,24,106635,1,0,0:0:0:0:
256,352,106760,2,0,L|128:352,1,119.999996337891,2|0,0:0|0:0,0:0:0:0:
32,208,107010,6,2,P|120:216|32:272,1,239.999992675781,6|2,0:0|0:0,0:0:0:0:
216,232,107385,1,0,0:0:0:0:
88,104,107510,2,0,B|152:128|152:128|208:128,1,119.999996337891,2|4,0:0|0:0,0:0:0:0:
392,208,107760,2,0,B|328:184|328:184|276:184,1,119.999996337891,2|4,0:0|0:0,0:0:0:0:
144,304,108010,5,2,0:0:0:0:
392,208,108135,1,0,0:0:0:0:
240,104,108260,1,2,0:0:0:0:
304,272,108385,1,0,0:0:0:0:
88,104,108510,2,0,L|112:240,1,119.999996337891,2|0,0:0|0:0,0:0:0:0:
240,104,108760,2,0,L|128:32,1,119.999996337891,2|0,0:0|0:0,0:0:0:0:
216,232,109010,6,0,L|328:144,1,119.999996337891,6|0,0:0|0:0,0:0:0:0:
144,304,109260,1,2,0:0:0:0:
240,104,109385,1,0,0:0:0:0:
304,272,109510,2,0,B|368:288|368:288|448:288,1,119.999996337891,2|4,0:0|0:0,0:0:0:0:
144,304,109760,2,0,B|104:248|104:248|104:168,1,119.999996337891,2|0,0:0|0:0,0:0:0:0:
240,104,110010,6,2,P|304:152|256:64,1,239.999992675781,6|2,0:0|0:0,0:0:0:0:
136,128,110385,1,0,0:0:0:0:
304,272,110510,1,2,0:0:0:0:
293,49,110635,1,0,0:0:0:0:
224,216,110760,2,0,L|88:216,1,119.999996337891,2|0,0:0|0:0,0:0:0:0:
293,49,111010,6,0,P|344:120|376:288,1,239.999992675781,4|0,0:0|0:0,0:0:0:0:
224,216,111385,2,0,P|152:224|240:256,1,239.999992675781,4|0,0:0|0:0,0:0:0:0:
440,168,111760,2,0,P|416:104|384:48,1,119.999996337891,4|0,0:0|0:0,0:0:0:0:
224,216,112010,6,0,L|208:160,5,39.9999987792969
128,144,112260,2,0,L|152:224,1,59.9999981689454
312,240,112385,2,0,L|288:176,1,59.9999981689454
216,240,112510,1,2,0:0:0:0:
192,264,112572,1,0,0:0:0:0:
160,280,112635,1,0,0:0:0:0:
128,280,112697,1,0,0:0:0:0:
96,264,112760,2,0,P|56:200|56:136,1,119.999996337891,2|0,0:0|0:0,0:0:0:0:
368,40,113010,6,0,B|296:72|296:72|232:48|232:48|144:48,1,200,4|0,0:0|0:0,0:0:0:0:
264,144,113385,1,0,0:0:0:0:
376,200,113510,2,0,L|440:112,1,100,8|0,0:0|0:0,0:0:0:0:
448,248,113760,2,0,L|376:336,1,100
256,328,114010,6,0,B|304:288|304:288|304:224,1,100,4|0,0:0|0:0,0:0:0:0:
184,200,114260,1,0,0:0:0:0:
376,200,114385,1,0,0:0:0:0:
248,32,114510,2,0,L|136:80,1,100,8|0,0:0|0:0,0:0:0:0:
104,192,114760,2,0,L|80:64,1,100
376,200,115010,6,0,P|344:136|416:176,1,200,4|0,0:0|0:0,0:0:0:0:
352,280,115385,1,0,0:0:0:0:
216,264,115510,1,8,0:0:0:0:
418,166,115635,1,0,0:0:0:0:
432,352,115760,1,0,0:0:0:0:
272,128,115885,1,0,0:0:0:0:
272,152,115947,1,0,0:0:0:0:
272,176,116010,6,0,B|224:168|224:168|160:176,2,100,4|0|0,0:0|0:0|0:0,0:0:0:0:
192,280,116385,1,0,0:0:0:0:
80,216,116510,1,12,0:0:0:0:
152,104,116635,1,0,0:0:0:0:
88,304,116760,5,4,0:0:0:0:
168,200,116885,1,0,0:0:0:0:
64,120,117010,2,0,P|112:40|216:56,1,200,4|0,0:0|0:0,0:0:0:0:
272,152,117385,1,0,0:0:0:0:
64,120,117510,1,8,0:0:0:0:
200,48,117635,1,0,0:0:0:0:
168,200,117760,2,0,L|296:232,1,100
288,240,117947,1,0,0:0:0:0:
304,256,118010,5,4,0:0:0:0:
392,168,118135,1,0,0:0:0:0:
400,360,118260,2,0,L|264:336,1,100
288,240,118510,2,0,L|408:256,1,100,8|0,0:0|0:0,0:0:0:0:
328,136,118760,1,0,0:0:0:0:
192,264,118885,1,0,0:0:0:0:
168,240,118947,1,0,0:0:0:0:
144,216,119010,6,0,B|72:296|72:296|144:368,1,200,4|0,0:0|0:0,0:0:0:0:
288,240,119385,1,0,0:0:0:0:
80,296,119510,1,8,0:0:0:0:
200,336,119635,1,0,0:0:0:0:
208,104,119760,1,0,0:0:0:0:
88,152,119885,1,0,0:0:0:0:
72,136,119947,1,0,0:0:0:0:
56,120,120010,6,0,P|104:88|120:48,2,100,4|0|0,0:0|0:0|0:0,0:0:0:0:
168,240,120385,1,0,0:0:0:0:
280,176,120510,1,12,0:0:0:0:
119,50,120635,1,0,0:0:0:0:
80,296,120760,1,4,0:0:0:0:
208,104,120885,1,0,0:0:0:0:
200,336,121010,6,2,B|280:336|280:336|336:368|336:368|392:320,1,200,6|2,0:0|0:0,0:0:0:0:
272,248,121385,1,0,0:0:0:0:
232,128,121510,2,0,L|112:128,1,100,2|4,0:0|0:0,0:0:0:0:
80,296,121760,2,0,B|64:240|64:240|80:176,1,100,2|0,0:0|0:0,0:0:0:0:
272,248,122010,6,0,B|224:232|224:232|168:248,1,100,6|0,0:0|0:0,0:0:0:0:
112,128,122260,1,2,0:0:0:0:
320,184,122385,1,0,0:0:0:0:
280,64,122510,2,0,L|144:64,1,100,2|0,0:0|0:0,0:0:0:0:
80,144,122760,2,0,L|184:192,1,100,2|0,0:0|0:0,0:0:0:0:
160,208,122947,1,0,0:0:0:0:
144,232,123010,6,2,B|224:304|224:304|312:344,1,200,6|2,0:0|0:0,0:0:0:0:
256,224,123385,1,0,0:0:0:0:
384,224,123510,2,0,L|408:104,1,100,2|4,0:0|0:0,0:0:0:0:
272,144,123760,1,2,0:0:0:0:
160,40,123885,1,4,0:0:0:0:
184,40,123947,1,0,0:0:0:0:
208,40,124010,6,0,P|256:56|312:40,2,100,2|0|2,0:0|0:0|0:0,0:0:0:0:
208,168,124385,1,0,0:0:0:0:
40,112,124510,1,2,0:0:0:0:
303,45,124635,1,0,0:0:0:0:
160,232,124760,1,2,0:0:0:0:
136,104,124885,1,0,0:0:0:0:
328,208,125010,6,2,P|392:256|312:264,1,200,6|2,0:0|0:0,0:0:0:0:
288,280,125322,1,0,0:0:0:0:
264,288,125385,1,0,0:0:0:0:
240,296,125447,1,0,0:0:0:0:
216,304,125510,2,0,L|80:304,1,100,2|4,0:0|0:0,0:0:0:0:
32,208,125760,2,0,B|48:256|48:256|32:320,1,100,2|0,0:0|0:0,0:0:0:0:
160,232,126010,6,0,P|192:184|208:128,1,100,6|0,0:0|0:0,0:0:0:0:
384,144,126260,2,0,P|336:128|280:144,1,100,2|0,0:0|0:0,0:0:0:0:
184,56,126510,2,0,B|128:80|128:80|56:80,1,100,2|0,0:0|0:0,0:0:0:0:
88,208,126760,1,2,0:0:0:0:
184,56,126885,1,0,0:0:0:0:
216,304,127010,6,2,B|320:264|320:264|416:264,1,200,6|2,0:0|0:0,0:0:0:0:
296,192,127385,1,0,0:0:0:0:
432,48,127510,1,2,0:0:0:0:
408,264,127635,1,4,0:0:0:0:
296,160,127760,1,2,0:0:0:0:
192,152,127885,2,0,B|176:184|176:184|176:198,1,50,4|0,0:0|0:0,0:0:0:0:
88,208,128010,6,0,B|128:256|128:256|128:304,2,100,2|0|2,0:0|0:0|0:0,0:0:0:0:
128,88,128385,1,2,0:0:0:0:
296,280,128510,1,2,0:0:0:0:
88,208,128635,1,2,0:0:0:0:
200,136,128760,1,2,0:0:0:0:
128,336,128885,1,2,0:0:0:0:
288,88,129010,6,0,B|328:88|328:88|376:120|376:120|432:120,1,150.000005722046,6|0,0:0|0:0,0:0:0:0:
128,336,129510,2,0,P|80:280|88:208,1,150.000005722046,8|0,0:0|0:0,0:0:0:0:
288,88,130010,6,0,B|320:144|320:144|296:192|296:192|296:232,1,150.000005722046,2|0,0:0|0:0,0:0:0:0:
128,336,130510,2,0,P|144:256|128:184,1,150.000005722046,8|0,0:0|0:0,0:0:0:0:
296,223,131010,6,0,B|376:191|376:191|400:159|440:167,1,150.000005722046,2|0,0:0|0:0,0:0:0:0:
130,189,131510,2,0,B|146:125|146:125|130:77|130:77|170:93,1,150.000005722046,8|0,0:0|0:0,0:0:0:0:
431,165,132010,6,0,P|463:229|431:309,1,150.000005722046,2|0,0:0|0:0,0:0:0:0:
161,89,132510,2,0,P|233:113|305:89,1,150.000005722046,8|0,0:0|0:0,0:0:0:0:
256,344,133010,6,0,B|232:304|232:304|272:304|272:304|272:232,1,150.000005722046,2|0,0:0|0:0,0:0:0:0:
161,89,133510,2,0,B|105:113|57:65|57:65|49:129,1,150.000005722046,8|0,0:0|0:0,0:0:0:0:
256,344,134010,6,0,P|312:304|248:288,1,150.000005722046,2|0,0:0|0:0,0:0:0:0:
211,42,134510,2,0,P|227:98|163:58,1,150.000005722046,8|0,0:0|0:0,0:0:0:0:
263,277,135010,6,0,P|335:285|415:261,1,150.000005722046,2|0,0:0|0:0,0:0:0:0:
160,88,135510,2,0,B|128:144|128:144|136:192|136:192|72:192|72:192,1,150.000005722046,8|0,0:0|0:0,0:0:0:0:
408,264,136010,6,0,P|432:192|408:120,1,150.000005722046,2|0,0:0|0:0,0:0:0:0:
99,192,136510,2,0,P|131:232|67:288,1,150.000005722046,8|0,0:0|0:0,0:0:0:0:
410,123,137010,6,0,L|258:131,1,150.000005722046,2|0,0:0|0:0,0:0:0:0:
71,288,137510,2,0,L|231:312,1,150.000005722046,8|0,0:0|0:0,0:0:0:0:
260,130,138010,6,0,L|416:200,1,150.000005722046,2|0,0:0|0:0,0:0:0:0:
219,310,138510,2,0,L|82:248,1,150.000005722046,8|0,0:0|0:0,0:0:0:0:
396,191,139010,6,0,B|420:263|420:263|380:247|340:271,1,150.000005722046,2|0,0:0|0:0,0:0:0:0:
82,248,139510,2,0,P|122:192|90:112,1,150.000005722046,8|0,0:0|0:0,0:0:0:0:
328,40,140010,6,0,B|368:80|368:80|424:80|424:80|400:40,1,150.000005722046,2|0,0:0|0:0,0:0:0:0:
3,143,140510,2,0,B|75:159|123:127|123:127|75:111,1,150.000005722046,8|0,0:0|0:0,0:0:0:0:
400,328,141010,6,0,B|328:264|328:264|304:224|368:264,1,150.000005722046,2|0,0:0|0:0,0:0:0:0:
128,48,141510,2,0,P|216:64|216:128,1,150.000005722046,8|0,0:0|0:0,0:0:0:0:
64,336,142010,6,0,B|176:304|176:304|136:288,1,150.000005722046,2|0,0:0|0:0,0:0:0:0:
336,64,142510,2,0,B|344:152|344:152|400:104,1,150.000005722046,8|0,0:0|0:0,0:0:0:0:
88,184,143010,6,0,P|176:240|240:240,1,150.000005722046,2|0,0:0|0:0,0:0:0:0:
88,184,143510,2,0,B|160:160|192:128|192:128|192:176,1,150.000005722046,2|0,0:0|0:0,0:0:0:0:
400,24,144010,6,0,L|432:72,1,37.5000014305115,8|0,0:0|0:0,0:0:0:0:
472,152,144135,1,0,0:0:0:0:
488,176,144197,1,0,0:0:0:0:
312,96,144260,6,0,L|344:144,1,37.5000014305115,8|0,0:0|0:0,0:0:0:0:
384,224,144385,1,0,0:0:0:0:
400,256,144447,1,0,0:0:0:0:
240,160,144510,6,0,L|272:208,1,37.5000014305115,8|0,0:0|0:0,0:0:0:0:
312,288,144635,1,0,0:0:0:0:
328,320,144697,1,0,0:0:0:0:
136,304,144760,6,0,L|104:264,1,37.5000014305115,8|0,0:0|0:0,0:0:0:0:
88,248,144885,1,0,0:0:0:0:
80,208,144947,1,0,0:0:0:0:
88,168,145010,6,0,L|112:112,1,37.5000014305115
120,104,145135,1,0,0:0:0:0:
216,248,145260,1,0,0:0:0:0:
408,104,145385,2,0,L|336:176,1,75.0000028610231,8|0,0:0|0:0,0:0:0:0:
240,160,145635,2,0,L|304:224,1,75.0000028610231,8|0,0:0|0:0,0:0:0:0:
312,248,145822,1,0,0:0:0:0:
304,288,145885,1,0,0:0:0:0:
272,312,145947,1,0,0:0:0:0:
232,312,146010,6,0,L|168:296,1,37.5000014305115,8|0,0:0|0:0,0:0:0:0:
88,248,146135,2,0,L|152:264,1,37.5000014305115,8|0,0:0|0:0,0:0:0:0:
240,160,146260,2,0,L|176:192,1,37.5000014305115
88,168,146385,1,0,0:0:0:0:
72,136,146447,1,0,0:0:0:0:
72,96,146510,6,0,L|136:96,1,37.5000014305115
280,40,146635,2,0,L|232:40,1,37.5000014305115
240,160,146760,2,0,P|288:160|336:168,1,75.0000028610231
344,184,146947,1,0,0:0:0:0:
360,216,147010,5,0,0:0:0:0:
352,256,147072,1,0,0:0:0:0:
336,288,147135,2,0,L|272:280,1,37.5000014305115
88,248,147260,2,0,L|144:240,1,37.5000014305115,8|0,0:0|0:0,0:0:0:0:
240,160,147385,2,0,B|184:120|208:56|208:56|160:88,1,150.000005722046
376,80,147760,2,0,P|416:104|440:152,1,75.0000028610231
424,160,147947,1,0,0:0:0:0:
440,192,148010,6,0,L|472:232,1,37.5000014305115
472,336,148135,2,0,L|424:336,1,37.5000014305115
288,344,148260,1,8,0:0:0:0:
256,360,148322,1,0,0:0:0:0:
224,344,148385,1,0,0:0:0:0:
192,360,148447,1,0,0:0:0:0:
160,336,148510,6,0,L|128:272,1,37.5000014305115,8|0,0:0|0:0,0:0:0:0:
128,112,148635,1,0,0:0:0:0:
152,144,148697,1,0,0:0:0:0:
176,176,148760,2,0,L|232:248,1,75.0000028610231,8|0,0:0|0:0,0:0:0:0:
376,80,149010,6,0,B|312:56|312:56|272:80|272:80|216:64,1,150.000005722046
32,152,149385,2,0,L|120:200,1,75.0000028610231,8|0,0:0|0:0,0:0:0:0:
312,184,149635,2,0,L|232:152,1,75.0000028610231,8|0,0:0|0:0,0:0:0:0:
384,352,149885,1,0,0:0:0:0:
416,328,149947,1,0,0:0:0:0:
424,288,150010,6,0,L|408:240,1,37.5000014305115,8|0,0:0|0:0,0:0:0:0:
312,184,150135,2,0,L|368:160,1,37.5000014305115,8|0,0:0|0:0,0:0:0:0:
312,280,150260,2,0,L|232:328,1,75.0000028610231
216,304,150447,1,0,0:0:0:0:
200,264,150510,1,0,0:0:0:0:
192,224,150572,1,0,0:0:0:0:
200,184,150635,1,0,0:0:0:0:
224,152,150697,1,0,0:0:0:0:
296,112,150760,1,0,0:0:0:0:
256,80,150822,1,0,0:0:0:0:
208,72,150885,1,0,0:0:0:0:
160,88,150947,1,0,0:0:0:0:
120,120,151010,6,0,L|80:176,1,37.5000014305115
32,272,151135,1,0,0:0:0:0:
48,280,151197,1,0,0:0:0:0:
64,288,151260,2,0,L|128:312,1,37.5000014305115,8|0,0:0|0:0,0:0:0:0:
192,224,151385,2,0,L|240:208,1,37.5000014305115,2|0,0:0|0:0,0:0:0:0:
160,88,151510,2,0,L|168:136,1,37.5000014305115,2|0,0:0|0:0,0:0:0:0:
312,280,151635,1,0,0:0:0:0:
312,264,151697,1,0,0:0:0:0:
312,248,151760,2,0,B|312:192|312:192|336:168,1,75.0000028610231
120,120,152010,6,0,L|144:184,1,37.5000014305115,8|0,0:0|0:0,0:0:0:0:
256,80,152135,1,0,0:0:0:0:
248,64,152197,1,0,0:0:0:0:
240,48,152260,2,0,L|216:0,1,37.5000014305115,8|0,0:0|0:0,0:0:0:0:
352,72,152385,1,0,0:0:0:0:
368,88,152447,1,0,0:0:0:0:
384,104,152510,1,0,0:0:0:0:
400,120,152572,1,0,0:0:0:0:
416,136,152635,1,0,0:0:0:0:
432,152,152697,1,0,0:0:0:0:
448,168,152760,2,0,L|472:144,1,25.0000009536744,8|0,0:0|0:0,0:0:0:0:
464,184,152801,2,0,L|496:168,1,25.0000009536744,8|8,0:0|0:0,0:0:0:0:
480,208,152885,2,0,L|528:208,1,37.5000014305115
144,240,153010,6,0,B|176:200|184:152|160:88|160:88|192:144|240:160|240:160|208:184,1,300.000011444092
408,288,153760,2,0,L|352:256,1,37.5000014305115
184,328,153885,1,0,0:0:0:0:
208,320,153947,1,0,0:0:0:0:
232,312,154010,6,0,L|264:272,1,37.5000014305115,8|0,0:0|0:0,0:0:0:0:
304,128,154135,2,0,L|304:176,1,37.5000014305115,8|0,0:0|0:0,0:0:0:0:
112,144,154260,2,0,L|200:160,1,75.0000028610231
200,184,154447,1,0,0:0:0:0:
216,208,154510,2,0,L|264:216,1,37.5000014305115
341,122,154635,2,0,L|285:130,1,37.5000014305115
120,56,154760,2,0,L|208:80,1,75.0000028610231
216,80,154947,1,0,0:0:0:0:
240,80,155010,6,0,L|296:48,1,37.5000014305115
424,56,155135,2,0,L|376:40,1,37.5000014305115
341,122,155260,2,0,L|405:146,1,37.5000014305115,8|0,0:0|0:0,0:0:0:0:
448,176,155385,2,0,B|400:232|344:208|344:208|344:248,1,150.000005722046
240,80,155760,2,0,B|272:152|272:152|272:208,1,112.500004291535
248,200,156010,5,0,0:0:0:0:
224,216,156072,1,0,0:0:0:0:
200,232,156135,1,0,0:0:0:0:
176,248,156197,1,0,0:0:0:0:
152,264,156260,2,0,L|160:304,1,25.0000009536744,8|8,0:0|0:0,0:0:0:0:
128,272,156343,2,0,L|128:312,1,25.0000009536744,8|0,0:0|0:0,0:0:0:0:
32,152,156510,2,0,L|104:152,1,37.5000014305115,8|0,0:0|0:0,0:0:0:0:
184,80,156635,1,0,0:0:0:0:
160,80,156697,1,0,0:0:0:0:
136,80,156760,2,0,L|72:80,1,37.5000014305115,8|0,0:0|0:0,0:0:0:0:
128,272,156885,1,0,0:0:0:0:
240,80,157010,6,0,B|264:104|312:104|312:104|312:144|336:176,1,150.000005722046
128,272,157385,2,0,L|144:216,1,37.5000014305115,8|0,0:0|0:0,0:0:0:0:
136,80,157510,2,0,L|120:128,1,37.5000014305115
312,104,157635,2,0,L|288:40,1,37.5000014305115,8|0,0:0|0:0,0:0:0:0:
232,192,157760,2,0,L|280:208,3,37.5000014305115
440,200,158010,6,0,L|392:216,1,37.5000014305115,8|0,0:0|0:0,0:0:0:0:
240,80,158135,2,0,L|288:64,1,37.5000014305115,8|0,0:0|0:0,0:0:0:0:
232,192,158260,2,0,L|136:208,1,75.0000028610231
62,66,158510,2,0,L|155:83,1,75.0000028610231
312,104,158760,1,0,0:0:0:0:
312,104,158822,1,0,0:0:0:0:
312,104,158885,1,0,0:0:0:0:
312,104,158947,1,0,0:0:0:0:
312,104,159010,6,0,L|368:112,1,37.5000014305115
352,216,159135,1,0,0:0:0:0:
352,216,159197,1,0,0:0:0:0:
352,216,159260,2,0,L|296:224,1,37.5000014305115,8|0,0:0|0:0,0:0:0:0:
112,176,159385,2,0,L|160:192,1,37.5000014305115,2|0,0:0|0:0,0:0:0:0:
224,304,159510,2,0,L|240:256,1,37.5000014305115,2|0,0:0|0:0,0:0:0:0:
264,168,159635,1,0,0:0:0:0:
240,160,159697,1,0,0:0:0:0:
216,152,159760,2,0,L|240:64,1,75.0000028610231
112,176,160010,6,0,L|88:232,1,37.5000014305115,8|0,0:0|0:0,0:0:0:0:
224,304,160135,1,0,0:0:0:0:
224,304,160197,1,0,0:0:0:0:
224,304,160260,2,0,L|248:248,1,37.5000014305115,8|0,0:0|0:0,0:0:0:0:
264,168,160385,1,0,0:0:0:0:
240,160,160447,1,0,0:0:0:0:
216,152,160510,1,0,0:0:0:0:
192,144,160572,1,0,0:0:0:0:
168,136,160635,1,0,0:0:0:0:
144,128,160697,1,0,0:0:0:0:
120,120,160760,2,0,L|80:112,3,25.0000009536744,8|0|8|0,0:0|0:0|0:0|0:0,0:0:0:0:
256,192,161010,12,0,162885,0:0:0:0:
280,96,163010,6,0,P|152:192|336:136,1,562.500021457673
160,48,164010,6,0,P|80:200|392:296,1,600.000022888185
256,192,165135,12,0,168385,0:0:0:0:
336,176,168510,6,0,L|272:168,1,37.5000014305115
144,96,168635,2,0,L|200:88,1,37.5000014305115
440,96,168760,2,0,L|392:104,1,37.5000014305115
72,184,168885,2,0,L|120:192,1,37.5000014305115
216,312,169010,6,0,B|192:240|256:240|208:160,1,150.000005722046
256,192,170010,5,0,0:0:0:0:
256,192,170135,1,0,0:0:0:0:
256,192,170260,1,0,0:0:0:0:
256,192,170385,1,0,0:0:0:0:
408,40,171010,6,0,L|384:208,1,150.000005722046
256,192,172010,5,0,0:0:0:0:
256,192,172135,1,0,0:0:0:0:
256,192,172260,1,0,0:0:0:0:
256,192,172385,1,0,0:0:0:0:
88,304,173010,6,0,L|128:136,1,150.000005722046
256,192,174010,5,0,0:0:0:0:
256,192,174135,1,0,0:0:0:0:
256,192,174260,1,0,0:0:0:0:
256,192,174385,1,0,0:0:0:0:
456,272,175010,6,0,L|296:320,1,150.000005722046
256,192,175510,5,0,0:0:0:0:
256,192,175635,1,0,0:0:0:0:
256,192,175760,1,0,0:0:0:0:
40,88,176010,6,0,L|200:120,1,150.000005722046
256,192,176510,5,0,0:0:0:0:
256,192,176635,1,0,0:0:0:0:
256,192,176760,1,0,0:0:0:0:
256,264,177010,6,0,B|224:192|288:192|248:112,1,150.000005722046
251,119,177510,1,0,0:0:0:0:
176,216,177760,5,0,0:0:0:0:
344,160,177885,1,0,0:0:0:0:
176,232,178010,1,0,0:0:0:0:
344,144,178135,1,0,0:0:0:0:
176,248,178260,1,0,0:0:0:0:
352,248,178510,1,0,0:0:0:0:
80,56,179010,6,0,P|112:120|192:96,1,150.000005722046
180,110,179510,1,0,0:0:0:0:
40,160,179760,5,0,0:0:0:0:
264,80,179885,1,0,0:0:0:0:
48,176,180010,1,0,0:0:0:0:
248,64,180135,1,0,0:0:0:0:
56,192,180260,1,0,0:0:0:0:
192,16,180510,1,0,0:0:0:0:
431,328,181010,6,0,P|401:264|331:273,1,150.000005722046
331,273,181510,1,0,0:0:0:0:
232,328,181760,5,0,0:0:0:0:
472,208,181885,1,0,0:0:0:0:
248,304,182010,1,0,0:0:0:0:
456,232,182135,1,0,0:0:0:0:
264,280,182260,1,0,0:0:0:0:
456,320,182510,1,0,0:0:0:0:
80,64,183010,6,0,B|128:96|128:96|168:64|168:64|224:64,1,150.000005722046
96,200,183510,2,0,L|144:200,3,37.5000014305115
288,144,183760,2,0,L|248:144,3,37.5000014305115
80,64,184010,2,0,L|128:64,3,37.5000014305115
288,144,184260,6,0,P|256:96|256:32,1,112.500004291535
288,144,184510,2,0,P|319:189|322:245,1,112.500004291535
288,144,184760,2,0,L|176:192,1,112.500004291535,2|0,0:0|0:0,0:0:0:0:
288,144,185010,1,6,0:0:0:0:
384,72,185260,5,0,0:0:0:0:
184,256,185385,1,2,0:0:0:0:
88,72,185635,5,0,0:0:0:0:
320,296,185760,1,2,0:0:0:0:
72,272,186010,5,0,0:0:0:0:
288,144,186135,1,2,0:0:0:0:
256,352,186385,5,0,0:0:0:0:
184,112,186510,1,2,0:0:0:0:
168,80,186760,1,2,0:0:0:0:
152,48,187010,1,2,0:0:0:0:
448,232,187260,5,0,0:0:0:0:
168,80,187385,1,2,0:0:0:0:
112,272,187635,5,0,0:0:0:0:
352,40,187760,1,2,0:0:0:0:
368,328,188010,5,0,0:0:0:0:
152,48,188135,1,2,0:0:0:0:
224,344,188385,5,0,0:0:0:0:
416,88,188510,1,2,0:0:0:0:
432,56,188760,1,2,0:0:0:0:
448,24,189010,1,2,0:0:0:0:
32,88,189260,5,0,0:0:0:0:
368,208,189385,1,2,0:0:0:0:
128,304,189635,5,0,0:0:0:0:
328,64,189760,1,2,0:0:0:0:
432,304,190010,5,0,0:0:0:0:
136,104,190135,1,2,0:0:0:0:
328,64,190385,5,0,0:0:0:0:
72,240,190510,1,2,0:0:0:0:
48,256,190760,1,2,0:0:0:0:
24,272,191010,1,2,0:0:0:0:
456,232,191260,5,0,0:0:0:0:
136,104,191385,1,2,0:0:0:0:
256,344,191635,5,0,0:0:0:0:
208,32,191760,1,2,0:0:0:0:
136,104,192010,5,0,0:0:0:0:
344,216,192135,1,2,0:0:0:0:
72,200,192385,5,0,0:0:0:0:
384,96,192510,1,2,0:0:0:0:
408,80,192760,1,2,0:0:0:0:
432,64,193010,1,6,0:0:0:0:
224,320,193260,5,0,0:0:0:0:
136,104,193385,1,2,0:0:0:0:
296,48,193635,5,4,0:0:0:0:
136,256,193760,1,2,0:0:0:0:
408,200,194010,5,4,0:0:0:0:
48,176,194135,1,2,0:0:0:0:
328,320,194385,5,0,0:0:0:0:
136,104,194510,1,2,0:0:0:0:
112,80,194760,1,2,0:0:0:0:
88,56,195010,1,6,0:0:0:0:
448,56,195260,5,0,0:0:0:0:
136,104,195385,1,2,0:0:0:0:
192,304,195635,5,4,0:0:0:0:
288,48,195760,1,2,0:0:0:0:
296,24,195885,1,4,0:0:0:0:
48,160,196010,5,0,0:0:0:0:
440,224,196135,1,2,0:0:0:0:
320,352,196385,5,0,0:0:0:0:
200,64,196510,1,2,0:0:0:0:
192,40,196760,1,2,0:0:0:0:
184,16,197010,1,2,0:0:0:0:
256,192,197135,12,2,199010,0:0:0:0:
256,192,200135,5,2,0:0:0:0:
256,192,200260,1,2,0:0:0:0:
256,192,200385,1,2,0:0:0:0:
256,192,200510,1,2,0:0:0:0:
256,192,200635,1,2,0:0:0:0:
256,192,200760,1,2,0:0:0:0:
256,192,200885,1,2,0:0:0:0:
256,192,201010,6,2,B|384:144|384:224|496:192,1,239.999992675781,6|2,0:0|0:0,0:0:0:0:
392,40,201385,1,0,0:0:0:0:
256,192,201510,2,0,P|272:256|256:320,1,119.999996337891,2|4,0:0|0:0,0:0:0:0:
128,184,201760,1,2,0:0:0:0:
288,104,201885,1,0,0:0:0:0:
120,48,202010,6,0,P|64:64|0:48,1,119.999996337891,6|0,0:0|0:0,0:0:0:0:
288,104,202260,2,0,P|336:168|336:216,1,119.999996337891,2|0,0:0|0:0,0:0:0:0:
128,184,202510,1,2,0:0:0:0:
216,24,202635,1,0,0:0:0:0:
176,272,202760,2,0,L|296:272,1,119.999996337891,2|0,0:0|0:0,0:0:0:0:
288,104,203010,6,2,B|360:80|360:80|328:168|400:192|400:192|368:144,1,239.999992675781,6|2,0:0|0:0,0:0:0:0:
200,168,203385,1,0,0:0:0:0:
184,136,203447,1,0,0:0:0:0:
184,96,203510,2,0,B|112:120|112:120|48:120,1,119.999996337891,2|4,0:0|0:0,0:0:0:0:
40,256,203760,1,2,0:0:0:0:
288,104,203885,1,4,0:0:0:0:
67,120,204010,6,2,P|107:72|35:112,1,239.999992675781
160,272,204385,1,0,0:0:0:0:
288,104,204510,1,2,0:0:0:0:
264,224,204635,1,0,0:0:0:0:
64,120,204760,2,0,L|144:16,1,119.999996337891,2|0,0:0|0:0,0:0:0:0:
264,224,205010,6,2,B|304:248|296:352|296:352|384:240,1,239.999992675781,6|2,0:0|0:0,0:0:0:0:
408,96,205385,1,0,0:0:0:0:
150,186,205510,2,0,L|270:226,1,119.999996337891,2|4,0:0|0:0,0:0:0:0:
160,80,205760,1,2,0:0:0:0:
408,96,205885,1,0,0:0:0:0:
144,160,206010,6,0,L|264:200,1,119.999996337891,6|0,0:0|0:0,0:0:0:0:
80,240,206260,1,2,0:0:0:0:
264,72,206385,1,0,0:0:0:0:
312,256,206510,1,2,0:0:0:0:
160,80,206635,1,0,0:0:0:0:
208,256,206760,2,0,P|232:312|208:368,1,119.999996337891,2|0,0:0|0:0,0:0:0:0:
264,72,207010,6,2,B|320:112|320:112|296:168|296:168|368:168|368:168|400:208,1,239.999992675781,6|2,0:0|0:0,0:0:0:0:
208,256,207385,1,0,0:0:0:0:
176,288,207447,1,0,0:0:0:0:
128,296,207510,1,2,0:0:0:0:
80,280,207572,1,0,0:0:0:0:
56,240,207635,1,4,0:0:0:0:
56,192,207697,1,0,0:0:0:0:
72,144,207760,1,2,0:0:0:0:
112,120,207822,1,0,0:0:0:0:
160,120,207885,1,6,0:0:0:0:
200,152,207947,1,0,0:0:0:0:
232,184,208010,6,2,B|344:232|344:144|480:208,1,239.999992675781
296,272,208385,1,0,0:0:0:0:
400,64,208510,1,2,0:0:0:0:
392,256,208635,1,0,0:0:0:0:
232,184,208760,2,2,L|232:136,3,39.9999987792969
64,40,209010,6,2,B|168:40|168:40|240:72|240:72|328:72,1,239.999992675781,6|2,0:0|0:0,0:0:0:0:
160,216,209385,1,0,0:0:0:0:
64,120,209510,1,2,0:0:0:0:
64,328,209635,1,4,0:0:0:0:
232,184,209760,2,0,P|296:200|352:184,1,119.999996337891,2|0,0:0|0:0,0:0:0:0:
392,256,210010,6,2,B|312:296|232:264|232:264|304:328,1,239.999992675781,6|2,0:0|0:0,0:0:0:0:
296,128,210385,1,0,0:0:0:0:
296,128,210447,1,0,0:0:0:0:
296,128,210510,2,0,P|312:72|296:8,1,119.999996337891,2|0,0:0|0:0,0:0:0:0:
168,144,210760,1,2,0:0:0:0:
400,32,210885,1,0,0:0:0:0:
392,256,211010,6,2,B|328:280|328:280|448:312|456:200,1,239.999992675781,6|2,0:0|0:0,0:0:0:0:
272,224,211385,1,0,0:0:0:0:
112,304,211510,2,0,L|64:184,1,119.999996337891,2|4,0:0|0:0,0:0:0:0:
123,32,211760,2,0,L|167:143,1,119.999996337891,2|4,0:0|0:0,0:0:0:0:
296,128,212010,6,0,P|344:168|416:168,1,119.999996337891,2|0,0:0|0:0,0:0:0:0:
272,224,212260,2,0,B|288:288|288:288|272:344,1,119.999996337891,2|0,0:0|0:0,0:0:0:0:
152,208,212510,1,2,0:0:0:0:
399,172,212635,1,0,0:0:0:0:
280,32,212760,2,0,P|240:80|176:96,1,119.999996337891,2|0,0:0|0:0,0:0:0:0:
272,224,213010,6,2,B|376:288|376:288|424:344|488:304,1,239.999992675781,6|2,0:0|0:0,0:0:0:0:
464,128,213385,1,0,0:0:0:0:
440,96,213447,1,0,0:0:0:0:
408,80,213510,2,0,B|344:72|344:72|400:24,1,119.999996337891,2|4,0:0|0:0,0:0:0:0:
269,110,213760,2,0,P|286:178|270:226,1,119.999996337891,2|0,0:0|0:0,0:0:0:0:
104,160,214010,5,6,0:0:0:0:
269,110,214135,1,0,0:0:0:0:
64,160,214260,1,2,0:0:0:0:
272,224,214385,1,0,0:0:0:0:
24,160,214510,1,2,0:0:0:0:
272,168,214635,1,0,0:0:0:0:
288,168,214697,1,0,0:0:0:0:
304,168,214760,2,0,P|360:184|432:168,1,119.999996337891,2|0,0:0|0:0,0:0:0:0:
104,160,215010,6,0,P|112:232|264:304,1,239.999992675781,4|0,0:0|0:0,0:0:0:0:
272,168,215385,2,0,P|208:144|312:72,1,239.999992675781,4|0,0:0|0:0,0:0:0:0:
48,256,215760,2,0,P|80:312|136:352,1,119.999996337891,4|0,0:0|0:0,0:0:0:0:
272,168,216010,6,0,L|272:232,5,39.9999987792969
320,80,216260,2,0,L|376:128,1,59.9999981689454
240,304,216385,2,0,L|176:248,1,59.9999981689454
272,168,216510,1,2,0:0:0:0:
304,192,216572,1,0,0:0:0:0:
344,200,216635,1,0,0:0:0:0:
384,192,216697,1,0,0:0:0:0:
416,168,216760,2,0,B|440:136|440:136|464:256,1,119.999996337891,2|0,0:0|0:0,0:0:0:0:
240,304,217010,6,2,P|176:200|240:88,1,239.999992675781,6|2,0:0|0:0,0:0:0:0:
104,240,217385,1,0,0:0:0:0:
320,80,217510,2,0,P|384:88|440:72,1,119.999996337891,2|4,0:0|0:0,0:0:0:0:
304,192,217760,2,0,P|336:248|336:336,1,119.999996337891,2|0,0:0|0:0,0:0:0:0:
48,104,218010,6,2,B|128:152|208:88|208:88|184:168,1,239.999992675781,6|2,0:0|0:0,0:0:0:0:
368,144,218385,1,0,0:0:0:0:
104,240,218510,1,2,0:0:0:0:
320,80,218635,1,0,0:0:0:0:
216,336,218760,2,0,L|344:312,1,119.999996337891,2|0,0:0|0:0,0:0:0:0:
304,192,219010,6,0,B|256:232|256:232|192:240,1,119.999996337891,6|0,0:0|0:0,0:0:0:0:
320,80,219260,2,0,B|384:64|384:64|448:88,1,119.999996337891,2|0,0:0|0:0,0:0:0:0:
184,240,219510,2,0,B|192:184|192:184|184:120,1,119.999996337891,2|4,0:0|0:0,0:0:0:0:
328,224,219760,1,2,0:0:0:0:
88,152,219885,1,4,0:0:0:0:
320,80,220010,6,2,P|200:40|72:88,1,239.999992675781
184,224,220385,1,0,0:0:0:0:
328,336,220510,2,0,L|456:328,1,119.999996337891,2|0,0:0|0:0,0:0:0:0:
408,104,220760,1,2,0:0:0:0:
184,224,220885,1,0,0:0:0:0:
344,312,221010,6,0,L|456:264,1,119.999996337891,6|0,0:0|0:0,0:0:0:0:
320,80,221260,2,0,P|328:152|312:208,1,119.999996337891,2|0,0:0|0:0,0:0:0:0:
168,96,221510,1,2,0:0:0:0:
408,104,221635,1,4,0:0:0:0:
248,232,221760,1,2,0:0:0:0:
280,16,221885,1,0,0:0:0:0:
344,312,222010,6,2,B|224:264|224:360|88:296,1,239.999992675781,6|2,0:0|0:0,0:0:0:0:
232,176,222385,1,0,0:0:0:0:
56,144,222510,1,2,0:0:0:0:
200,32,222635,1,0,0:0:0:0:
110,305,222760,2,0,P|134:233|134:177,1,119.999996337891,2|0,0:0|0:0,0:0:0:0:
200,32,223010,6,2,B|256:128|344:64|344:64|312:160,1,239.999992675781,6|2,0:0|0:0,0:0:0:0:
208,272,223385,1,0,0:0:0:0:
240,248,223447,1,0,0:0:0:0:
280,240,223510,2,0,P|320:288|392:280,1,119.999996337891,2|4,0:0|0:0,0:0:0:0:
448,96,223760,2,0,L|360:208,1,119.999996337891,2|4,0:0|0:0,0:0:0:0:
208,144,224010,5,2,0:0:0:0:
176,168,224072,1,0,0:0:0:0:
136,176,224135,1,0,0:0:0:0:
96,160,224197,1,0,0:0:0:0:
64,128,224260,2,0,L|88:256,1,119.999996337891,2|0,0:0|0:0,0:0:0:0:
280,240,224510,2,0,L|296:112,1,119.999996337891,2|0,0:0|0:0,0:0:0:0:
136,176,224760,2,2,L|152:224,3,39.9999987792969
294,120,225010,6,2,P|358:176|512:176,1,239.999992675781,6|2,0:0|0:0,0:0:0:0:
280,240,225385,1,0,0:0:0:0:
424,120,225510,1,2,0:0:0:0:
384,320,225635,1,4,0:0:0:0:
176,64,225760,2,0,P|240:64|288:32,1,119.999996337891,2|0,0:0|0:0,0:0:0:0:
280,240,226010,6,0,L|136:240,1,119.999996337891,6|0,0:0|0:0,0:0:0:0:
312,336,226260,1,2,0:0:0:0:
128,168,226385,1,0,0:0:0:0:
360,248,226510,1,2,0:0:0:0:
160,328,226635,1,0,0:0:0:0:
294,155,226760,2,0,B|310:99|310:99|294:35,1,119.999996337891,2|0,0:0|0:0,0:0:0:0:
128,168,227010,6,2,P|104:240|88:144,1,239.999992675781,6|2,0:0|0:0,0:0:0:0:
296,40,227385,1,0,0:0:0:0:
264,40,227447,1,0,0:0:0:0:
232,40,227510,2,0,L|200:168,1,119.999996337891,2|4,0:0|0:0,0:0:0:0:
264,271,227760,2,0,L|293:154,1,119.999996337891,2|4,0:0|0:0,0:0:0:0:
416,104,228010,5,2,0:0:0:0:
264,271,228135,1,0,0:0:0:0:
264,40,228260,1,2,0:0:0:0:
368,192,228385,1,0,0:0:0:0:
128,168,228510,2,0,B|64:144|64:200|8:168,1,119.999996337891,2|0,0:0|0:0,0:0:0:0:
264,271,228760,2,0,P|240:208|240:144,1,119.999996337891,2|0,0:0|0:0,0:0:0:0:
416,104,229010,6,0,B|409:81|409:81|481:145,1,119.999996337891,6|0,0:0|0:0,0:0:0:0:
304,128,229260,1,2,0:0:0:0:
432,256,229385,1,0,0:0:0:0:
264,40,229510,2,0,L|144:96,1,119.999996337891,2|4,0:0|0:0,0:0:0:0:
264,272,229760,2,0,P|256:200|232:160,1,119.999996337891,2|0,0:0|0:0,0:0:0:0:
56,256,230010,6,2,B|40:208|40:208|136:312|136:312|120:256,1,239.999992675781,6|2,0:0|0:0,0:0:0:0:
304,128,230385,1,0,0:0:0:0:
128,96,230510,1,2,0:0:0:0:
304,304,230635,1,0,0:0:0:0:
264,40,230760,2,0,P|232:96|240:184,1,119.999996337891,2|0,0:0|0:0,0:0:0:0:
128,96,231010,6,0,P|144:232|224:216,1,239.999992675781,4|0,0:0|0:0,0:0:0:0:
304,304,231385,2,0,B|216:368|120:312|120:312|184:312,1,239.999992675781,4|0,0:0|0:0,0:0:0:0:
264,40,231760,2,0,L|192:152,1,119.999996337891,4|0,0:0|0:0,0:0:0:0:
304,304,232010,6,0,L|320:248,5,39.9999987792969
320,232,232260,1,0,0:0:0:0:
304,184,232322,1,0,0:0:0:0:
256,168,232385,1,0,0:0:0:0:
216,192,232447,1,0,0:0:0:0:
200,240,232510,1,2,0:0:0:0:
160,272,232572,1,0,0:0:0:0:
112,256,232635,1,2,0:0:0:0:
96,208,232697,1,0,0:0:0:0:
112,160,232760,2,0,P|144:104|136:40,1,119.999996337891,2|0,0:0|0:0,0:0:0:0:
320,232,233010,6,0,B|368:264|368:264|360:168|424:120,1,200,4|0,0:0|0:0,0:0:0:0:
280,104,233385,1,0,0:0:0:0:
304,304,233510,2,0,B|256:328|256:328|184:328,1,100,8|0,0:0|0:0,0:0:0:0:
112,256,233760,2,0,P|120:208|112:152,1,100
232,224,234010,5,4,0:0:0:0:
32,120,234135,1,0,0:0:0:0:
280,104,234260,2,0,P|224:120|176:104,1,100
72,40,234510,1,8,0:0:0:0:
104,40,234572,1,0,0:0:0:0:
136,40,234635,1,0,0:0:0:0:
168,40,234697,1,0,0:0:0:0:
200,40,234760,2,0,B|248:32|248:32|320:32,1,100
232,224,235010,6,0,B|168:176|200:112|200:112|128:112,1,200,4|0,0:0|0:0,0:0:0:0:
144,240,235385,1,0,0:0:0:0:
264,152,235510,1,8,0:0:0:0:
232,328,235635,1,0,0:0:0:0:
160,128,235760,1,0,0:0:0:0:
408,72,235885,1,0,0:0:0:0:
384,72,235947,1,0,0:0:0:0:
352,72,236010,6,0,P|296:72|264:40,2,100,4|0|0,0:0|0:0|0:0,0:0:0:0:
376,200,236385,1,0,0:0:0:0:
160,128,236510,1,12,0:0:0:0:
352,72,236635,1,0,0:0:0:0:
248,240,236760,1,4,0:0:0:0:
265,43,236885,1,0,0:0:0:0:
232,328,237010,6,0,B|128:224|128:224|136:288,1,200,4|0,0:0|0:0,0:0:0:0:
216,176,237385,1,0,0:0:0:0:
88,168,237510,2,0,L|88:48,1,100,8|0,0:0|0:0,0:0:0:0:
265,43,237760,2,0,L|144:16,1,100
216,176,238010,6,0,L|344:152,1,100,4|0,0:0|0:0,0:0:0:0:
232,328,238260,2,0,L|152:240,1,100
296,272,238510,1,8,0:0:0:0:
128,360,238635,1,0,0:0:0:0:
152,136,238760,1,0,0:0:0:0:
232,328,238885,1,0,0:0:0:0:
265,43,239010,6,0,B|361:107|281:139|393:211,1,200,4|0,0:0|0:0,0:0:0:0:
216,176,239385,1,0,0:0:0:0:
392,112,239510,2,0,P|376:64|344:16,1,100,8|0,0:0|0:0,0:0:0:0:
152,136,239760,1,0,0:0:0:0:
144,264,239885,1,0,0:0:0:0:
120,248,239947,1,0,0:0:0:0:
104,224,240010,6,0,P|72:160|72:112,2,100,4|0|0,0:0|0:0|0:0,0:0:0:0:
200,136,240385,1,0,0:0:0:0:
16,248,240510,1,12,0:0:0:0:
168,272,240635,1,0,0:0:0:0:
69,132,240760,1,4,0:0:0:0:
80,304,240885,1,0,0:0:0:0:
96,56,241010,6,2,B|200:32|200:96|296:56,1,200,6|2,0:0|0:0,0:0:0:0:
256,184,241385,1,0,0:0:0:0:
69,132,241510,1,2,0:0:0:0:
291,57,241635,1,4,0:0:0:0:
168,272,241760,2,0,P|152:208|128:176,1,100,2|0,0:0|0:0,0:0:0:0:
256,184,242010,6,0,P|265:232|291:275,1,100,6|0,0:0|0:0,0:0:0:0:
212,120,242260,2,0,L|116:192,1,100,2|0,0:0|0:0,0:0:0:0:
336,208,242510,1,2,0:0:0:0:
136,72,242635,1,0,0:0:0:0:
168,272,242760,2,0,B|224:288|224:288|280:288,1,100,2|0,0:0|0:0,0:0:0:0:
291,57,243010,6,2,B|328:96|328:96|368:64|368:64|408:88|408:88|464:88,1,200,6|2,0:0|0:0,0:0:0:0:
432,216,243385,1,0,0:0:0:0:
416,240,243447,1,0,0:0:0:0:
392,256,243510,2,0,B|360:288|360:288|288:288,1,100,2|4,0:0|0:0,0:0:0:0:
208,200,243760,1,2,0:0:0:0:
432,216,243885,1,4,0:0:0:0:
448,184,243947,1,0,0:0:0:0:
448,152,244010,6,0,B|440:96|440:96|408:48,2,100,2|0|2,0:0|0:0|0:0,0:0:0:0:
392,256,244385,1,0,0:0:0:0:
264,184,244510,1,2,0:0:0:0:
415,59,244635,1,0,0:0:0:0:
305,288,244760,1,2,0:0:0:0:
448,184,244885,1,0,0:0:0:0:
208,200,245010,6,2,P|168:256|168:168,1,200,6|2,0:0|0:0,0:0:0:0:
168,144,245322,1,0,0:0:0:0:
200,128,245385,1,0,0:0:0:0:
232,120,245447,1,0,0:0:0:0:
264,120,245510,2,0,P|320:96|352:56,1,100,2|4,0:0|0:0,0:0:0:0:
208,200,245760,2,0,P|232:248|232:296,1,100,2|0,0:0|0:0,0:0:0:0:
328,208,246010,5,6,0:0:0:0:
160,328,246135,1,0,0:0:0:0:
208,200,246260,1,2,0:0:0:0:
256,368,246385,1,0,0:0:0:0:
168,144,246510,2,0,B|96:152|96:152|56:136,1,100,2|0,0:0|0:0,0:0:0:0:
152,40,246760,2,0,B|224:32|224:32|249:42,1,100,2|0,0:0|0:0,0:0:0:0:
328,208,247010,6,2,B|328:256|328:256|360:192|360:152|400:120,1,200,6|2,0:0|0:0,0:0:0:0:
440,248,247385,1,0,0:0:0:0:
280,136,247510,2,0,B|272:80|272:80|280:32,1,100,2|4,0:0|0:0,0:0:0:0:
152,40,247760,1,2,0:0:0:0:
80,152,247885,1,4,0:0:0:0:
96,176,247947,1,0,0:0:0:0:
96,208,248010,6,0,P|96:280|128:320,2,100,2|0|2,0:0|0:0|0:0,0:0:0:0:
280,136,248385,1,2,0:0:0:0:
109,302,248510,1,2,0:0:0:0:
24,112,248635,1,2,0:0:0:0:
296,272,248760,1,2,0:0:0:0:
8,224,248885,1,2,0:0:0:0:
296,40,249010,5,6,0:0:0:0:
256,192,250010,5,0,0:0:0:0:
296,168,250260,1,0,0:0:0:0:
344,168,250510,1,0,0:0:0:0:
384,184,250760,1,0,0:0:0:0:
416,216,251010,5,0,0:0:0:0:
424,264,251260,1,0,0:0:0:0:
392,296,251510,1,0,0:0:0:0:
352,312,251760,1,0,0:0:0:0:
304,304,252010,5,0,0:0:0:0:
264,280,252260,1,0,0:0:0:0:
240,240,252510,1,0,0:0:0:0:
240,192,252760,1,0,0:0:0:0:
232,144,253010,5,0,0:0:0:0:
208,104,253260,1,0,0:0:0:0:
168,88,253510,1,0,0:0:0:0:
120,96,253760,1,0,0:0:0:0:
88,128,254010,5,0,0:0:0:0:
72,168,254260,1,0,0:0:0:0:
88,208,254510,1,0,0:0:0:0:
120,232,254760,1,0,0:0:0:0:
168,232,255010,5,0,0:0:0:0:
208,208,255260,1,0,0:0:0:0:
232,168,255510,1,0,0:0:0:0:
240,128,255760,1,0,0:0:0:0:
280,152,256010,5,0,0:0:0:0:
320,168,256260,1,0,0:0:0:0:
368,160,256510,1,0,0:0:0:0:
400,128,256760,1,0,0:0:0:0:
416,88,257010,5,0,0:0:0:0:
392,48,257260,1,0,0:0:0:0:
352,24,257510,1,0,0:0:0:0:
304,32,257760,1,0,0:0:0:0:
272,64,258010,5,0,0:0:0:0:
264,112,258260,1,0,0:0:0:0:
288,152,258510,1,0,0:0:0:0:
304,192,258760,1,0,0:0:0:0:
288,232,259010,5,0,0:0:0:0:
248,256,259260,1,0,0:0:0:0:
200,248,259510,1,0,0:0:0:0:
168,216,259760,1,0,0:0:0:0:
160,168,260010,5,0,0:0:0:0:
176,128,260260,1,0,0:0:0:0:
216,104,260510,1,0,0:0:0:0:
264,104,260760,1,0,0:0:0:0:
304,120,261010,5,0,0:0:0:0:
336,152,261260,1,0,0:0:0:0:
352,192,261510,1,0,0:0:0:0:
336,232,261760,1,0,0:0:0:0:
304,264,262010,5,0,0:0:0:0:
256,272,262260,1,0,0:0:0:0:
216,256,262510,1,0,0:0:0:0:
168,256,262760,1,0,0:0:0:0:
128,280,263010,5,0,0:0:0:0:
136,232,263260,1,0,0:0:0:0:
144,184,263510,1,0,0:0:0:0:
128,144,263760,1,0,0:0:0:0:
104,104,264010,5,0,0:0:0:0:
64,80,264260,5,0,0:0:0:0:
104,56,264510,5,0,0:0:0:0:
136,24,264760,6,0,P|208:40|304:16,1,150.000005722046
