osu file format v5

[General]
AudioFilename: MAD - Violent Pornography.mp3
AudioLeadIn: 0
PreviewTime: -1
Countdown: 1
SampleSet: Normal

[Metadata]
Title:Violent Pornography
Artist:System of a Down
Creator:Neku
Version:

[Difficulty]
HPDrainRate:5
CircleSize:5
OverallDifficulty:5
SliderMultiplier:1.4
SliderTickRate:1

[Events]
//Background and Video events
1,0,"MAD - Violent Pornography.avi"
//Break Periods
2,33651,46330
2,60245,73035
2,97565,100523
2,114660,129351
2,187066,195387
//Storyboard Layer 0 (Background)
//Storyboard Layer 1 (Failing)
//Storyboard Layer 2 (Passing)
//Storyboard Layer 3 (Foreground)
//Storyboard Sound Samples
//Background Colour Transformations
3,100,163,162,255

[TimingPoints]
1160,335.21,4,1,0,100

[HitObjects]
120,88,20937,1,0
232,88,21272,1,0
320,88,21719,1,0
344,168,22166,1,0
128,216,23395,1,0
128,216,23842,1,0
376,128,25071,5,0
384,232,25406,1,0
224,240,26747,1,0
224,240,27082,1,0
376,168,28982,1,0
120,192,29764,1,0
304,64,30435,1,0
312,144,31664,5,0
80,168,32334,1,0
424,136,33451,1,0
360,200,47530,5,0
80,184,48424,1,0
328,224,49206,1,0
248,160,49541,1,0
224,304,49988,1,0
152,168,50435,1,0
248,184,52111,5,0
312,112,53452,1,0
256,136,54681,1,0
336,136,55464,1,0
256,200,57587,1,0
176,0,58257,1,0
352,328,59374,5,0
392,176,60045,1,0
248,192,74235,5,0
496,208,74906,1,0
184,264,75911,1,0
272,160,76247,1,0
232,288,76582,1,0
184,240,77923,1,0
368,216,78593,1,0
256,168,78928,1,0
256,200,81610,1,0
328,208,81945,1,0
304,200,84292,5,0
184,216,84627,1,0
256,128,86303,1,0
192,344,86973,1,0
176,176,87308,1,0
392,152,87979,1,0
184,376,88985,5,0
264,144,89655,1,0
24,192,90325,1,0
512,160,91666,1,0
328,176,92337,1,0
256,248,92672,1,0
192,136,93007,1,0
56,336,93677,1,0
144,176,94348,1,0
408,168,95018,1,0
216,176,95689,1,0
360,176,96024,1,0
152,176,96694,1,0
368,176,97365,1,0
256,192,101723,5,0
288,112,102393,1,0
184,160,103399,1,0
320,224,103734,1,0
264,176,105410,5,0
296,336,106080,1,0
312,248,106415,1,0
104,128,107086,1,0
232,224,107421,1,0
296,208,108427,5,0
296,320,108762,1,0
256,128,109432,1,0
192,224,109768,1,0
360,200,110438,1,0
280,96,110773,1,0
168,216,111444,1,0
368,160,112114,5,0
232,216,112449,1,0
96,56,113120,1,0
408,200,114125,1,0
248,192,114460,1,0
256,192,130551,12,0,138596
232,192,140942,5,0
320,296,141277,1,0
336,96,141948,1,0
192,232,142618,1,0
480,192,143624,1,0
296,168,144294,1,0
208,184,145635,1,0
312,224,145970,1,0
264,88,146305,1,0
208,240,146976,1,0
416,40,147981,5,0
232,216,148987,1,0
240,192,149993,1,0
288,168,151669,1,0
272,264,152004,1,0
208,200,153680,5,0
392,136,154350,1,0
272,144,154686,1,0
256,320,155356,1,0
184,128,156027,1,0
408,264,156697,1,0
248,160,157367,1,0
312,136,157703,1,0
296,160,159043,1,0
416,200,159379,1,0
136,184,160384,1,0
392,96,161055,5,0
296,120,162396,1,0
80,136,163066,1,0
208,176,163401,1,0
416,48,164072,1,0
288,256,164742,1,0
240,80,165412,1,0
104,256,166083,1,0
376,152,167088,1,0
112,56,168094,1,0
304,192,168765,5,0
184,144,170776,5,0
320,200,171111,1,0
304,272,172787,1,0
336,160,173122,1,0
80,272,174128,1,0
192,144,174798,1,0
288,184,176139,5,0
128,288,176810,1,0
208,200,177145,1,0
424,256,177815,1,0
176,80,178821,1,0
240,152,179156,1,0
184,184,180832,1,0
432,176,181502,1,0
232,208,182173,1,0
296,80,182508,1,0
16,216,183514,1,0
288,192,184519,1,0
304,128,185860,1,0
48,336,186866,1,0
328,288,196587,5,0
248,40,197257,1,0
72,312,198263,1,0
264,192,199939,5,0
192,176,200945,1,0
256,192,202621,12,0,211881
