osu file format v7

[General]
AudioFilename: 09 - Vicinity of Obscenity.mp3
AudioLeadIn: 0
PreviewTime: 52073
Countdown: 1
SampleSet: Normal
StackLeniency: 0.7
Mode: 0
LetterboxInBreaks: 1

[Editor]
DistanceSpacing: 1.20000004768372
BeatDivisor: 4
GridSize: 8

[Metadata]
Title:Vicinity of Obscenity
Artist:System of a Down
Creator:Larto
Version:Possible
Source:
Tags:Alternative Metal NSFW Hypnotize

[Difficulty]
HPDrainRate:4
CircleSize:5
OverallDifficulty:6
SliderMultiplier:1
SliderTickRate:2

[Events]
//Background and Video events
0,0,"system of the down wallpaper.jpg"
//Break Periods
//Storyboard Layer 0 (Background)
//Storyboard Layer 1 (Fail)
//Storyboard Layer 2 (Pass)
//Storyboard Layer 3 (Foreground)
//Storyboard Sound Samples
//Background Colour Transformations
3,100,163,162,255

[TimingPoints]
8336.64662758198,260.869565217391,4,1,0,100,1,0
24999,-100,4,2,0,100,0,0
25082,274.851122308749,4,2,0,100,1,0
28948,281.822451855331,4,2,0,100,1,0
32611,-100,4,1,0,100,0,0
32845,272.727272727273,4,1,0,100,1,0
34910,-100,4,2,0,100,0,0
37139,271.493212669683,4,1,0,100,1,0
39215,-100,4,2,0,50,0,0
39826,-100,4,2,0,65,0,0
40368,-100,4,2,0,76,0,0
40910,-100,4,1,0,100,0,0
41410,271.493212669683,4,1,0,100,1,0
43378,-100,4,2,0,100,0,0
43567,258.620689655172,4,2,0,100,1,0
45649,-100,4,1,0,100,0,0
46684,276.370336250576,4,1,0,100,1,0
52200,272.727272727273,4,1,0,100,1,0
60381,1090.90909090909,4,1,0,100,1,0
60665,-100,4,1,0,0,0,0
60790,-100,4,1,0,73,0,0
60976,553.504545454546,4,1,0,71,1,0
78411,-100,4,2,0,100,0,0
78710,272.727272727273,4,2,0,100,1,0
82606,279.06976744186,4,2,0,100,1,0
86518,266.370699223085,4,1,0,100,1,0
88515,-100,4,2,0,100,0,0
90379,-100,4,1,0,100,0,0
92910,281.030444964871,4,1,0,100,1,0
97406,269.058295964126,4,1,0,100,1,0
105881,-100,4,1,0,70,0,0
106068,555.709919422062,4,1,0,69,1,0
114959,548.195391705069,4,1,0,69,1,0
121548,545.454545454545,4,1,0,84,1,0
124826,535.714285714286,4,1,0,100,1,0
126968,265.486725663717,4,1,0,100,1,0
135463,265.486725663717,4,1,0,100,1,1
143959,270.574971815107,4,1,0,100,1,0
152576,266.666666666667,4,1,0,100,1,0
156842,264.026402640264,4,1,0,100,1,0

[HitObjects]
16,104,16684,6,6,B|104:169|243:105,1,200
312,152,17467,1,0
312,152,17597,1,0
312,152,17727,1,0
312,264,17988,1,0
408,208,18249,1,8
408,96,18510,1,0
312,48,18771,1,4
216,96,19032,1,0
216,208,19293,1,8
312,264,19554,1,0
400,320,19814,1,4
312,368,20075,1,0
200,368,20336,1,8
112,320,20597,1,0
16,280,20858,6,6,B|104:215|243:279,1,200
296,239,21640,1,0
296,239,21771,1,0
296,239,21901,1,0
296,127,22162,1,0
392,183,22423,1,8
392,295,22684,1,0
296,343,22945,1,4
200,295,23206,1,0
200,183,23467,1,8
296,127,23727,1,0
392,71,23988,1,4
296,23,24249,1,0
184,23,24510,1,8
88,71,24771,1,0
48,184,25082,6,0,B|64:248|128:264,1,100,4|2
160,272,25494,2,4,B|176:208|240:192,1,100,4|2
280,200,25906,2,0,B|296:264|360:280,1,100,4|0
400,280,26318,2,4,B|400:144,1,100,2|0
392,72,26868,6,0,B|336:48|272:80,1,100,4|0
248,96,27280,2,0,B|160:24,1,100,2|0
72,72,27830,2,0,B|160:144,1,100,2|0
232,208,28380,1,2
336,72,28948,6,0,B|456:72,1,100,4|2
464,136,29370,2,0,B|344:136,1,100,4|2
344,200,29793,2,0,B|464:200,1,100,4|0
464,264,30216,2,0,B|344:264,1,100,2|0
240,304,30779,2,0,B|184:288|200:216,1,100,4|0
216,160,31202,1,2
216,16,31484,1,0
296,160,31766,1,2
296,16,32048,1,0
392,96,32329,1,2
48,112,32845,5,4
168,56,33117,1,0
248,160,33390,1,8
368,104,33663,1,0
440,216,33935,1,6
376,328,34208,1,0
256,280,34481,1,6
127,321,35026,6,2,C|63:289|125:257|67:225|123:193|67:162|125:128|66:96|126:64|92:28,1,600,2|2
256,24,37139,6,0,C|368:54,1,100,4|0
384,102,37546,1,0
408,158,37681,1,6
328,254,37953,1,0
256,144,38224,2,6,C|144:174,1,100,6|0
128,222,38632,1,0
104,278,38767,1,6
184,374,39039,1,0
304,344,39310,6,0,C|376:344,1,50,2|0
416,344,39582,2,0,C|488:344,1,50
480,280,39853,6,0,C|408:280,1,50,2|0
368,280,40125,2,0,C|296:280,1,50
296,216,40396,6,0,C|368:216,1,50,2|0
408,216,40668,2,0,C|480:216,1,50
480,152,40939,1,4
336,80,41410,6,0,C|288:48|224:40,1,100
216,88,41817,1,0
176,128,41952,2,0,C|128:160|64:168,1,100,0|0
88,280,42495,1,6
256,280,42767,1,0
424,280,43038,1,6
480,64,43567,6,2,C|416:32|352:96|288:32|256:64|224:32|160:96|96:32|32:64,1,600,2|0
192,144,45635,6,0,C|192:264,1,100,4|0
320,184,46153,2,0,C|320:304,1,100,6|0
256,360,46684,2,6,C|256:160,1,200
344,40,47789,5,4
448,104,48065,1,0
384,208,48342,1,8
488,272,48618,1,2
384,208,48894,5,4
320,312,49171,1,0
216,248,49447,1,8
152,352,49724,1,2
88,240,50000,5,4
152,352,50276,1,0
256,280,50553,1,8
200,160,50829,1,2
312,96,51105,5,4
200,160,51382,1,0
256,280,51658,1,8
376,224,51935,1,2
456,80,52200,5,4
400,48,52336,1,0
344,16,52472,1,8
256,96,52745,1,4
144,32,53018,1,8
56,176,53290,5,4
112,144,53427,1,0
168,112,53563,1,8
256,192,53836,1,4
368,128,54109,1,8
456,288,54381,5,4
400,256,54518,1,0
344,224,54654,1,8
256,304,54927,1,4
144,240,55199,1,8
64,152,55472,5,6
448,152,56018,1,6
144,16,56563,5,4
144,16,56699,1,0
144,16,56836,1,8
144,16,56972,1,0
144,16,57109,1,0
144,16,57245,1,0
144,16,57381,1,8
256,56,57654,5,4
256,56,57790,1,0
256,56,57927,1,8
256,56,58063,1,0
256,56,58199,1,0
256,56,58336,1,0
256,56,58472,1,8
192,160,58745,5,4
192,160,58881,1,0
192,160,59018,1,8
192,160,59154,1,0
192,160,59290,1,0
192,160,59427,1,0
192,160,59563,1,8
304,200,59836,5,6
304,200,59972,1,0
304,200,60109,1,8
304,200,60245,1,0
304,200,60381,1,6
440,344,60976,5,4
480,264,61391,1,0
512,176,61806,2,2,B|512:112|440:80|392:104,1,150,2|10
296,136,63190,6,0,B|248:152|200:136,2,75,6|2|2
408,56,64850,1,10
456,144,65404,6,4,B|464:192|432:224,1,75,4|2
384,264,66234,2,2,B|336:296|296:208|232:248,1,150,2|10
144,240,67618,5,6
96,152,68033,1,2
48,64,68448,1,2
200,104,69001,1,0
200,104,69278,1,10
384,200,69832,6,4,B|440:184|424:128,2,75,6|2|2
256,232,71215,1,0
192,248,71492,1,10
128,168,72046,6,4,B|72:152|88:96,2,75,6|2|2
256,200,73429,1,0
320,216,73706,1,10
304,64,74260,5,4
208,96,74675,1,2
168,192,75090,2,2,B|208:240|296:240|320:208,1,150,2|10
360,320,76474,5,6
256,336,76889,1,0
152,320,77304,2,2,B|88:264|96:176,1,150,2|10
88,72,78710,5,4
200,16,78982,1,2
200,80,79119,1,4
256,160,79391,1,2
256,224,79528,1,4
312,304,79800,1,0
312,368,79937,1,2
416,368,80210,1,0
416,272,80482,5,4
416,168,80755,1,0
416,104,80891,2,0,B|304:104,1,100,2|0
216,24,81437,2,0,B|328:24,1,100,2|0
416,104,81982,1,2
80,136,82606,6,4,B|48:168|88:224|136:192,1,100,4|2
144,144,83024,2,4,B|176:112|232:152|200:200,1,100,4|2
192,240,83443,2,4,B|160:272|200:328|248:296,1,100,4|2
256,248,83861,2,4,B|288:216|344:256|312:304,1,100,2|2
376,168,84419,5,4
376,168,84559,1,0
376,168,84699,1,0
376,168,84838,2,2,B|296:176|224:80|256:32,2,200
306,304,86518,6,4,B|194:304,1,100,4|0
206,191,87050,2,4,B|318:191,1,100,4|0
356,80,87583,2,6,B|148:80,1,200,6|6
56,192,88648,6,2,B|112:264|112:264|168:208|168:208|256:312|256:312|344:208|344:208|400:264|400:264|456:192,1,600,2|0
256,24,90779,6,0,B|368:24,1,100,4|0
480,32,91312,2,0,B|480:144,1,100,6|0
480,256,91845,2,0,B|368:256,1,100,12|0
256,248,92378,2,0,B|256:136,1,100,12|0
168,80,92910,5,6
168,80,93050,1,0
168,80,93191,1,0
80,136,93472,1,8
168,176,93753,1,2
264,216,94034,5,6
264,216,94174,1,0
264,216,94315,1,0
352,272,94596,1,8
264,312,94877,1,2
168,336,95158,5,6
168,336,95298,1,0
168,336,95439,1,0
80,280,95720,1,8
168,240,96001,1,2
264,200,96282,5,6
264,200,96422,1,0
264,200,96563,1,0
352,144,96844,1,8
264,104,97125,1,2
176,48,97406,6,0,B|64:48,1,100,4|8
76,120,97944,2,0,B|176:120,1,100,0|8
176,192,98482,2,0,B|64:192,1,100,4|8
76,264,99020,2,0,B|176:264,1,100,0|8
176,336,99558,6,0,B|288:336,1,100,4|8
276,264,100096,2,0,B|176:264,1,100,0|8
176,192,100634,2,0,B|288:192,1,100,6|0
276,120,101172,2,0,B|176:120,1,100,6|0
200,24,101710,5,4
296,8,101979,1,8
384,64,102249,1,0
408,160,102518,1,8
352,240,102787,1,4
256,272,103056,1,8
168,224,103325,1,0
136,128,103594,1,8
192,48,103863,5,4
288,72,104132,1,8
336,160,104401,1,0
320,256,104670,1,8
240,312,104939,1,6
144,288,105208,1,0
104,192,105477,1,6
72,40,106068,5,4
32,120,106484,1,0
0,208,106901,2,2,B|0:272|72:304|120:280,1,150,2|10
216,248,108290,6,0,B|264:232|312:248,2,75,6|2|2
104,328,109957,1,10
56,240,110513,6,4,B|48:192|80:160,1,75,4|2
128,120,111347,2,2,B|176:88|216:176|280:136,1,150,2|10
368,144,112736,5,6
416,232,113153,1,2
464,320,113570,1,2
312,280,114125,1,0
312,280,114403,1,10
128,184,114959,6,4,B|72:200|88:256,2,75,6|2|2
256,152,116329,1,0
320,136,116603,1,10
384,216,117151,6,4,B|440:232|424:288,2,75,6|2|2
256,184,118522,1,0
192,168,118796,1,10
126,68,119344,6,4,B|200:24|256:104|256:104|315:22|392:72,1,300,6|14
328,192,121548,2,0,B|264:224|192:208|168:176,1,150,6|2
256,192,122638,12,6,124826
256,192,124959,12,6,126968
344,16,127233,5,8
256,120,127498,1,4
144,32,127764,1,8
56,176,128029,5,4
112,144,128162,1,0
168,112,128295,1,8
256,216,128560,1,4
368,128,128826,1,8
456,288,129091,5,4
400,256,129224,1,0
344,224,129357,1,8
256,328,129622,1,4
144,240,129888,1,8
64,152,130153,5,6
256,152,130419,1,0
448,152,130684,1,6
144,64,131215,5,4
144,64,131348,1,0
144,64,131481,1,8
144,64,131614,1,0
144,64,131746,1,0
144,64,131879,1,0
144,64,132012,1,8
368,64,132277,5,6
368,64,132410,1,0
368,64,132543,1,8
368,64,132675,1,0
368,64,132808,1,0
368,64,132941,1,0
368,64,133074,1,8
368,240,133339,5,6
368,240,133472,1,0
368,240,133605,1,8
368,240,133737,1,0
368,240,133870,1,0
368,240,134003,1,0
368,240,134136,1,8
144,240,134401,5,6
144,240,134534,1,0
144,240,134667,1,8
144,240,134799,1,0
144,240,134932,1,0
144,240,135065,1,0
144,240,135198,1,8
256,80,135463,6,0,B|256:192,1,100,6|0
400,232,135993,2,0,B|288:232,1,100,8|0
256,384,136524,2,0,B|256:272,1,100,6|0
112,232,137055,2,0,B|224:232,1,100,8|0
336,336,137586,6,0,B|336:224,1,100,6|0
480,184,138117,2,0,B|368:184,1,100,8|0
336,32,138648,2,0,B|336:144,1,100,6|0
192,184,139179,2,0,B|304:184,1,100,8|0
400,336,139710,5,6
256,384,139976,1,0
112,336,140241,1,8
56,200,140507,1,0
112,64,140772,1,6
256,16,141038,1,0
400,64,141303,1,8
456,200,141569,1,0
400,336,141834,5,6
256,384,142100,1,0
112,336,142365,1,8
56,200,142631,1,0
112,64,142896,1,6
256,16,143162,1,0
400,64,143427,1,8
456,200,143693,1,0
328,280,143959,6,0,B|256:280,1,50,4|0
216,280,144229,2,0,B|144:280,1,50,8|0
104,272,144500,2,0,B|104:200,1,50,4|0
104,160,144770,2,0,B|104:88,1,50,8|0
104,48,145041,1,6
208,120,145311,1,8
304,56,145582,1,6
400,128,145853,1,8
464,232,146123,6,0,B|416:272,1,50,4|0
376,304,146394,2,0,B|328:344,1,50,8|0
288,376,146664,2,0,B|240:336,1,50,0|0
200,304,146935,2,0,B|152:264,1,50,8|0
112,232,147205,1,6
48,136,147476,1,8
128,48,147747,1,6
184,280,148288,6,0,B|256:280,1,50,4|0
296,280,148558,2,0,B|368:280,1,50,8|0
408,272,148829,2,0,B|408:200,1,50,4|0
408,160,149099,2,0,B|408:88,1,50,8|0
408,48,149370,1,6
304,120,149641,1,8
208,56,149911,1,6
112,128,150182,1,8
48,232,150452,6,0,B|96:272,1,50,4|0
136,304,150723,2,0,B|184:344,1,50,8|0
224,376,150993,2,0,B|272:336,1,50,0|0
312,304,151264,2,0,B|360:264,1,50,8|0
400,232,151535,1,6
464,136,151805,1,8
392,48,152076,1,6
256,56,152576,6,0,B|256:120,7,50,4|0|8|0|0|0|8|0
184,144,153642,2,0,B|184:80,7,50,4|0|8|0|0|0|8|0
112,104,154709,2,0,B|112:40,7,50,4|0|8|0|0|0|8|0
40,16,155775,2,0,B|40:80,4,50,6|0|8|0|6
136,312,156842,5,12
296,312,157106,1,8
136,248,157370,1,12
296,248,157634,1,8
136,184,157898,1,12
296,184,158162,1,8
136,120,158426,1,12
296,120,158690,1,8
216,48,158954,5,12
376,48,159218,1,8
216,112,159482,1,12
376,112,159746,1,8
216,176,160010,1,14
376,176,160274,1,8
296,296,160538,1,14
