osu file format v5

[General]
AudioFilename: 11-system_of_a_down-lonely_day.mp3
AudioLeadIn: 0
PreviewTime: -1
Countdown: 0
SampleSet: Normal
StackLeniency: 0.7
Mode: 0
LetterboxInBreaks: 1

[Metadata]
Title:Lonely Day
Artist:System of a Down
Creator:TSSG3
Version:Hard
Source:
Tags:System of a Down Lonely Day Hypnotize

[Difficulty]
HPDrainRate:6
CircleSize:6
OverallDifficulty:7
SliderMultiplier:1
SliderTickRate:1

[Events]
//Background and Video events
//Break Periods
2,111311,111312
//Storyboard Layer 0 (Background)
//Storyboard Layer 1 (Failing)
//Storyboard Layer 2 (Passing)
//Storyboard Layer 3 (Foreground)
//Storyboard Sound Samples
//Background Colour Transformations
3,100,163,162,255

[TimingPoints]
0,525.34804307854,4,1,0,100,1

[HitObjects]
64,64,13834,1,2
96,64,14096,1,2
128,96,14359,1,2
192,96,14622,1,2
224,128,14884,1,2
384,64,16986,5,2
352,128,17248,1,2
352,160,17511,2,8,C|320:256|288:256|288:256,1,133.333333333333
64,64,20138,5,2
64,64,20225,1,2
128,96,20663,2,2,C|192:160|192:160,1,100
256,128,21451,1,2
288,160,21714,1,2
320,192,21977,1,2
384,64,22239,6,0,C|256:160|288:320,2,316.666666666667
64,64,26530,5,8
64,128,26793,1,8
96,160,27055,1,8
96,128,27318,1,8
128,160,27581,1,8
384,320,29682,5,0
320,320,29944,1,0
288,320,30295,2,4,C|288:160,1,150
96,128,33272,5,8
96,192,33447,2,8,C|192:192,1,83.3333333333333
320,192,34760,5,0
256,160,35110,6,8,C|128:160|128:288,1,250
160,320,36708,6,4,C|384:192,1,250
224,160,39313,5,0
224,160,39401,1,0
224,96,39838,1,0
256,96,40101,1,0
288,128,40276,1,0
288,224,40626,5,0
256,256,40889,1,0
224,224,41152,1,0
192,256,41414,2,2,C|128:160|320:96,1,316.666666666667
256,192,43866,1,4
96,160,45705,5,2
96,160,45793,1,2
160,192,46230,1,2
192,160,46493,1,2
224,128,46668,1,2
224,128,47018,5,2
192,160,47281,1,2
160,192,47543,1,2
160,256,47806,6,4,C|224:256,3,50
224,192,48857,1,0
288,256,49120,1,0
224,320,49382,1,0
160,320,49645,2,4,C|160:256,4,50
32,32,52097,5,0
96,32,52359,1,0
96,96,52622,1,0
160,128,52885,1,0
96,160,53147,1,0
128,96,55249,5,0
128,96,55336,1,0
128,160,55555,2,2,C|192:160,1,50
224,160,56037,1,6
128,192,59014,6,8,C|256:192,1,116.666666666667
256,160,60239,5,2
256,160,60415,1,2
256,160,60590,2,2,C|416:128|384:64|128:64|96:128|96:128,1,600
160,96,64880,5,2
192,96,65143,1,2
192,128,65405,1,2
160,128,65668,1,2
128,128,65931,1,2
96,192,68032,1,0
160,160,68295,1,0
160,224,68557,2,6,C|256:352,1,150
96,160,71272,5,2
96,160,71360,1,2
160,96,71797,1,2
192,64,72060,1,2
224,64,72235,1,2
256,64,72585,5,2
288,96,72848,1,2
288,128,73110,1,2
288,192,73373,2,8,C|128:128|160:256,1,300
256,192,75737,5,4
128,128,77313,5,0
160,192,77576,1,0
224,192,77839,1,0
224,256,78101,2,0,C|64:288,1,150
128,160,80465,6,0,C|160:160|160:192,5,50
384,96,83705,5,0
320,96,83968,1,0
256,96,84231,1,0
384,96,84493,2,0,C|224:128,1,150
288,160,86857,6,0,C|320:160|320:128,5,50
64,64,89922,6,0,C|384:64,1,316.666666666667
384,64,92286,1,0
384,128,93161,1,0
256,192,93774,12,0,95525
128,96,97101,5,2
192,96,97320,1,2
256,96,97583,1,2
320,96,97846,1,2
288,128,98327,1,2
160,128,98590,2,2,C|256:224,1,133.333333333333
384,128,99903,5,2
320,128,100166,2,2,C|192:224,1,150
384,160,101654,2,2,C|416:160,3,25
352,288,102442,2,2,C|384:288,3,25
384,160,103230,2,2,C|416:160,3,25
288,96,104018,2,2,C|320:96,3,25
192,64,104806,1,2
128,64,105069,1,2
160,128,105332,1,2
96,128,105594,1,2
128,192,105857,1,2
192,160,106120,1,2
128,96,106382,1,2
192,32,106645,1,2
192,96,106908,1,2
224,160,107171,1,2
128,160,107433,1,2
160,224,107696,1,2
256,192,108484,12,6,111111
256,192,112512,12,6,113387
256,192,113475,12,6,114175
256,192,114263,12,6,114963
256,192,115226,12,6,115751
256,192,115926,12,6,116539
256,192,116714,12,6,117327
256,192,117502,12,6,118115
256,192,118290,12,6,118903
128,96,120392,6,4,C|288:160,1,166.666666666667
160,160,121442,5,2
160,160,121618,1,2
256,160,121968,1,2
256,96,122230,1,2
256,160,122493,1,2
384,64,122756,5,0
352,128,123019,1,0
320,192,123281,1,0
256,192,123544,2,2,C|96:192,2,150,6|2|2
320,192,125383,1,0
320,192,125645,1,0
256,192,125908,12,8,126696
64,128,127572,5,2
64,128,127748,1,2
128,96,128098,1,2
192,96,128360,1,2
256,96,128623,1,2
320,96,128886,5,2
384,96,129148,1,2
448,96,129411,1,2
416,160,129674,6,2,C|256:160,2,150
384,96,131512,5,8
384,160,131774,1,8
256,192,132037,12,8,132825
32,32,133876,5,6
64,32,133963,1,6
160,32,134401,1,6
224,64,134664,1,6
288,32,134926,1,6
352,64,135189,1,6
352,128,135452,1,6
288,96,135714,1,6
224,64,135977,2,6,C|416:288,1,283.333333333333
384,256,137728,1,0
320,224,137903,1,0
416,192,138232,6,8,C|384:192,6,25
352,160,139830,2,6,C|192:160,1,150
256,160,141318,2,6,C|416:160,1,150
320,128,142894,2,2,C|192:224,1,150,6|0
