osu file format v14

[General]
AudioFilename: intro.mp3
AudioLeadIn: 0
PreviewTime: 15154
Countdown: 0
SampleSet: Soft
StackLeniency: 0.7
Mode: 0
LetterboxInBreaks: 0
WidescreenStoryboard: 0

[Editor]
Bookmarks: 616,15385,30154,44923,59692
DistanceSpacing: 1.2
BeatDivisor: 8
GridSize: 32
TimelineZoom: 1.9

[Metadata]
Title:Soldier Side - Intro
TitleUnicode:Soldier Side - Intro
Artist:System Of A Down
ArtistUnicode:System Of A Down
Creator:Sieg
Version:Normal
Source:
Tags:mezmerize soad rock daron malakian serj tankian shavo odadjian john dolmayan
BeatmapID:714641
BeatmapSetID:321200

[Difficulty]
HPDrainRate:3.4
CircleSize:3.5
OverallDifficulty:3.5
ApproachRate:4.6
SliderMultiplier:2.6
SliderTickRate:1

[Events]
//Background and Video events
0,0,"3.jpg",0,0
//Break Periods
//Storyboard Layer 0 (Background)
//Storyboard Layer 1 (Fail)
//Storyboard Layer 2 (Pass)
//Storyboard Layer 3 (Foreground)
//Storyboard Sound Samples

[TimingPoints]
616,923.076923076923,4,2,1,23,1,0
846,-100,4,2,1,15,0,0
1077,-100,4,2,1,23,0,0
2692,-100,4,2,1,15,0,0
2923,-100,4,2,1,23,0,0
6846,-100,4,2,1,15,0,0
7077,-100,4,2,1,23,0,0
7308,-100,4,2,1,15,0,0
7539,-100,4,2,1,23,0,0
8231,-100,4,2,1,15,0,0
8462,-100,4,2,1,23,0,0
10077,-100,4,2,1,15,0,0
10308,-100,4,2,1,23,0,0
11000,-100,4,2,1,15,0,0
11231,-100,4,2,1,23,0,0
15385,-100,4,2,1,33,0,0
16539,-100,4,2,1,20,0,0
16769,-100,4,2,1,33,0,0
17923,-100,4,2,1,20,0,0
18154,-100,4,2,1,33,0,0
19539,-100,4,2,1,20,0,0
20000,-100,4,2,1,33,0,0
21616,-100,4,2,1,20,0,0
21846,-100,4,2,1,33,0,0
23462,-100,4,2,1,20,0,0
23692,-100,4,2,1,33,0,0
25769,-100,4,2,1,20,0,0
26000,-100,4,2,1,33,0,0
30846,-100,4,2,1,20,0,0
31077,-100,4,2,1,33,0,0
32692,-100,4,2,1,20,0,0
32923,-100,4,2,1,33,0,0
36385,-100,4,2,1,20,0,0
36616,-100,4,2,1,33,0,0
38231,-100,4,2,1,20,0,0
38462,-100,4,2,1,33,0,0
40539,-100,4,2,1,20,0,0
40769,-100,4,2,1,33,0,0
44923,-100,4,2,1,23,0,0
45154,-100,4,2,1,15,0,0
45385,-100,4,2,1,23,0,0
47000,-100,4,2,1,15,0,0
47231,-100,4,2,1,23,0,0
51154,-100,4,2,1,15,0,0
51385,-100,4,2,1,23,0,0
51615,-100,4,2,1,15,0,0
51846,-100,4,2,1,23,0,0
52539,-100,4,2,1,15,0,0
52769,-100,4,2,1,23,0,0
54385,-100,4,2,1,15,0,0
54615,-100,4,2,1,23,0,0
55308,-100,4,2,1,15,0,0
55539,-100,4,2,1,23,0,0
57385,-100,4,2,1,15,0,0
59692,-100,4,2,1,8,0,0

[Colours]
Combo1 : 182,163,172
Combo2 : 132,81,81
SliderTrackOverride : 0,0,0

[HitObjects]
465,216,616,6,0,P|458:183|434:156,1,65,2|0,0:0|0:0,0:0:0:0:
360,131,1077,1,0,0:0:0:0:
314,280,1539,2,0,L|333:360,2,65,2|2|2,0:0|0:1|0:0,0:0:0:0:
172,197,2462,6,0,P|142:207|116:234,1,65,2|0,0:0|0:0,0:0:0:0:
86,306,2923,1,0,0:0:0:0:
234,355,3385,1,2,0:0:0:0:
283,205,3846,1,0,0:0:0:0:
134,158,4308,1,4,0:1:0:0:
255,60,4769,6,0,L|319:44,1,65,2|2,0:0|0:1,0:0:0:0:
398,29,5231,2,0,P|435:70|416:145,1,130,2|0,0:0|0:0,0:0:0:0:
331,264,6154,1,0,0:0:0:0:
200,178,6615,6,0,L|184:103,1,65,2|0,0:1|0:0,0:0:0:0:
110,135,7077,2,0,L|94:60,1,65,2|0,0:0|0:0,0:0:0:0:
22,44,7539,1,0,0:0:0:0:
28,199,8000,6,0,L|17:286,1,65,4|0,0:1|0:0,0:0:0:0:
11,341,8462,1,0,0:0:0:0:
153,277,8923,1,2,0:0:0:0:
289,352,9385,1,0,0:0:0:0:
426,284,9846,6,0,L|431:220,1,65,2|0,0:1|0:0,0:0:0:0:
486,164,10308,1,0,0:0:0:0:
351,85,10769,2,0,L|287:80,1,65,2|0,0:0|0:0,0:0:0:0:
231,25,11231,1,0,0:0:0:0:
293,167,11692,5,4,0:1:0:0:
287,323,12154,1,0,0:0:0:0:
157,236,12615,1,2,0:0:0:0:
312,246,13077,1,0,0:0:0:0:
172,316,13539,6,0,L|91:341,1,65,2|2,0:0|0:1,0:0:0:0:
31,340,14000,2,0,P|5:276|42:219,1,130,2|0,0:0|0:0,0:0:0:0:
136,109,14923,1,4,0:0:0:0:
220,240,15385,6,0,B|302:263|345:195|345:195|322:138,1,195,4|0,0:1|0:0,0:0:0:0:
387,99,16308,2,0,L|357:38,1,65,2|0,0:0|0:0,0:0:0:0:
282,21,16769,1,0,0:0:0:0:
193,149,17231,6,0,P|87:155|62:68,1,195,2|0,0:1|0:0,0:0:0:0:
136,95,18154,1,2,0:0:0:0:
88,244,18616,1,0,0:0:0:0:
214,334,19077,6,0,P|270:348|334:300,1,130,4|0,0:1|0:0,0:0:0:0:
357,239,19769,1,0,0:0:0:0:
434,248,20000,2,0,P|475:206|466:127,1,130,2|0,0:1|0:0,0:0:0:0:
337,62,20923,6,0,B|276:45|276:45|207:53|207:53|138:33,1,195,2|0,0:0|0:0,0:0:0:0:
70,20,21846,1,2,0:1:0:0:
28,170,22308,1,0,0:0:0:0:
181,145,22769,6,0,P|279:142|330:236,1,195,4|0,0:1|0:0,0:0:0:0:
344,291,23692,2,0,L|481:238,1,130,2|2,0:0|0:1,0:0:0:0:
372,369,24616,6,0,P|317:371|266:317,1,130,2|0,0:0|0:0,0:0:0:0:
148,218,25539,2,0,L|137:301,1,65,4|0,0:1|0:0,0:0:0:0:
129,359,26000,1,0,0:0:0:0:
29,238,26462,5,4,0:1:0:0:
53,85,26924,1,0,0:0:0:0:
207,108,27385,1,2,0:0:0:0:
182,264,27847,1,0,0:0:0:0:
340,213,28308,6,0,L|369:293,1,65,2|2,0:0|0:1,0:0:0:0:
361,352,28769,2,0,P|410:337|438:265,1,130,2|0,0:0|0:0,0:0:0:0:
414,112,29692,1,4,0:0:0:0:
256,93,30154,6,0,B|226:130|256:175|257:179|297:225|257:286,1,195,4|0,0:1|0:0,0:0:0:0:
201,327,31077,2,0,L|130:300,1,65,2|0,0:0|0:0,0:0:0:0:
62,307,31538,1,0,0:0:0:0:
48,151,32000,6,0,P|66:48|159:45,1,195,2|0,0:1|0:0,0:0:0:0:
114,109,32923,1,2,0:0:0:0:
260,53,33385,1,0,0:0:0:0:
205,199,33846,6,0,P|266:234|325:200,1,130,2|0,0:0|0:0,0:0:0:0:
370,155,34539,1,0,0:0:0:0:
447,148,34769,2,0,L|463:303,1,130,2|0,0:1|0:0,0:0:0:0:
318,343,35692,6,0,B|232:349|207:287|207:287|239:226,1,195,2|0,0:0|0:0,0:0:0:0:
274,165,36616,1,2,0:1:0:0:
360,33,37077,2,0,L|442:14,1,65,2|2,0:1|0:0,0:0:0:0:
447,92,37538,6,0,B|492:81|492:81|552:134|505:233,1,195,4|0,0:1|0:0,0:0:0:0:
479,288,38461,2,0,L|332:329,1,130,2|2,0:0|0:1,0:0:0:0:
197,308,39385,6,0,P|153:358|83:350,1,130,2|0,0:0|0:0,0:0:0:0:
109,200,40308,2,0,L|123:127,1,65,4|0,0:1|0:0,0:0:0:0:
137,59,40769,1,0,0:0:0:0:
252,164,41231,5,4,0:1:0:0:
317,305,41693,1,0,0:0:0:0:
407,178,42154,1,2,0:0:0:0:
341,36,42616,1,0,0:0:0:0:
185,50,43077,6,0,L|108:30,1,65,2|2,0:0|0:1,0:0:0:0:
51,68,43539,2,0,P|22:115|72:191,1,130,2|0,0:0|0:0,0:0:0:0:
150,297,44461,1,4,0:0:0:0:
292,359,44923,6,0,L|360:337,1,65,2|0,0:0|0:0,0:0:0:0:
395,272,45384,1,0,0:0:0:0:
451,126,45846,2,0,L|491:66,2,65,2|2|2,0:0|0:1|0:0,0:0:0:0:
319,210,46769,6,0,L|248:226,1,65,2|0,0:0|0:0,0:0:0:0:
201,280,47231,1,0,0:0:0:0:
349,329,47693,1,2,0:0:0:0:
398,179,48154,1,0,0:0:0:0:
249,132,48616,1,4,0:1:0:0:
97,170,49077,6,0,L|64:95,1,65,2|2,0:0|0:1,0:0:0:0:
116,46,49539,2,0,P|61:30|17:59,2,97.5,2|0|0,0:0|0:0|0:0,0:0:0:0:
165,105,50461,1,4,0:0:0:0:
288,204,50923,6,0,L|304:279,1,65,2|0,0:1|0:0,0:0:0:0:
378,247,51385,2,0,L|394:322,1,65,2|0,0:0|0:0,0:0:0:0:
466,338,51847,1,0,0:0:0:0:
485,183,52308,6,0,L|493:96,1,65,4|0,0:0|0:0,0:0:0:0:
498,40,52769,1,0,0:0:0:0:
342,24,53230,1,2,0:0:0:0:
242,144,53692,1,0,0:0:0:0:
212,297,54154,6,0,L|287:281,1,65,2|0,0:1|0:0,0:0:0:0:
353,291,54615,1,0,0:0:0:0:
381,137,55077,2,0,L|306:122,1,65,2|0,0:0|0:0,0:0:0:0:
242,144,55538,1,0,0:0:0:0:
91,183,56000,5,2,0:0:0:0:
178,53,56462,1,2,0:1:0:0:
309,141,56923,1,4,0:1:0:0:
220,270,57385,1,2,0:0:0:0:
256,192,57846,12,2,59692,0:0:0:0:
