osu file format v14

[General]
AudioFilename: SOADAERIALS.mp3
AudioLeadIn: 0
PreviewTime: 34475
Countdown: 0
SampleSet: Normal
StackLeniency: 0.7
Mode: 0
LetterboxInBreaks: 0
WidescreenStoryboard: 0

[Editor]
Bookmarks: 79800,87535
DistanceSpacing: 1.1
BeatDivisor: 4
GridSize: 4
TimelineZoom: 1

[Metadata]
Title:Aerials
TitleUnicode:Aerials
Artist:System Of A Down
ArtistUnicode:System Of A Down
Creator:Alarido
Version:Normal
Source:
Tags:SOAD Alternative Metal Toxicity VEVO Daron Malakian Serj Tankian Shavo Odadjian John Dolmayan Danizudo Killuminati
BeatmapID:350648
BeatmapSetID:136425

[Difficulty]
HPDrainRate:4
CircleSize:3
OverallDifficulty:3
ApproachRate:5
SliderMultiplier:2.2
SliderTickRate:1

[Events]
//Background and Video events
0,0,"soadaerials.png",0,0
Video,-6805,"soadaerials.avi"
//Break Periods
2,80975,87275
//Storyboard Layer 0 (Background)
//Storyboard Layer 1 (Fail)
//Storyboard Layer 2 (Pass)
//Storyboard Layer 3 (Foreground)
//Storyboard Sound Samples

[TimingPoints]
31475,750,4,1,1,45,1,0
32600,-100,4,3,2,50,0,0
32975,-100,4,3,1,60,0,0
33350,-100,4,3,1,70,0,0
33725,-100,4,3,1,80,0,0
34100,-100,4,3,1,90,0,0
34475,-100,4,1,1,90,0,0
88475,-100,4,2,1,50,0,0
98975,-100,4,1,1,70,0,0
100475,-100,4,1,1,90,0,0
160475,-100,4,1,1,90,0,1
184475,-100,4,2,1,70,0,0
233975,-100,4,2,0,10,0,0

[Colours]
Combo1 : 184,201,182
Combo2 : 189,176,164
Combo3 : 181,190,193
Combo4 : 132,130,147
Combo5 : 49,83,111
Combo6 : 206,184,179

[HitObjects]
113,249,31475,6,0,P|145:293|201:313,1,110,0|0,0:0|0:0,0:0:0:0:
316,312,32225,2,0,P|367:292|399:249,1,110,0|0,0:0|3:0,0:0:0:0:
408,128,32975,1,0,0:0:0:0:
316,52,33350,1,8,0:0:0:0:
196,52,33725,1,10,0:0:0:0:
104,128,34100,1,14,0:0:0:0:
180,208,34475,6,0,P|128:236|54:228,2,110,4|4|8,0:0|0:0|0:0,0:0:0:0:
272,128,35600,1,0,0:0:0:0:
312,84,35787,2,0,P|364:56|438:64,2,110,8|0|0,0:0|0:0|0:0,0:0:0:0:
196,120,36912,2,0,L|184:180,1,55,0|8,0:0|0:0,0:0:0:0:
240,280,37475,6,0,P|285:310|339:317,1,110,4|0,0:0|0:0,0:0:0:0:
384,204,38225,2,0,P|338:173|284:166,1,110,8|0,0:0|0:0,0:0:0:0:
224,176,38787,2,0,P|140:160|77:86,2,165,8|0|8,0:0|0:0|3:0,0:0:0:0:
400,132,40475,5,4,0:0:0:0:
304,60,40850,1,0,0:0:0:0:
184,64,41225,2,0,P|128:92|104:152,1,110,8|0,0:0|0:0,0:0:0:0:
112,252,41975,1,0,0:0:0:0:
208,324,42350,1,0,0:0:0:0:
328,320,42725,2,0,P|384:292|408:232,1,110,8|0,0:0|0:0,0:0:0:0:
405,132,43475,6,0,P|377:85|328:64,2,110,0|0|8,0:0|0:0|0:0,0:0:0:0:
392,252,44600,2,0,P|420:254|447:245,2,55,0|8|4,0:0|0:0|3:0,0:0:0:0:
272,224,45350,1,8,3:0:0:0:
156,256,45725,2,0,P|108:240|80:188,1,110,0|8,0:0|0:0,0:0:0:0:
128,80,46475,6,0,P|68:72|8:96,2,110,4|0|8,0:0|0:0|0:0,0:0:0:0:
232,132,47600,1,0,0:0:0:0:
292,156,47787,2,0,P|352:164|400:144,2,110,8|0|0,0:0|0:0|0:0,0:0:0:0:
184,128,48912,2,0,P|152:132|132:144,1,55,0|8,0:0|0:0,0:0:0:0:
68,248,49475,6,0,P|118:267|173:258,1,110,4|0,0:0|0:0,0:0:0:0:
280,204,50225,2,0,P|333:194|384:214,1,110,8|0,0:0|0:0,0:0:0:0:
428,256,50787,2,0,P|392:328|304:324,2,165,8|0|8,0:0|0:0|3:0,0:0:0:0:
372,80,52475,5,4,0:0:0:0:
252,56,52850,1,0,0:0:0:0:
136,92,53225,2,0,P|100:148|104:204,1,110,8|0,0:0|0:0,0:0:0:0:
140,304,53975,1,0,0:0:0:0:
256,340,54350,1,0,0:0:0:0:
372,308,54725,2,0,P|408:252|404:196,1,110,8|0,0:0|0:0,0:0:0:0:
296,164,55475,6,0,P|260:220|264:276,2,110,0|0|8,0:0|0:0|0:0,0:0:0:0:
392,90,56600,1,0,0:0:0:0:
280,44,56975,2,0,P|184:40|116:60,1,165,12|4,0:0|3:0,0:0:0:0:
64,84,57725,2,0,L|48:200,1,110,0|8,0:0|3:0,0:0:0:0:
96,304,58475,6,0,P|200:336|312:316,1,220,4|8,0:0|0:0,0:0:0:0:
416,264,59600,1,0,0:0:0:0:
460,224,59787,2,0,P|484:160|464:60,2,165,8|0|0,0:0|0:0|0:0,0:0:0:0:
416,264,61100,1,8,0:0:0:0:
340,172,61475,6,0,L|320:64,1,110,4|0,0:0|0:0,0:0:0:0:
200,56,62225,2,0,L|218:164,1,110,8|0,0:0|0:0,0:0:0:0:
96,152,62975,2,0,L|77:43,2,110,0|0|0,0:0|0:0|0:0,0:0:0:0:
144,264,64100,1,8,3:0:0:0:
260,288,64475,6,0,P|292:284|316:272,3,55,4|0|0|0,0:0|0:0|0:0|0:0,0:0:0:0:
360,236,65225,2,0,P|383:184|356:129,1,110,8|0,0:0|0:0,0:0:0:0:
252,96,65975,6,0,P|220:100|196:112,3,55,0|0|0|0,0:0|0:0|0:0|0:0,0:0:0:0:
152,148,66725,2,0,P|128:199|155:254,1,110,8|0,0:0|0:0,0:0:0:0:
256,296,67475,6,0,P|316:284|360:236,2,110,4|0|8,0:0|0:0|0:0,0:0:0:0:
147,247,68600,1,0,0:0:0:0:
56,168,68975,2,0,P|37:193|29:234,2,55,0|0|0,0:0|0:0|0:0,0:0:0:0:
96,124,69537,2,0,P|148:60|241:55,1,165,4|8,3:0|3:0,0:0:0:0:
348,44,70475,6,0,P|311:139|199:169,1,220,4|8,0:0|0:0,0:0:0:0:
96,124,71600,1,0,0:0:0:0:
96,124,71787,2,0,L|68:236,1,110,8|0,0:0|0:0,0:0:0:0:
164,308,72537,2,0,L|190:201,1,110,0|0,0:0|0:0,0:0:0:0:
190,201,73100,1,8,0:0:0:0:
252,96,73475,6,0,L|356:60,1,110,4|0,0:0|0:0,0:0:0:0:
444,144,74225,2,0,L|340:180,1,110,8|0,0:0|0:0,0:0:0:0:
224,212,74975,2,0,P|162:196|126:148,2,110,0|0|0,0:0|0:0|0:0,0:0:0:0:
340,180,76100,1,8,0:0:0:0:
256,192,76475,12,0,79475,0:0:0:0:
288,72,88475,6,0,P|200:56|128:84,2,165,0|0|0,0:0|0:0|0:0,0:0:0:0:
396,124,89975,2,0,P|360:172|308:192,1,110,2|2,0:0|0:0,0:0:0:0:
196,192,90725,2,0,P|146:214|115:259,1,110,8|2,0:0|0:0,0:0:0:0:
224,312,91475,6,0,P|312:328|384:300,2,165,0|0|0,0:0|0:0|0:0,0:0:0:0:
116,260,92975,2,0,P|152:212|204:192,1,110,2|2,0:0|0:0,0:0:0:0:
316,192,93725,2,0,P|365:169|396:124,1,110,8|2,0:0|0:0,0:0:0:0:
288,72,94475,6,0,P|208:52|148:104,1,165,0|0,0:0|0:0,0:0:0:0:
184,280,95600,2,0,P|122:329|45:309,2,165,0|0|8,0:0|0:0|0:0,0:0:0:0:
256,184,97100,1,2,0:0:0:0:
328,280,97475,2,0,P|389:329|466:309,2,165,0|0|0,0:0|0:0|0:0,0:0:0:0:
256,184,98975,5,8,0:0:0:0:
200,60,100475,6,0,P|134:146|164:248,1,220,4|8,0:0|0:0,0:0:0:0:
276,284,101600,1,0,0:0:0:0:
336,268,101787,2,0,P|390:266|441:292,2,110,8|0|0,0:0|0:0|0:0,0:0:0:0:
220,296,102912,2,0,P|191:296|160:281,1,55,0|8,0:0|0:0,0:0:0:0:
96,188,103475,6,0,P|144:168|204:172,1,110,4|0,0:0|0:0,0:0:0:0:
316,212,104225,2,0,P|370:215|421:195,1,110,8|0,0:0|0:0,0:0:0:0:
432,136,104787,2,0,P|384:68|304:56,1,165,8|0,0:0|0:0,0:0:0:0:
192,88,105725,2,0,P|188:68|192:28,2,55,0|8|8,0:0|3:0|3:0,0:0:0:0:
256,192,106475,5,4,0:0:0:0:
368,248,106850,1,0,0:0:0:0:
456,164,107225,2,0,P|416:132|348:128,1,110,12|0,0:0|0:0,0:0:0:0:
256,192,107975,1,0,0:0:0:0:
144,248,108350,1,0,0:0:0:0:
56,164,108725,2,0,P|96:132|164:128,1,110,8|0,0:0|0:0,0:0:0:0:
256,192,109475,6,0,L|256:316,2,110,0|0|8,0:0|0:0|0:0,0:0:0:0:
256,72,110600,1,0,0:0:0:0:
136,96,110975,2,0,P|156:152|200:180,1,110,8|0,0:0|0:0,0:0:0:0:
256,192,111537,2,0,P|296:224|288:328,1,165,4|8,3:0|3:0,0:0:0:0:
396,276,112475,6,0,P|440:244|464:188,1,110,4|0,0:0|0:0,0:0:0:0:
408,84,113225,2,0,P|364:116|340:172,1,110,8|0,0:0|0:0,0:0:0:0:
324,224,113787,2,0,P|301:273|257:305,2,110,8|0|0,0:0|0:0|0:0,0:0:0:0:
288,108,114912,2,0,P|264:96|224:96,1,55,0|8,0:0|0:0,0:0:0:0:
116,108,115475,6,0,P|72:140|48:196,1,110,0|0,0:0|0:0,0:0:0:0:
104,300,116225,2,0,P|152:264|172:220,1,110,8|0,0:0|0:0,0:0:0:0:
188,160,116787,2,0,P|210:110|254:78,2,110,8|0|4,0:0|0:0|3:0,0:0:0:0:
200,220,117725,2,0,P|228:268|276:288,1,110,0|8,0:0|3:0,0:0:0:0:
396,280,118475,6,0,P|423:282|447:294,2,55,4|0|0,0:0|0:0|0:0,0:0:0:0:
276,288,119225,2,0,P|284:232|328:184,1,110,8|0,0:0|0:0,0:0:0:0:
420,128,119975,2,0,P|437:107|446:81,2,55,0|0|0,0:0|0:0|0:0,0:0:0:0:
328,48,120725,2,0,P|271:41|214:71,1,110,8|0,0:0|0:0,0:0:0:0:
112,104,121475,5,4,0:0:0:0:
68,216,121850,1,0,0:0:0:0:
160,292,122225,1,8,0:0:0:0:
204,180,122600,1,0,0:0:0:0:
224,62,122975,2,0,P|274:40|328:48,1,110,0|0,0:0|0:0,0:0:0:0:
380,76,123537,2,0,L|348:240,1,165,6|8,3:0|3:0,0:0:0:0:
264,328,124475,6,0,P|156:336|72:268,1,220,4|8,0:0|0:0,0:0:0:0:
60,148,125600,1,0,0:0:0:0:
144,60,125975,2,0,P|192:44|248:56,1,110,0|0,0:0|0:0,0:0:0:0:
308,164,126725,2,0,P|260:180|204:168,1,110,0|8,0:0|0:0,0:0:0:0:
248,56,127475,6,0,P|356:48|440:116,1,220,4|8,0:0|0:0,0:0:0:0:
348,192,128600,1,0,0:0:0:0:
439,269,128975,2,0,P|355:336|248:328,1,220,0|0,0:0|0:0,0:0:0:0:
148,260,130100,1,8,0:0:0:0:
96,148,130475,6,0,P|68:160|40:156,2,55,4|0|0,0:0|0:0|0:0,0:0:0:0:
204,88,131225,2,0,P|256:72|308:88,1,110,8|0,0:0|0:0,0:0:0:0:
416,144,131975,2,0,P|440:132|467:134,2,55,0|0|0,0:0|0:0|0:0,0:0:0:0:
308,203,132725,2,0,P|256:218|204:203,1,110,8|0,0:0|0:0,0:0:0:0:
204,88,133475,6,0,P|256:72|308:88,2,110,4|0|8,0:0|0:0|0:0,0:0:0:0:
152,196,134600,2,0,L|144:252,1,55,0|8,0:0|0:0,0:0:0:0:
180,300,134975,2,0,P|256:328|332:300,2,165,8|14|8,3:0|3:0|3:0,0:0:0:0:
76,240,136475,5,4,0:0:0:0:
60,120,136850,1,0,0:0:0:0:
160,56,137225,2,0,P|227:107|306:111,1,165,8|0,0:0|0:0,0:0:0:0:
360,88,137975,2,0,P|408:81|470:107,1,110,0|0,0:0|0:0,0:0:0:0:
397,205,138725,2,0,L|383:259,2,55,0|0|8,0:0|0:0|0:0,0:0:0:0:
360,88,139475,6,0,P|309:67|255:73,1,110,4|0,0:0|0:0,0:0:0:0:
156,144,140225,1,8,0:0:0:0:
240,228,140600,2,0,P|223:266|225:288,2,55,0|8|0,0:0|0:0|0:0,0:0:0:0:
356,192,141350,2,0,P|360:252|332:308,2,110,0|0|8,0:0|0:0|0:0,0:0:0:0:
308,72,142475,6,0,P|256:56|204:72,1,110,12|0,0:0|0:0,0:0:0:0:
104,140,143225,2,0,P|88:192|104:244,1,110,12|0,0:0|0:0,0:0:0:0:
204,312,143975,2,0,P|256:328|308:312,1,110,12|0,0:0|0:0,0:0:0:0:
408,244,144725,2,0,P|424:192|408:140,1,110,12|0,0:0|0:0,0:0:0:0:
288,120,145475,6,0,L|180:148,1,110,12|4,0:0|0:0,0:0:0:0:
216,264,146225,2,0,L|324:236,1,110,12|4,0:0|0:0,0:0:0:0:
412,152,146975,1,12,0:0:0:0:
316,80,147350,1,4,0:0:0:0:
196,80,147725,1,12,0:0:0:0:
100,152,148100,1,4,0:0:0:0:
180,248,148475,6,0,P|256:276|332:248,2,165,4|4|4,0:0|0:0|0:0,0:0:0:0:
196,128,149975,2,0,P|140:132|88:172,2,110,2|2|10,0:0|0:0|0:0,0:0:0:0:
316,128,151100,1,2,0:0:0:0:
332,248,151475,6,0,P|256:276|180:248,2,165,4|4|4,0:0|0:0|0:0,0:0:0:0:
316,128,152975,2,0,P|372:132|424:172,2,110,2|2|10,0:0|0:0|0:0,0:0:0:0:
196,128,154100,1,2,0:0:0:0:
76,124,154475,6,0,P|100:204|172:248,1,165,4|4,0:0|0:0,0:0:0:0:
346,246,155600,2,0,P|413:201|436:124,1,165,4|0,0:0|0:0,0:0:0:0:
380,96,156350,1,0,0:0:0:0:
256,108,156725,1,10,0:0:0:0:
152,172,157100,1,2,0:0:0:0:
180,288,157475,6,0,P|256:316|332:288,2,165,4|4|4,0:0|0:0|0:0,0:0:0:0:
152,172,158975,1,8,0:0:0:0:
152,172,160475,6,0,P|196:148|256:152,1,110,4|4,0:0|0:0,0:0:0:0:
312,176,161037,2,0,P|400:184|460:140,1,165,0|4,0:0|0:0,0:0:0:0:
364,64,161975,1,4,0:0:0:0:
244,48,162350,1,4,0:0:0:0:
128,84,162725,1,12,0:0:0:0:
60,184,163100,1,4,0:0:0:0:
72,304,163475,6,0,P|122:290|160:247,1,110,4|4,0:0|0:0,0:0:0:0:
188,196,164037,2,0,P|256:152|336:164,1,165,0|4,0:0|0:0,0:0:0:0:
424,244,164975,2,0,P|379:275|320:278,2,110,4|4|12,0:0|0:0|0:0,0:0:0:0:
450,126,166100,1,4,0:0:0:0:
332,100,166475,6,0,P|256:72|180:100,1,165,4|0,0:0|0:0,0:0:0:0:
180,284,167600,2,0,P|256:312|332:284,1,165,4|0,0:0|0:0,0:0:0:0:
436,136,168725,1,12,0:0:0:0:
336,72,169100,1,4,0:0:0:0:
216,60,169475,6,0,P|128:88|76:136,2,165,4|0|4,0:0|0:0|0:0,0:0:0:0:
336,72,170975,2,0,L|436:136,1,110,6|4,0:0|0:0,0:0:0:0:
428,252,171725,2,0,L|336:312,1,110,12|4,0:0|0:0,0:0:0:0:
212,336,172475,6,0,P|180:292|180:232,1,110,4|4,0:0|0:0,0:0:0:0:
196,180,173037,2,0,P|188:92|132:44,1,165,0|4,0:0|0:0,0:0:0:0:
80,152,173975,1,4,0:0:0:0:
196,180,174350,1,4,0:0:0:0:
316,180,174725,1,12,0:0:0:0:
432,152,175100,1,4,0:0:0:0:
350,63,175475,6,0,P|297:53|248:80,1,110,4|4,0:0|0:0,0:0:0:0:
208,124,176037,2,0,P|129:165|59:144,1,165,0|4,0:0|0:0,0:0:0:0:
120,40,176975,1,4,0:0:0:0:
208,124,177350,1,4,0:0:0:0:
216,244,177725,1,12,0:0:0:0:
120,316,178100,1,4,0:0:0:0:
69,208,178475,6,0,P|97:128|169:96,1,165,4|0,0:0|0:0,0:0:0:0:
348,96,179600,2,0,P|420:131|445:208,2,165,4|0|12,0:0|0:0|0:0,0:0:0:0:
256,176,181100,1,4,0:0:0:0:
180,272,181475,6,0,P|256:300|332:272,2,165,4|0|4,0:0|0:0|0:0,0:0:0:0:
136,160,182975,2,0,L|200:60,1,110,4|4,0:0|0:0,0:0:0:0:
316,67,183725,2,0,L|375:159,1,110,2|4,3:0|0:0,0:0:0:0:
436,264,184475,6,0,P|381:328|300:337,2,165,2|2|0,0:0|0:0|0:0,0:0:0:0:
480,152,185975,2,0,P|420:144|364:168,1,110,2|2,0:0|0:0,0:0:0:0:
268,216,186725,2,0,P|208:224|152:200,1,110,8|2,0:0|0:0,0:0:0:0:
76,120,187475,6,0,P|130:55|211:46,2,165,0|0|0,0:0|0:0|0:0,0:0:0:0:
32,232,188975,2,0,P|92:240|148:216,1,110,2|2,0:0|0:0,0:0:0:0:
244,168,189725,2,0,P|304:160|360:184,1,110,10|2,0:0|0:0,0:0:0:0:
468,208,190475,6,0,P|436:268|344:296,1,165,0|0,0:0|0:0,0:0:0:0:
164,296,191600,2,0,P|86:276|44:208,1,165,0|0,0:0|0:0,0:0:0:0:
204,120,192725,2,0,P|256:104|308:120,1,110,8|2,0:0|0:0,0:0:0:0:
332,240,193475,6,0,P|256:268|180:240,2,165,0|0|0,0:0|0:0|0:0,0:0:0:0:
432,172,194975,2,0,P|445:194|451:231,2,55,2|2|2,0:0|0:0|0:0,0:0:0:0:
364,72,195725,2,0,P|386:59|432:56,2,55,8|0|2,0:0|0:0|0:0,0:0:0:0:
252,116,196475,6,0,P|168:116|96:76,2,165,0|0|0,0:0|0:0|0:0,0:0:0:0:
364,72,197975,2,0,P|416:88|448:132,1,110,2|2,0:0|0:0,0:0:0:0:
447,252,198725,2,0,P|415:296|364:312,1,110,8|2,0:0|0:0,0:0:0:0:
256,260,199475,5,0,0:0:0:0:
256,80,200037,1,0,0:0:0:0:
108,184,200600,6,0,B|272:228|240:108|428:152,1,330,0|8,0:0|0:0,0:0:0:0:
256,324,202475,6,0,P|176:332|112:280,1,165,0|0,0:0|0:0,0:0:0:0:
112,102,203600,2,0,P|175:52|256:60,1,165,0|0,0:0|0:0,0:0:0:0:
424,132,204725,1,8,0:0:0:0:
440,252,205100,1,2,0:0:0:0:
332,308,205475,6,0,P|256:336|180:308,2,165,0|0|0,0:0|0:0|0:0,0:0:0:0:
344,188,206975,2,0,P|316:136|268:112,1,110,2|2,0:0|0:0,0:0:0:0:
168,172,207725,2,0,P|196:224|244:248,1,110,8|2,0:0|0:0,0:0:0:0:
344,308,208475,6,0,P|428:272|460:204,2,165,4|0|0,0:0|0:0|0:0,0:0:0:0:
240,248,209975,2,0,P|232:264|228:308,2,55,2|2|2,0:0|0:0|0:0,0:0:0:0:
272,132,210725,2,0,P|283:105|283:73,2,55,8|0|2,0:0|0:0|0:0,0:0:0:0:
164,80,211475,6,0,P|80:80|24:132,2,165
272,132,212975,2,0,P|324:128|364:84,2,110,2|2|8,0:0|0:0|0:0,0:0:0:0:
164,80,214100,1,2,0:0:0:0:
92,176,214475,6,0,P|96:264|144:320,1,165
324,328,215600,6,0,P|396:276|416:204,1,165
316,56,216725,1,8,0:0:0:0:
196,56,217100,1,2,0:0:0:0:
180,176,217475,6,0,P|256:204|332:176,2,165,0|0|0,0:0|0:0|0:0,0:0:0:0:
84,102,218975,1,2,0:0:0:0:
196,56,219350,1,2,0:0:0:0:
316,56,219725,1,8,0:0:0:0:
428,102,220100,1,2,0:0:0:0:
452,220,220475,6,0,P|428:300|356:328,2,165,0|0|0,0:0|0:0|0:0,0:0:0:0:
428,102,221975,2,0,P|380:126|324:122,1,110,2|2,0:0|0:0,0:0:0:0:
208,92,222725,2,0,P|152:88|104:112,1,110,8|2,0:0|0:0,0:0:0:0:
52,220,223475,6,0,P|76:300|148:328,2,165,0|0|0,0:0|0:0|0:0,0:0:0:0:
84,102,224975,2,0,P|132:126|188:122,1,110,2|2,0:0|0:0,0:0:0:0:
304,92,225725,2,0,P|360:88|408:112,1,110,8|2,0:0|0:0,0:0:0:0:
372,228,226475,6,0,P|320:292|240:300,1,165,0|0,0:0|0:0,0:0:0:0:
140,152,227600,2,0,P|192:88|272:80,1,165,0|0,0:0|0:0,0:0:0:0:
372,228,228725,1,8,0:0:0:0:
256,192,229100,1,2,0:0:0:0:
140,228,229475,6,0,P|192:292|272:300,1,165,0|2,0:0|0:0,0:0:0:0:
256,192,230600,12,0,233975,0:0:0:0:
