osu file format v14

[General]
AudioFilename: SOADAERIALS.mp3
AudioLeadIn: 0
PreviewTime: 34475
Countdown: 0
SampleSet: Soft
StackLeniency: 0.7
Mode: 0
LetterboxInBreaks: 0
WidescreenStoryboard: 0

[Editor]
Bookmarks: 79800,87535
DistanceSpacing: 1.1
BeatDivisor: 4
GridSize: 4
TimelineZoom: 0.7999998

[Metadata]
Title:Aerials
TitleUnicode:Aerials
Artist:System Of A Down
ArtistUnicode:System Of A Down
Creator:Alarido
Version:Hard
Source:
Tags:SOAD Alternative Metal Toxicity VEVO Daron Malakian Serj Tankian Shavo Odadjian John Dolmayan Danizudo Killuminati
BeatmapID:341410
BeatmapSetID:136425

[Difficulty]
HPDrainRate:6
CircleSize:4
OverallDifficulty:5
ApproachRate:7
SliderMultiplier:2.8
SliderTickRate:2

[Events]
//Background and Video events
0,0,"soadaerials.png",0,0
Video,-6805,"soadaerials.avi"
//Break Periods
2,80975,87575
//Storyboard Layer 0 (Background)
//Storyboard Layer 1 (Fail)
//Storyboard Layer 2 (Pass)
//Storyboard Layer 3 (Foreground)
//Storyboard Sound Samples

[TimingPoints]
31475,750,4,1,1,45,1,0
32600,-100,4,3,2,50,0,0
32975,-100,4,3,2,60,0,0
33350,-100,4,3,2,70,0,0
33725,-100,4,3,2,80,0,0
34100,-100,4,3,2,90,0,0
34475,-100,4,1,1,90,0,0
41225,-133.333333333333,4,1,1,90,0,0
41787,-100,4,1,1,90,0,0
42725,-133.333333333333,4,1,1,90,0,0
43287,-100,4,1,1,90,0,0
44225,-133.333333333333,4,1,1,90,0,0
44787,-100,4,1,1,90,0,0
53225,-133.333333333333,4,1,1,90,0,0
53787,-100,4,1,1,90,0,0
54725,-133.333333333333,4,1,1,90,0,0
55287,-100,4,1,1,90,0,0
56225,-133.333333333333,4,1,1,90,0,0
56787,-100,4,1,1,90,0,0
65225,-133.333333333333,4,1,1,90,0,0
65787,-100,4,1,1,90,0,0
66725,-133.333333333333,4,1,1,90,0,0
67287,-100,4,1,1,90,0,0
68225,-133.333333333333,4,1,1,90,0,0
68787,-100,4,1,1,90,0,0
88475,-133.333333333333,4,2,1,50,0,0
98975,-100,4,1,1,70,0,0
100475,-100,4,1,1,90,0,0
107225,-133.333333333333,4,1,1,90,0,0
107787,-100,4,1,1,90,0,0
108725,-133.333333333333,4,1,1,90,0,0
109287,-100,4,1,1,90,0,0
110225,-133.333333333333,4,1,1,90,0,0
110787,-100,4,1,1,90,0,0
119225,-133.333333333333,4,1,1,90,0,0
119787,-100,4,1,1,90,0,0
120725,-133.333333333333,4,1,1,90,0,0
121287,-100,4,1,1,90,0,0
122225,-133.333333333333,4,1,1,90,0,0
122787,-100,4,1,1,90,0,0
131225,-133.333333333333,4,1,1,90,0,0
131787,-100,4,1,1,90,0,0
132725,-133.333333333333,4,1,1,90,0,0
133287,-100,4,1,1,90,0,0
134225,-133.333333333333,4,1,1,90,0,0
134787,-100,4,1,1,90,0,0
148475,-133.333333333333,4,1,1,90,0,0
160475,-100,4,1,1,90,0,1
184475,-133.333333333333,4,2,1,70,0,0
233975,-100,4,2,0,10,0,0

[Colours]
Combo1 : 184,201,182
Combo2 : 189,176,164
Combo3 : 181,190,193
Combo4 : 132,130,147
Combo5 : 49,83,111
Combo6 : 206,184,179

[HitObjects]
156,44,31475,6,0,L|116:108,3,70,0|0|0|0,0:0|0:0|0:0|0:0,0:0:0:0:
144,176,32225,2,0,L|127:249,3,70,0|0|0|0,0:0|0:0|3:0|3:0,0:0:0:0:
172,308,32975,2,0,L|254:305,1,70,2|0,0:0|0:0,0:0:0:0:
310,272,33350,2,0,L|386:239,1,70,8|8,0:0|0:0,0:0:0:0:
433,195,33725,1,10,0:0:0:0:
384,136,33912,1,10,0:0:0:0:
311,112,34100,1,14,0:0:0:0:
237,133,34287,1,14,0:0:0:0:
210,205,34475,6,0,P|248:272|308:304,1,140,4|4,0:0|0:0,0:0:0:0:
348,156,35225,2,0,P|310:89|250:57,1,140,8|0,0:0|0:0,0:0:0:0:
180,56,35787,2,0,L|88:164,1,140,8|0,0:0|0:0,0:0:0:0:
72,244,36350,1,0,0:0:0:0:
120,312,36537,2,0,L|212:204,1,140,0|0,0:0|0:0,0:0:0:0:
260,144,37100,1,8,0:0:0:0:
260,144,37287,1,0,0:0:0:0:
260,144,37475,6,0,P|236:72|180:56,1,140,0|0,0:0|0:0,0:0:0:0:
52,140,38225,2,0,P|76:212|132:228,1,140,8|0,0:0|0:0,0:0:0:0:
132,227,38787,1,8,0:0:0:0:
220,100,39162,2,0,L|268:44,1,70,0|0,0:0|0:0,0:0:0:0:
352,64,39537,2,0,L|304:116,1,70,4|0,3:0|0:0,0:0:0:0:
388,136,39912,2,0,L|436:80,2,70,8|8|0,3:0|3:0|0:0,0:0:0:0:
300,184,40475,6,0,L|226:205,1,70,4|0,0:0|0:0,0:0:0:0:
304,260,40850,2,0,L|381:238,1,70,0|0,0:0|0:0,0:0:0:0:
388,136,41225,2,0,P|328:88|248:96,1,157.500006008148,8|0,0:0|0:0,0:0:0:0:
212,192,41975,2,0,L|189:264,1,70,0|0,0:0|0:0,0:0:0:0:
280,226,42350,2,0,L|302:153,1,70,0|0,0:0|0:0,0:0:0:0:
320,56,42725,2,0,P|240:48|176:88,1,157.500006008148,8|0,0:0|0:0,0:0:0:0:
128,172,43475,5,0,0:0:0:0:
128,172,43662,1,0,0:0:0:0:
128,172,43850,1,0,0:0:0:0:
128,172,44037,1,0,0:0:0:0:
128,172,44225,2,0,P|160:236|236:272,1,157.500006008148,8|8,0:0|0:0,0:0:0:0:
348,264,44975,2,0,P|348:304|328:336,2,70,8|8|8,3:0|3:0|3:0,0:0:0:0:
324,192,45537,2,0,P|316:124|356:68,1,140,4|8,3:0|3:0,0:0:0:0:
356,68,46100,1,8,3:0:0:0:
176,196,46475,6,0,P|126:251|62:263,1,140,4|0,0:0|0:0,0:0:0:0:
48,112,47225,2,0,P|97:56|161:44,1,140,8|0,0:0|0:0,0:0:0:0:
232,68,47787,2,0,L|244:144,1,70,8|0,0:0|0:0,0:0:0:0:
320,148,48162,2,0,L|308:72,1,70,0|0,0:0|0:0,0:0:0:0:
386,89,48537,2,0,L|400:176,1,70,0|0,0:0|0:0,0:0:0:0:
412,232,48912,2,0,L|426:319,2,70,0|8|0,0:0|0:0|0:0,0:0:0:0:
348,272,49475,6,0,P|288:296|204:280,1,140,0|0,0:0|0:0,0:0:0:0:
132,156,50225,2,0,P|192:132|272:148,1,140,8|0,0:0|0:0,0:0:0:0:
332,180,50787,1,8,0:0:0:0:
396,140,50975,2,0,L|464:120,1,70,0|0,0:0|0:0,0:0:0:0:
436,48,51350,2,0,L|367:67,1,70,0|4,0:0|3:0,0:0:0:0:
292,72,51725,1,0,0:0:0:0:
224,108,51912,1,8,3:0:0:0:
192,180,52100,1,8,3:0:0:0:
196,256,52287,1,0,3:0:0:0:
308,260,52475,6,0,L|359:211,1,70,4|0,0:0|0:0,0:0:0:0:
378,96,52850,2,0,L|326:144,1,70,0|0,0:0|0:0,0:0:0:0:
308,260,53225,2,0,P|404:236|440:176,1,157.500006008148,8|0,0:0|0:0,0:0:0:0:
378,96,53975,2,0,L|309:112,3,70,0|0|0|0,0:0|0:0|0:0|0:0,0:0:0:0:
204,124,54725,2,0,P|108:148|72:208,1,157.500006008148,8|0,0:0|0:0,0:0:0:0:
148,276,55475,5,0,0:0:0:0:
167,265,55662,1,0,0:0:0:0:
186,255,55850,1,0,0:0:0:0:
205,245,56037,1,0,0:0:0:0:
224,235,56225,2,0,P|323:220|376:267,1,157.500006008148,12|0,0:0|0:0,0:0:0:0:
282,330,56975,2,0,L|290:256,1,70,8|0,0:0|0:0,0:0:0:0:
299,183,57350,1,0,0:0:0:0:
307,106,57537,1,4,3:0:0:0:
236,136,57725,1,0,0:0:0:0:
168,172,57912,2,0,L|159:245,1,70,8|8,3:0|3:0,0:0:0:0:
282,330,58475,6,0,P|352:328|440:216,1,210,4|0,0:0|0:0,0:0:0:0:
420,152,59225,2,0,L|500:136,2,70,8|0|0,0:0|0:0|0:0,0:0:0:0:
360,100,59787,2,0,L|292:116,1,70,8|0,0:0|0:0,0:0:0:0:
155,89,60162,2,0,L|224:76,1,70,0|0,0:0|0:0,0:0:0:0:
292,116,60537,2,0,L|280:192,1,70,0|0,0:0|0:0,0:0:0:0:
224,76,60912,2,0,L|236:7,2,70,0|8|0,0:0|0:0|0:0,0:0:0:0:
208,152,61475,6,0,P|172:212|108:232,1,140,4|0,0:0|0:0,0:0:0:0:
32,216,62037,1,0,0:0:0:0:
52,140,62225,2,0,P|120:68|224:76,1,210,8|8,0:0|0:0,0:0:0:0:
280,128,62975,2,0,L|348:112,1,70,0|0,0:0|0:0,0:0:0:0:
424,92,63350,2,0,L|444:25,2,70,0|4|0,0:0|3:0|0:0,0:0:0:0:
404,164,63912,2,0,L|383:230,2,70,8|8|0,3:0|3:0|3:0,0:0:0:0:
312,96,64475,5,4,0:0:0:0:
292,93,64662,1,0,0:0:0:0:
272,91,64850,1,0,0:0:0:0:
252,88,65037,1,0,0:0:0:0:
232,86,65225,2,0,P|157:101|126:174,1,157.500006008148,8|0,0:0|0:0,0:0:0:0:
196,260,65975,1,0,0:0:0:0:
216,262,66162,1,0,0:0:0:0:
236,265,66350,1,0,0:0:0:0:
256,267,66537,1,0,0:0:0:0:
270,268,66725,2,0,P|344:252|375:179,1,157.500006008148,8|0,0:0|0:0,0:0:0:0:
396,72,67475,6,0,L|324:84,1,70,4|0,0:0|0:0,0:0:0:0:
192,56,67850,2,0,L|261:44,1,70,0|0,0:0|0:0,0:0:0:0:
327,83,68225,2,0,P|312:156|240:188,1,157.500006008148,8|8,0:0|0:0,0:0:0:0:
132,212,68975,1,0,0:0:0:0:
68,168,69162,2,0,P|24:136|24:48,1,140,0|4,0:0|3:0,0:0:0:0:
88,92,69725,1,0,0:0:0:0:
164,80,69912,1,8,3:0:0:0:
228,36,70100,1,8,3:0:0:0:
192,260,70475,6,0,P|296:248|356:164,1,210,4|0,0:0|0:0,0:0:0:0:
348,92,71225,2,0,P|296:88|228:36,1,140,8|0,0:0|0:0,0:0:0:0:
228,36,71787,1,8,0:0:0:0:
76,60,72162,1,0,0:0:0:0:
76,60,72350,1,0,0:0:0:0:
76,60,72537,2,0,P|109:99|121:184,1,140,0|0,0:0|0:0,0:0:0:0:
121,184,73100,1,8,0:0:0:0:
64,328,73475,6,0,P|130:347|210:307,1,140,4|0,0:0|0:0,0:0:0:0:
256,276,74037,1,0,0:0:0:0:
316,228,74225,2,0,P|380:204|440:244,1,140,8|0,0:0|0:0,0:0:0:0:
372,284,74787,2,0,L|384:140,1,140,8|0,0:0|0:0,0:0:0:0:
356,72,75350,2,0,P|328:96|296:104,1,70,0|0,0:0|0:0,0:0:0:0:
215,103,75725,2,0,P|182:94|156:72,1,70,0|0,0:0|0:0,0:0:0:0:
128,144,76100,2,0,P|139:213|191:266,1,140,8|12,0:0|3:0,0:0:0:0:
256,192,76662,12,0,79475,0:0:0:0:
416,264,88475,6,0,P|344:264|316:248,1,105.000004005432,0|2,0:0|0:0,0:0:0:0:
268,220,89037,2,0,P|220:199|168:204,1,105.000004005432,2|2,0:0|0:0,0:0:0:0:
116,224,89600,2,0,P|111:277|73:328,2,105.000004005432,8|2|2,0:0|0:0|0:0,0:0:0:0:
80,116,90725,1,8,0:0:0:0:
116,224,91100,1,2,0:0:0:0:
80,116,91475,6,0,P|152:116|180:132,1,105.000004005432,0|2,0:0|0:0,0:0:0:0:
228,160,92037,2,0,P|275:180|327:175,1,105.000004005432,2|0,0:0|0:0,0:0:0:0:
384,160,92600,2,0,P|388:106|426:55,2,105.000004005432,0|2|2,0:0|0:0|0:0,0:0:0:0:
420,268,93725,1,8,0:0:0:0:
384,160,94100,1,2,0:0:0:0:
304,244,94475,6,0,P|258:260|195:247,1,105.000004005432,0|2,0:0|0:0,0:0:0:0:
156,220,95037,2,0,L|176:112,1,105.000004005432,2|2,0:0|0:0,0:0:0:0:
168,60,95600,2,0,P|85:52|24:96,2,157.500006008148,0|0|8,0:0|0:0|0:0,0:0:0:0:
256,136,97100,1,2,0:0:0:0:
344,212,97475,2,0,P|426:219|488:176,2,157.500006008148,0|0|2,0:0|0:0|0:0,0:0:0:0:
392,104,98975,5,8,0:0:0:0:
256,136,99350,1,8,3:0:0:0:
193,183,99537,1,2,3:0:0:0:
219,255,99725,1,8,3:0:0:0:
296,254,99912,1,8,3:0:0:0:
318,180,100100,1,8,0:0:0:0:
256,44,100475,6,0,L|116:68,1,140,4|0,0:0|0:0,0:0:0:0:
180,204,101225,2,0,L|320:180,1,140,8|0,0:0|0:0,0:0:0:0:
392,164,101787,2,0,P|436:112|440:36,2,140,8|0|0,0:0|0:0|0:0,0:0:0:0:
292,48,102912,1,0,0:0:0:0:
240,104,103100,2,0,L|188:156,1,70,8|0,0:0|0:0,0:0:0:0:
136,208,103475,6,0,P|106:269|122:344,1,140,0|0,0:0|0:0,0:0:0:0:
268,296,104225,2,0,P|297:234|281:159,1,140,8|0,0:0|0:0,0:0:0:0:
240,104,104787,2,0,L|170:111,1,70,8|0,0:0|0:0,0:0:0:0:
104,156,105162,2,0,L|75:220,2,70,0|0|4,0:0|0:0|3:0,0:0:0:0:
100,76,105725,2,0,L|58:19,1,70,0|8,0:0|3:0,0:0:0:0:
170,111,106100,2,0,L|240:104,1,70,8|0,3:0|3:0,0:0:0:0:
352,92,106475,6,0,L|340:164,3,70,4|0|0|0,0:0|0:0|0:0|0:0,0:0:0:0:
324,236,107225,2,0,P|276:300|200:312,1,157.500006008148,8|0,0:0|0:0,0:0:0:0:
132,284,107975,2,0,L|144:212,3,70,0|0|0|0,0:0|0:0|0:0|0:0,0:0:0:0:
156,140,108725,2,0,P|204:76|280:64,1,157.500006008148,8|0,0:0|0:0,0:0:0:0:
352,80,109475,6,0,L|340:152,1,70,0|0,0:0|0:0,0:0:0:0:
396,204,109850,2,0,L|384:276,1,70,0|0,0:0|0:0,0:0:0:0:
308,284,110225,2,0,P|208:312|156:300,1,157.500006008148,8|0,0:0|0:0,0:0:0:0:
88,264,110975,2,0,L|96:192,1,70,8|0,0:0|0:0,0:0:0:0:
76,120,111350,1,0,0:0:0:0:
152,140,111537,1,4,3:0:0:0:
228,136,111725,2,0,P|296:96|316:40,1,140,0|8,0:0|3:0,0:0:0:0:
316,184,112475,6,0,P|316:254|360:310,1,140,4|0,0:0|0:0,0:0:0:0:
432,284,113037,1,0,0:0:0:0:
452,208,113225,2,0,P|452:138|408:82,1,140,8|0,0:0|0:0,0:0:0:0:
336,64,113787,2,0,P|272:92|200:80,1,140,8|0,0:0|0:0,0:0:0:0:
140,40,114350,1,0,0:0:0:0:
96,188,114725,2,0,L|76:256,1,70,0|0,0:0|0:0,0:0:0:0:
52,328,115100,1,8,0:0:0:0:
164,224,115475,6,0,P|228:196|296:208,1,140,0|0,0:0|0:0,0:0:0:0:
440,264,116225,2,0,P|376:292|304:284,1,140,8|0,0:0|0:0,0:0:0:0:
296,208,116787,2,0,L|344:68,1,140,8|0,0:0|0:0,0:0:0:0:
341,75,117350,1,0,0:0:0:0:
272,44,117537,2,0,L|204:60,1,70,4|0,3:0|0:0,0:0:0:0:
128,48,117912,2,0,L|107:114,1,70,8|8,3:0|3:0,0:0:0:0:
68,324,118475,6,0,L|88:257,1,70,4|0,0:0|0:0,0:0:0:0:
156,220,118850,2,0,L|176:153,1,70,0|0,0:0|0:0,0:0:0:0:
212,80,119225,2,0,P|256:60|364:60,1,157.500006008148,8|0,0:0|0:0,0:0:0:0:
444,60,119975,2,0,L|423:126,1,70,0|0,0:0|0:0,0:0:0:0:
356,164,120350,2,0,L|335:230,1,70,0|0,0:0|0:0,0:0:0:0:
300,304,120725,2,0,P|256:324|148:324,1,157.500006008148,8|0,0:0|0:0,0:0:0:0:
92,272,121475,6,0,L|108:200,3,70,4|0|0|0,0:0|0:0|0:0|0:0,0:0:0:0:
132,128,122225,2,0,P|180:104|280:116,1,157.500006008148,8|8,0:0|0:0,0:0:0:0:
352,148,122975,2,0,P|384:152|424:136,2,70,8|8|8,3:0|3:0|3:0,0:0:0:0:
280,116,123537,1,4,3:0:0:0:
248,188,123725,2,0,P|228:257|174:293,1,140,0|8,0:0|3:0,0:0:0:0:
96,156,124475,6,0,P|122:88|180:56,1,140,4|0,0:0|0:0,0:0:0:0:
333,56,125225,2,0,P|392:91|416:156,1,140,8|0,0:0|0:0,0:0:0:0:
416,232,125787,2,0,P|392:296|333:331,2,140,8|0|0,0:0|0:0|0:0,0:0:0:0:
280,160,126912,2,0,P|272:192|280:228,1,70,0|8,0:0|0:0,0:0:0:0:
416,156,127475,6,0,P|389:88|332:56,1,140,0|0,0:0|0:0,0:0:0:0:
178,56,128225,2,0,P|119:91|96:156,1,140,8|0,0:0|0:0,0:0:0:0:
96,232,128787,2,0,P|119:296|178:331,2,140,8|0|4,0:0|0:0|3:0,0:0:0:0:
232,160,129912,2,0,P|240:192|232:228,1,70,8|10,3:0|0:0,0:0:0:0:
96,152,130475,6,0,L|108:84,1,70,4|0,0:0|0:0,0:0:0:0:
192,44,130850,2,0,L|180:112,1,70,0|0,0:0|0:0,0:0:0:0:
268,68,131225,2,0,B|360:52|408:124,1,157.500006008148,8|0,0:0|0:0,0:0:0:0:
416,232,131975,2,0,L|404:300,1,70,0|0,0:0|0:0,0:0:0:0:
320,340,132351,2,0,L|332:272,1,70,0|0,0:0|0:0,0:0:0:0:
244,316,132725,2,0,B|152:332|104:260,1,157.500006008148,8|0,0:0|0:0,0:0:0:0:
38,169,133475,6,0,P|69:152|104:152,3,70,4|0|0|0,0:0|0:0|0:0|0:0,0:0:0:0:
180,176,134225,2,0,P|248:192|328:148,1,157.500006008148,8|8,0:0|0:0,0:0:0:0:
240,80,134975,2,0,L|172:92,2,70,0|0|0,0:0|0:0|0:0,0:0:0:0:
316,68,135538,1,4,3:0:0:0:
390,89,135726,2,0,P|408:116|408:156,1,70,0|8,0:0|3:0,0:0:0:0:
392,228,136100,2,0,L|376:296,1,70,8|0,3:0|3:0,0:0:0:0:
276,312,136475,6,0,P|204:340|140:324,1,140,4|0,0:0|0:0,0:0:0:0:
88,184,137225,2,0,P|160:156|224:172,1,140,8|0,0:0|0:0,0:0:0:0:
292,200,137787,2,0,P|359:212|423:185,2,140,8|0|0,0:0|0:0|0:0,0:0:0:0:
188,84,138912,2,0,P|216:56|256:48,2,70,0|8|0,0:0|0:0|0:0,0:0:0:0:
172,160,139475,6,0,P|122:205|49:204,1,140,4|0,0:0|0:0,0:0:0:0:
172,300,140225,2,0,P|221:254|294:255,1,140,8|0,0:0|0:0,0:0:0:0:
364,280,140787,2,0,P|344:312|312:328,2,70,8|0|0,0:0|0:0|0:0,0:0:0:0:
384,204,141350,2,0,L|376:132,1,70,0|4,0:0|3:0,0:0:0:0:
344,64,141725,2,0,L|272:53,1,70,0|8,0:0|3:0,0:0:0:0:
196,56,142100,1,8,0:0:0:0:
44,84,142475,6,0,L|64:224,1,140,12|0,0:0|0:0,0:0:0:0:
184,320,143225,2,0,P|236:280|312:272,1,140,12|0,0:0|0:0,0:0:0:0:
460,300,143975,2,0,L|440:160,1,140,12|0,0:0|0:0,0:0:0:0:
328,56,144725,2,0,P|276:96|200:104,1,140,12|0,0:0|0:0,0:0:0:0:
52,92,145475,5,12,0:0:0:0:
108,236,145850,1,4,0:0:0:0:
256,192,146225,1,12,0:0:0:0:
404,236,146600,1,4,0:0:0:0:
460,92,146975,1,12,0:0:0:0:
404,236,147350,1,4,0:0:0:0:
256,192,147725,1,12,0:0:0:0:
108,236,148100,1,4,0:0:0:0:
120,84,148475,6,0,L|220:52,1,105.000004005432,4|8,0:0|0:0,0:0:0:0:
292,52,149037,2,0,L|392:84,1,105.000004005432,4|8,0:0|0:0,0:0:0:0:
424,148,149600,1,4,0:0:0:0:
296,224,149975,2,0,P|343:244|396:232,3,105.000004005432,2|2|10|2,0:0|0:0|0:0|0:0,0:0:0:0:
392,84,151475,6,0,L|292:52,1,105.000004005432,4|8,0:0|0:0,0:0:0:0:
220,52,152037,2,0,L|120:84,1,105.000004005432,4|8,0:0|0:0,0:0:0:0:
88,148,152600,1,4,0:0:0:0:
216,224,152975,2,0,P|168:244|116:232,3,105.000004005432,2|2|10|2,0:0|0:0|0:0|0:0,0:0:0:0:
56,100,154475,6,0,B|118:75|118:75|156:96,1,105.000004005432,4|8,0:0|0:0,0:0:0:0:
212,136,155037,2,0,B|256:164|256:164|300:136,1,105.000004005432,4|8,0:0|0:0,0:0:0:0:
360,93,155600,2,0,B|393:75|393:75|456:100,1,105.000004005432,4|2,0:0|0:0,0:0:0:0:
452,172,156162,2,0,L|368:308,1,157.500006008148,0|10,0:0|0:0,0:0:0:0:
256,284,157100,1,2,0:0:0:0:
142,306,157475,2,0,L|60:172,2,157.500006008148,4|4|4,0:0|0:0|0:0,0:0:0:0:
256,284,158975,5,8,0:0:0:0:
296,176,159350,1,8,3:0:0:0:
319,103,159537,1,2,3:0:0:0:
256,57,159725,1,12,3:0:0:0:
194,103,159912,1,8,3:0:0:0:
217,176,160100,1,8,0:0:0:0:
316,292,160475,6,0,P|404:261|436:156,1,210,4|0,0:0|0:0,0:0:0:0:
408,88,161225,1,12,0:0:0:0:
256,57,161600,1,4,0:0:0:0:
132,148,161975,2,0,P|132:216|180:268,1,140,4|4,0:0|0:0,0:0:0:0:
333,267,162725,2,0,P|379:216|380:148,1,140,12|4,0:0|0:0,0:0:0:0:
196,92,163475,6,0,P|107:122|76:228,1,210,4|0,0:0|0:0,0:0:0:0:
104,296,164225,1,12,0:0:0:0:
256,327,164600,1,4,0:0:0:0:
380,236,164975,2,0,P|380:168|332:116,1,140,4|4,0:0|0:0,0:0:0:0:
178,116,165725,2,0,P|132:167|132:236,1,140,12|4,0:0|0:0,0:0:0:0:
256,327,166475,6,0,L|384:272,1,140,4|4,0:0|0:0,0:0:0:0:
456,240,167037,2,0,P|392:216|368:152,1,140,0|0,0:0|0:0,0:0:0:0:
348,76,167600,2,0,P|253:31|141:59,2,210,4|4|12,0:0|0:0|0:0,0:0:0:0:
448,192,169100,1,4,0:0:0:0:
348,308,169475,2,0,P|253:353|141:325,2,210,4|0|4,0:0|0:0|0:0,0:0:0:0:
448,192,170975,1,4,0:0:0:0:
348,76,171350,1,4,0:0:0:0:
244,192,171725,1,12,0:0:0:0:
348,308,172100,1,4,0:0:0:0:
448,192,172475,6,0,P|416:96|320:48,1,210,4|0,0:0|0:0,0:0:0:0:
248,44,173225,1,12,0:0:0:0:
112,116,173600,2,0,L|92:256,2,140,4|4|4,0:0|0:0|0:0,0:0:0:0:
248,44,174725,2,0,L|228:184,1,140,12|4,0:0|0:0,0:0:0:0:
236,336,175475,6,0,P|332:304|376:208,1,210,4|0,0:0|0:0,0:0:0:0:
372,132,176225,1,12,0:0:0:0:
248,44,176600,2,0,P|168:44|116:72,2,140,4|4|4,0:0|0:0|0:0,0:0:0:0:
372,132,177725,2,0,P|308:164|240:156,1,140,12|4,0:0|0:0,0:0:0:0:
116,72,178475,6,0,P|60:116|60:188,1,140,4|4,0:0|0:0,0:0:0:0:
132,152,179037,2,0,P|196:160|256:208,1,140,0|0,0:0|0:0,0:0:0:0:
300,272,179600,2,0,P|400:320|484:272,2,210,4|0|12,0:0|0:0|0:0,0:0:0:0:
256,124,181100,1,4,0:0:0:0:
212,272,181475,2,0,P|112:320|28:272,2,210,4|0|8,0:0|0:0|3:0,0:0:0:0:
256,124,182975,1,4,0:0:0:0:
120,196,183350,1,4,0:0:0:0:
256,268,183725,1,2,0:3:0:0:
392,196,184100,1,4,0:0:0:0:
320,80,184475,6,0,P|380:52|464:80,2,157.500006008148,0|2|0,0:0|0:0|0:0,0:0:0:0:
196,152,185975,2,0,P|181:127|180:85,2,52.5000020027161,2|2|2,0:0|0:0|0:0,0:0:0:0:
256,192,186537,1,2,0:0:0:0:
316,232,186725,2,0,P|330:256|331:298,2,52.5000020027161,8|2|2,0:0|0:0|0:0,0:0:0:0:
192,304,187475,6,0,P|132:332|48:304,2,157.500006008148,0|0|0,0:0|0:0|0:0,0:0:0:0:
292,204,188975,2,0,P|312:180|312:148,1,52.5000020027161,2|2,0:0|0:0,0:0:0:0:
284,96,189350,2,0,P|260:76|228:76,1,52.5000020027161,2|0,0:0|0:0,0:0:0:0:
176,104,189725,2,0,P|156:128|156:160,1,52.5000020027161,8|2,0:0|0:0,0:0:0:0:
184,212,190100,2,0,P|208:232|240:232,1,52.5000020027161,2|2,0:0|0:0,0:0:0:0:
292,204,190475,6,0,P|360:172|388:96,1,157.500006008148,0|0,0:0|0:0,0:0:0:0:
184,36,191600,2,0,P|116:68|88:144,2,157.500006008148,0|0|8,0:0|0:0|0:0,0:0:0:0:
256,152,193100,1,2,0:0:0:0:
328,36,193475,2,0,P|396:68|424:144,2,157.500006008148,0|0|0,0:0|0:0|0:0,0:0:0:0:
256,152,194975,1,2,0:0:0:0:
175,263,195350,2,0,P|195:280|221:286,1,52.5000020027161,2|0,0:0|0:0,0:0:0:0:
291,286,195725,2,0,P|316:281|336:264,2,52.5000020027161,8|2|2,0:0|0:0|0:0,0:0:0:0:
256,152,196475,6,0,P|284:80|360:48,2,157.500006008148,0|0|0,0:0|0:0|0:0,0:0:0:0:
291,286,197975,2,0,P|316:281|336:264,1,52.5000020027161,2|2,0:0|0:0,0:0:0:0:
384,212,198350,2,0,L|372:156,1,52.5000020027161,2|2,0:0|0:0,0:0:0:0:
308,136,198725,2,0,P|283:141|263:158,3,52.5000020027161,8|2|2|2,0:0|0:0|0:0|0:0,0:0:0:0:
256,232,199475,6,0,P|228:304|152:336,2,157.500006008148,0|0|0,0:0|0:0|0:0,0:0:0:0:
221,98,200975,2,0,P|196:103|176:120,1,52.5000020027161,2|2,0:0|0:0,0:0:0:0:
152,188,201350,2,0,L|164:244,1,52.5000020027161,2|2,0:0|0:0,0:0:0:0:
228,268,201725,2,0,P|253:263|273:246,1,52.5000020027161,8|2,0:0|0:0,0:0:0:0:
297,178,202100,2,0,L|285:122,1,52.5000020027161,2|2,0:0|0:0,0:0:0:0:
256,60,202475,6,0,P|172:88|128:152,1,157.500006008148,0|0,0:0|0:0,0:0:0:0:
256,304,203600,2,0,P|340:276|384:212,1,157.500006008148,0|0,0:0|0:0,0:0:0:0:
256,60,204725,1,8,0:0:0:0:
136,124,205100,1,2,0:0:0:0:
184,252,205475,2,0,P|256:280|328:252,2,157.500006008148,0|0|0,0:0|0:0|0:0,0:0:0:0:
136,124,206975,1,2,0:0:0:0:
256,60,207350,1,0,0:0:0:0:
376,124,207725,1,8,0:0:0:0:
256,192,208100,1,2,0:0:0:0:
136,184,208475,6,0,B|60:232|136:276|64:324,2,157.500006008148,4|0|0,0:0|0:0|0:0,0:0:0:0:
192,60,209975,2,0,P|160:48|124:56,2,52.5000020027161,2|2|2,0:0|0:0|0:0,0:0:0:0:
256,92,210537,1,2,0:0:0:0:
320,60,210725,2,0,P|352:48|388:56,2,52.5000020027161,8|2|2,0:0|0:0|0:0,0:0:0:0:
376,184,211475,6,0,B|452:232|376:276|448:324,2,157.500006008148,0|0|0,0:0|0:0|0:0,0:0:0:0:
320,60,212975,2,0,P|352:48|388:56,2,52.5000020027161,2|2|2,0:0|0:0|0:0,0:0:0:0:
256,92,213537,1,2,0:0:0:0:
192,60,213725,2,0,P|160:48|124:56,2,52.5000020027161,8|2|2,0:0|0:0|0:0,0:0:0:0:
256,188,214475,6,0,L|256:352,1,157.500006008148,0|0,0:0|0:0,0:0:0:0:
104,200,215600,2,0,P|112:112|172:64,2,157.500006008148,0|0|8,0:0|0:0|0:0,0:0:0:0:
256,268,217100,1,2,0:0:0:0:
408,200,217475,2,0,P|400:112|340:64,2,157.500006008148,0|0|0,0:0|0:0|0:0,0:0:0:0:
256,268,218975,1,2,0:0:0:0:
124,220,219350,2,0,L|168:188,1,52.5000020027161,2|0,0:0|0:0,0:0:0:0:
232,160,219725,2,0,L|288:176,1,52.5000020027161,8|2,0:0|0:0,0:0:0:0:
352,196,220100,2,0,L|394:165,1,52.5000020027161,2|2,0:0|0:0,0:0:0:0:
424,96,220475,6,0,B|364:32|332:108|272:44,2,157.500006008148,0|0|0,0:0|0:0|0:0,0:0:0:0:
464,228,221975,1,0,0:0:0:0:
340,176,222350,2,0,L|284:156,1,52.5000020027161,2|2,0:0|0:0,0:0:0:0:
228,128,222725,2,0,L|174:153,1,52.5000020027161,8|2,0:0|0:0,0:0:0:0:
112,168,223100,2,0,L|88:220,1,52.5000020027161,2|2,0:0|0:0,0:0:0:0:
88,288,223475,6,0,B|148:352|180:276|240:340,2,157.500006008148,0|0|0,0:0|0:0|0:0,0:0:0:0:
40,148,224975,1,2,0:0:0:0:
152,44,225350,2,0,L|185:92,1,52.5000020027161,2|2,0:0|0:0,0:0:0:0:
228,144,225725,2,0,L|207:200,1,52.5000020027161,8|2,0:0|0:0,0:0:0:0:
240,260,226100,2,0,L|273:308,1,52.5000020027161,2|2,0:0|0:0,0:0:0:0:
340,324,226475,6,0,P|428:292|448:220,1,157.500006008148,0|0,0:0|0:0,0:0:0:0:
356,56,227600,1,0,0:0:0:0:
156,56,228162,1,0,0:0:0:0:
256,224,228725,1,8,0:0:0:0:
256,224,229100,1,2,0:0:0:0:
172,324,229475,2,0,P|84:292|64:220,1,157.500006008148,0|0,0:0|0:0,0:0:0:0:
256,132,230600,1,0,0:0:0:0:
256,192,230787,12,0,233975,0:0:0:0:
