osu file format v14

[General]
AudioFilename: SOADAERIALS.mp3
AudioLeadIn: 0
PreviewTime: 34475
Countdown: 0
SampleSet: Normal
StackLeniency: 0.7
Mode: 0
LetterboxInBreaks: 0
WidescreenStoryboard: 0

[Editor]
Bookmarks: 79800,87535,133992,144928
DistanceSpacing: 1.4
BeatDivisor: 4
GridSize: 4
TimelineZoom: 1

[Metadata]
Title:Aerials
TitleUnicode:Aerials
Artist:System Of A Down
ArtistUnicode:System Of A Down
Creator:Alarido
Version:Freedom
Source:
Tags:SOAD Alternative Metal Toxicity VEVO Daron Malakian Serj Tankian Shavo Odadjian John Dolmayan Danizudo Killuminati
BeatmapID:351287
BeatmapSetID:136425

[Difficulty]
HPDrainRate:7
CircleSize:4.3
OverallDifficulty:7
ApproachRate:8
SliderMultiplier:3.59999990463257
SliderTickRate:2

[Events]
//Background and Video events
0,0,"soadaerials.png",0,0
Video,-6805,"soadaerials.avi"
//Break Periods
2,80975,87725
//Storyboard Layer 0 (Background)
//Storyboard Layer 1 (Fail)
//Storyboard Layer 2 (Pass)
//Storyboard Layer 3 (Foreground)
//Storyboard Sound Samples

[TimingPoints]
31475,750,4,1,1,45,1,0
31475,-133.333333333333,4,1,1,47,0,0
32600,-133.333333333333,4,3,2,50,0,0
32975,-133.333333333333,4,3,2,60,0,0
33350,-133.333333333333,4,3,2,70,0,0
33725,-133.333333333333,4,3,2,80,0,0
34100,-133.333333333333,4,3,2,90,0,0
34475,-100,4,1,1,90,0,0
41225,-133.333333333333,4,1,1,90,0,0
41787,-100,4,1,1,90,0,0
42725,-133.333333333333,4,1,1,90,0,0
43287,-100,4,1,1,90,0,0
44225,-133.333333333333,4,1,1,90,0,0
44787,-100,4,1,1,90,0,0
53225,-133.333333333333,4,1,1,90,0,0
53787,-100,4,1,1,90,0,0
54725,-133.333333333333,4,1,1,90,0,0
55287,-100,4,1,1,90,0,0
56225,-133.333333333333,4,1,1,90,0,0
56787,-100,4,1,1,90,0,0
65225,-133.333333333333,4,1,1,90,0,0
65787,-100,4,1,1,90,0,0
66725,-133.333333333333,4,1,1,90,0,0
67287,-100,4,1,1,90,0,0
68225,-133.333333333333,4,1,1,90,0,0
68787,-100,4,1,1,90,0,0
88475,-133.333333333333,4,2,1,60,0,0
98975,-100,4,1,1,70,0,0
100475,-100,4,1,1,90,0,0
107225,-133.333333333333,4,1,1,90,0,0
107787,-100,4,1,1,90,0,0
108725,-133.333333333333,4,1,1,90,0,0
109287,-100,4,1,1,90,0,0
110225,-133.333333333333,4,1,1,90,0,0
110787,-100,4,1,1,90,0,0
119225,-133.333333333333,4,1,1,90,0,0
119787,-100,4,1,1,90,0,0
120725,-133.333333333333,4,1,1,90,0,0
121287,-100,4,1,1,90,0,0
122225,-133.333333333333,4,1,1,90,0,0
122787,-100,4,1,1,90,0,0
131225,-133.333333333333,4,1,1,90,0,0
131787,-100,4,1,1,90,0,0
132725,-133.333333333333,4,1,1,90,0,0
133287,-100,4,1,1,90,0,0
134225,-133.333333333333,4,1,1,90,0,0
134787,-100,4,1,1,90,0,0
148475,-133.333333333333,4,1,1,90,0,0
160475,-100,4,1,1,90,0,1
184475,-133.333333333333,4,2,1,70,0,0
233975,-100,4,2,0,10,0,0

[Colours]
Combo1 : 184,201,182
Combo2 : 189,176,164
Combo3 : 181,190,193
Combo4 : 132,130,147
Combo5 : 49,83,111
Combo6 : 206,184,179

[HitObjects]
296,100,31475,6,0,L|344:148,1,67.5000025749208,0|0,0:0|0:0,0:0:0:0:
164,152,31850,2,0,L|212:104,1,67.5000025749208,0|0,0:0|0:0,0:0:0:0:
216,284,32225,2,0,L|168:236,1,67.5000025749208,0|0,0:0|0:0,0:0:0:0:
348,232,32600,2,0,L|300:280,1,67.5000025749208,0|0,3:0|3:0,0:0:0:0:
288,78,32975,5,0,3:3:0:0:
372,136,33162,1,0,3:3:0:0:
131,180,33350,1,8,3:3:0:0:
189,97,33537,1,8,3:3:0:0:
233,337,33725,1,10,3:3:0:0:
150,280,33912,1,10,3:3:0:0:
390,235,34100,1,14,3:3:0:0:
333,318,34287,1,14,3:3:0:0:
400,132,34475,6,0,P|364:76|256:52,1,180,4|4,0:0|0:0,0:0:0:0:
112,212,35225,2,0,P|148:268|256:292,1,180,8|0,0:0|0:0,0:0:0:0:
360,272,35787,2,0,L|408:192,1,90,8|0,0:0|0:0,0:0:0:0:
340,76,36162,2,0,L|292:156,1,90,0|0,0:0|0:0,0:0:0:0:
172,308,36537,2,0,L|220:228,1,90,0|0,0:0|0:0,0:0:0:0:
152,112,36912,2,0,L|104:192,1,90,0|8,0:0|0:0,0:0:0:0:
258,332,37475,6,0,P|345:320|400:252,1,180,4|0,0:0|0:0,0:0:0:0:
253,91,38225,2,0,P|166:103|112:172,1,180,8|0,0:0|0:0,0:0:0:0:
80,260,38787,2,0,P|116:304|148:316,1,89.9999976158143,8|0,0:0|0:0,0:0:0:0:
238,310,39162,1,0,0:0:0:0:
359,178,39350,2,0,P|340:218|304:244,1,90,4|8,3:0|3:0,0:0:0:0:
187,140,39725,2,0,P|231:136|271:157,1,90,0|8,0:0|3:0,0:0:0:0:
238,310,40100,2,0,P|214:272|215:228,1,90,8|0,3:0|3:0,0:0:0:0:
368,208,40475,5,4,0:0:0:0:
360,320,40662,1,0,0:0:0:0:
452,156,40850,1,0,0:0:0:0:
444,268,41037,1,0,0:0:0:0:
376,92,41225,2,0,P|280:160|208:136,1,202.500007724762,8|0,0:0|0:0,0:0:0:0:
132,176,41975,1,0,0:0:0:0:
140,64,42162,1,0,0:0:0:0:
48,228,42350,1,0,0:0:0:0:
56,116,42537,1,0,0:0:0:0:
136,284,42725,2,0,P|232:216|304:240,1,202.500007724762,8|0,0:0|0:0,0:0:0:0:
392,300,43475,6,0,L|408:212,1,90,0|0,0:0|0:0,0:0:0:0:
352,56,43850,2,0,L|336:144,1,90,0|0,0:0|0:0,0:0:0:0:
304,240,44225,2,0,P|208:308|136:284,1,202.500007724762,8|8,0:0|0:0,0:0:0:0:
66,200,44975,6,0,L|28:284,2,90,8|8|8,3:0|3:0|3:0,0:0:0:0:
116,104,45537,1,4,3:0:0:0:
153,205,45725,1,0,0:0:0:0:
256,236,45912,1,8,3:0:0:0:
359,205,46100,1,8,3:0:0:0:
396,104,46287,1,0,3:1:0:0:
296,64,46475,6,0,P|212:64|148:132,1,180,4|0,0:0|0:0,0:0:0:0:
146,238,47037,1,0,0:0:0:0:
216,320,47225,2,0,P|300:320|364:252,1,180,8|0,0:0|0:0,0:0:0:0:
412,156,47787,2,0,L|340:96,1,90,8|0,0:0|0:0,0:0:0:0:
256,36,48162,1,0,0:0:0:0:
169,98,48350,2,0,L|100:156,1,90,0|0,0:0|0:0,0:0:0:0:
148,254,48725,2,0,P|208:318|296:320,1,180,0|8,0:0|0:0,0:0:0:0:
363,129,49475,6,0,P|303:65|216:64,1,180,4|0,0:0|0:0,0:0:0:0:
116,104,50037,2,0,P|72:112|32:88,2,90,0|8|0,0:0|0:0|0:0,0:0:0:0:
216,63,50600,2,0,P|303:65|363:129,1,180,0|0,0:0|0:0,0:0:0:0:
344,236,51162,1,0,0:0:0:0:
256,300,51350,1,0,0:0:0:0:
168,236,51537,1,4,3:0:0:0:
256,176,51725,2,0,P|308:184|352:164,1,90,0|8,0:0|3:0,0:0:0:0:
256,92,52100,2,0,P|205:79|159:95,1,90,8|0,3:0|3:0,0:0:0:0:
68,128,52475,6,0,L|60:220,1,90,4|0,0:0|0:0,0:0:0:0:
160,325,52850,2,0,L|168:236,1,90,0|0,0:0|0:0,0:0:0:0:
176,128,53225,2,0,P|228:62|353:57,1,202.500007724762,8|0,0:0|0:0,0:0:0:0:
444,128,53975,2,0,L|452:220,1,90,0|0,0:0|0:0,0:0:0:0:
351,325,54350,2,0,L|344:236,1,90,0|0,0:0|0:0,0:0:0:0:
336,128,54725,2,0,P|284:72|159:66,1,202.500007724762,8|0,0:0|0:0,0:0:0:0:
88,144,55475,5,0,0:0:0:0:
112,248,55662,1,0,0:0:0:0:
200,312,55850,1,0,0:0:0:0:
308,324,56037,1,0,0:0:0:0:
404,280,56225,2,0,P|448:192|404:104,1,202.500007724762,8|0,0:0|0:0,0:0:0:0:
308,60,56975,5,8,0:0:0:0:
200,72,57162,1,4,3:0:0:0:
112,136,57350,1,8,3:0:0:0:
88,240,57537,2,0,P|154:297|242:294,1,180,8|8,0:0|3:0,0:0:0:0:
309,209,58100,1,8,3:0:0:0:
205,177,58287,1,0,3:0:0:0:
268,88,58475,6,0,P|357:86|424:144,1,180,4|0,0:0|0:0,0:0:0:0:
242,294,59225,2,0,P|154:297|88:240,1,180,8|0,0:0|0:0,0:0:0:0:
128,140,59787,2,0,P|173:140|219:111,1,90,8|0,0:0|0:0,0:0:0:0:
308,64,60162,2,0,P|307:109|336:155,1,90,0|0,0:0|0:0,0:0:0:0:
384,244,60537,2,0,P|338:243|292:272,1,90,0|0,0:0|0:0,0:0:0:0:
204,320,60912,2,0,P|204:274|175:228,1,90,0|8,0:0|0:0,0:0:0:0:
36,80,61475,6,0,P|132:60|196:104,1,180,4|0,0:0|0:0,0:0:0:0:
256,192,62037,1,0,0:0:0:0:
316,280,62225,2,0,P|391:326|476:304,1,180,8|0,0:0|0:0,0:0:0:0:
408,220,62787,2,0,L|340:160,1,90,8|0,0:0|0:0,0:0:0:0:
256,92,63162,1,0,0:0:0:0:
172,160,63350,1,0,0:0:0:0:
256,228,63537,1,4,3:0:0:0:
340,160,63725,1,0,0:0:0:0:
256,92,63912,1,8,3:0:0:0:
172,160,64100,2,0,L|104:220,1,90,8|0,3:0|0:0,0:0:0:0:
116,320,64475,6,0,P|160:340|212:336,1,90,4|0,0:0|0:0,0:0:0:0:
309,337,64850,2,0,P|352:340|396:320,1,90,0|0,0:0|0:0,0:0:0:0:
336,240,65225,2,0,B|304:152|208:232|176:144,1,202.500007724762,8|0,0:0|0:0,0:0:0:0:
116,64,65975,2,0,P|160:44|212:48,1,90,0|0,0:0|0:0,0:0:0:0:
309,46,66350,2,0,P|352:44|396:64,1,90,0|0,0:0|0:0,0:0:0:0:
336,144,66725,2,0,B|304:232|208:152|176:240,1,202.500007724762,8|0,0:0|0:0,0:0:0:0:
104,316,67475,5,4,0:0:0:0:
204,344,67662,1,0,0:0:0:0:
308,344,67850,1,0,0:0:0:0:
408,316,68037,1,0,0:0:0:0:
332,244,68225,2,0,P|262:192|332:140,1,202.500007724762,8|0,0:0|0:0,0:0:0:0:
408,68,68975,5,4,0:0:0:0:
308,40,69162,1,0,0:0:0:0:
204,40,69350,1,0,0:0:0:0:
104,68,69537,1,4,3:0:0:0:
64,168,69725,2,0,P|76:212|108:240,1,90,0|8,0:0|3:0,0:0:0:0:
214,261,70100,1,8,3:0:0:0:
322,257,70287,1,0,0:0:0:0:
428,212,70475,6,0,P|416:124|348:64,1,180,4|0,0:0|0:0,0:0:0:0:
256,116,71037,1,0,0:0:0:0:
160,65,71225,2,0,P|95:124|83:212,1,180,8|0,0:0|0:0,0:0:0:0:
90,320,71787,2,0,P|134:309|168:280,1,90,8|0,0:0|0:0,0:0:0:0:
256,224,72162,1,0,0:0:0:0:
256,72,72350,1,0,0:0:0:0:
332,148,72537,1,0,0:0:0:0:
180,148,72725,1,0,0:0:0:0:
332,148,72912,1,0,0:0:0:0:
344,280,73100,2,0,P|376:308|428:320,1,90,8|0,0:0|0:0,0:0:0:0:
424,212,73475,6,0,L|408:120,1,90,4|0,0:0|0:0,0:0:0:0:
336,44,73850,2,0,L|316:132,1,90,0|0,0:0|0:0,0:0:0:0:
256,224,74225,2,0,P|176:272|88:240,1,180,8|0,0:0|0:0,0:0:0:0:
40,156,74787,1,8,0:0:0:0:
104,68,74975,2,0,L|196:84,1,90,0|0,0:0|0:0,0:0:0:0:
271,155,75350,2,0,L|182:174,1,90,0|0,3:0|0:0,0:0:0:0:
100,244,75725,1,0,0:0:0:0:
188,304,75912,1,0,0:0:0:0:
296,284,76100,2,0,L|360:216,1,90,8|0,0:0|0:0,0:0:0:0:
272,156,76475,1,14,3:0:0:0:
256,192,76662,12,0,79475,0:0:0:0:
96,64,88475,6,0,P|116:125|176:153,1,135.000005149842,0|2,0:0|0:0,0:0:0:0:
258,157,89037,2,0,P|318:184|338:249,1,135.000005149842,0|0,0:0|0:0,0:0:0:0:
257,240,89600,2,0,L|192:271,1,67.5000025749208,0|2,0:0|0:0,0:0:0:0:
116,264,89975,2,0,P|80:261|47:238,1,67.5000025749208,2|0,0:0|0:0,0:0:0:0:
107,185,90350,2,0,P|142:187|175:210,1,67.5000025749208,0|2,0:0|0:0,0:0:0:0:
116,264,90725,1,8,0:0:0:0:
180,316,90912,1,2,0:0:0:0:
260,336,91100,1,2,0:0:0:0:
336,312,91287,1,2,0:0:0:0:
416,320,91475,6,0,P|395:258|335:230,1,135.000005149842,0|2,0:0|0:0,0:0:0:0:
254,227,92037,2,0,P|193:199|173:134,1,135.000005149842,0|2,0:0|0:0,0:0:0:0:
255,144,92600,2,0,L|319:112,1,67.5000025749208,0|2,0:0|0:0,0:0:0:0:
396,120,92975,2,0,P|431:122|464:145,1,67.5000025749208,2|2,0:0|0:0,0:0:0:0:
405,199,93350,2,0,P|369:196|336:173,1,67.5000025749208,2|2,0:0|0:0,0:0:0:0:
396,120,93725,1,8,0:0:0:0:
332,68,93912,1,2,0:0:0:0:
252,48,94100,1,2,0:0:0:0:
176,72,94287,1,2,0:0:0:0:
112,124,94475,6,0,P|140:184|136:256,1,135.000005149842,0|2,0:0|0:0,0:0:0:0:
111,327,95037,2,0,P|177:323|215:270,1,135.000005149842,0|0,0:0|0:0,0:0:0:0:
296,270,95600,2,0,P|334:323|400:327,1,135.000005149842,0|2,0:0|0:0,0:0:0:0:
374,251,96162,2,0,P|371:184|399:124,1,135.000005149842,0|0,0:0|0:0,0:0:0:0:
356,56,96725,2,0,L|296:88,1,67.5000025749208,8|0,0:0|0:0,0:0:0:0:
216,88,97100,2,0,L|156:56,1,67.5000025749208,2|2,0:0|0:0,0:0:0:0:
112,124,97475,6,0,P|147:181|212:192,1,135.000005149842,0|2,0:0|0:0,0:0:0:0:
292,180,98037,2,0,P|356:192|390:248,1,135.000005149842,0|0,0:0|0:0,0:0:0:0:
312,260,98600,1,0,0:0:0:0:
256,48,98975,5,8,0:0:0:0:
80,200,99350,1,8,3:0:0:0:
148,296,99537,1,2,3:0:0:0:
256,336,99725,1,8,3:0:0:0:
364,296,99912,1,8,3:0:0:0:
432,200,100100,1,8,0:0:0:0:
256,48,100475,6,0,P|171:84|132:160,1,180,4|0,0:0|0:0,0:0:0:0:
256,336,101225,2,0,P|341:300|380:224,1,180,8|0,0:0|0:0,0:0:0:0:
372,116,101787,2,0,P|320:128|292:156,1,90,8|0,0:0|0:0,0:0:0:0:
140,268,102162,2,0,P|192:256|220:228,1,90,0|0,0:0|0:0,0:0:0:0:
180,76,102537,2,0,P|192:128|220:156,1,90,0|0,0:0|0:0,0:0:0:0:
332,308,102912,2,0,P|320:256|292:228,1,90,0|12,0:0|0:0,0:0:0:0:
80,196,103475,6,0,P|80:284|152:328,1,180,4|0,0:0|0:0,0:0:0:0:
256,300,104037,1,0,0:0:0:0:
360,327,104225,2,0,P|433:282|432:196,1,180,8|0,0:0|0:0,0:0:0:0:
368,112,104787,2,0,P|336:70|288:62,1,90,8|0,0:0|0:0,0:0:0:0:
216,140,105162,2,0,P|255:158|296:140,1,90,0|0,0:0|0:0,0:0:0:0:
210,61,105537,2,0,P|167:74|143:111,1,90,4|0,3:0|0:0,0:0:0:0:
160,220,105912,1,8,3:0:0:0:
256,272,106100,1,8,3:0:0:0:
352,220,106287,1,0,3:0:0:0:
368,112,106475,6,0,L|456:96,1,90,4|0,0:0|0:0,0:0:0:0:
344,36,106850,2,0,L|256:52,1,90,0|0,0:0|0:0,0:0:0:0:
148,76,107225,2,0,P|232:132|236:228,1,202.500007724762,8|0,0:0|0:0,0:0:0:0:
144,272,107975,2,0,L|56:288,1,90,0|0,0:0|0:0,0:0:0:0:
168,348,108350,2,0,L|256:332,1,90,0|0,0:0|0:0,0:0:0:0:
364,308,108725,2,0,P|280:252|276:156,1,202.500007724762,8|0,0:0|0:0,0:0:0:0:
332,64,109475,5,0,0:0:0:0:
383,174,109662,1,0,0:0:0:0:
275,158,109850,1,0,0:0:0:0:
440,80,110037,1,0,0:0:0:0:
332,64,110225,2,0,P|216:72|168:144,1,202.500007724762,8|0,0:0|0:0,0:0:0:0:
176,244,110975,5,12,0:0:0:0:
84,296,111162,1,0,0:0:0:0:
80,188,111350,1,0,0:0:0:0:
176,244,111537,2,0,P|256:280|336:244,1,180,4|8,3:0|3:0,0:0:0:0:
432,188,112100,1,8,3:0:0:0:
356,112,112287,1,0,3:0:0:0:
264,60,112475,6,0,P|164:56|100:104,1,180,4|0,0:0|0:0,0:0:0:0:
44,192,113037,1,0,0:0:0:0:
102,283,113225,2,0,P|175:331|264:324,1,180,8|0,0:0|0:0,0:0:0:0:
364,284,113787,2,0,L|396:200,1,90,8|0,0:0|0:0,0:0:0:0:
436,100,114162,2,0,P|388:120|347:114,1,90,0|0,0:0|0:0,0:0:0:0:
256,60,114537,1,0,0:0:0:0:
160,115,114725,2,0,P|116:118|72:98,1,90,0|0,0:0|0:0,0:0:0:0:
116,200,115100,2,0,L|148:284,1,90,8|0,0:0|0:0,0:0:0:0:
248,324,115475,6,0,P|348:328|412:280,1,180,4|0,0:0|0:0,0:0:0:0:
468,192,116037,1,0,0:0:0:0:
409,100,116225,2,0,P|336:52|248:60,1,180,8|0,0:0|0:0,0:0:0:0:
140,72,116787,1,8,0:0:0:0:
54,138,116975,1,0,0:0:0:0:
54,246,117162,1,0,0:0:0:0:
140,312,117350,1,0,0:0:0:0:
248,324,117537,2,0,P|298:281|305:229,1,90,4|0,3:0|0:0,0:0:0:0:
258,163,117912,2,0,P|207:205|200:257,1,90,8|8,3:0|3:0,0:0:0:0:
436,252,118475,6,0,L|468:164,1,90,4|0,0:0|0:0,0:0:0:0:
400,60,118850,2,0,L|369:144,1,90,0|0,0:0|0:0,0:0:0:0:
328,244,119225,2,0,P|288:300|160:316,1,202.500007724762,8|0,0:0|0:0,0:0:0:0:
76,252,119975,2,0,L|44:164,1,90,0|0,0:0|0:0,0:0:0:0:
112,60,120350,2,0,L|142:144,1,90,0|0,0:0|0:0,0:0:0:0:
184,244,120725,2,0,P|224:300|352:316,1,202.500007724762,8|0,0:0|0:0,0:0:0:0:
440,256,121475,5,4,0:0:0:0:
468,152,121662,1,0,0:0:0:0:
392,76,121850,1,0,0:0:0:0:
364,180,122037,1,0,0:0:0:0:
332,280,122225,2,0,P|256:336|180:280,1,202.500007724762,8|8,0:0|0:0,0:0:0:0:
148,180,122975,5,8,3:0:0:0:
120,76,123162,1,8,3:0:0:0:
44,152,123350,1,8,3:0:0:0:
72,256,123537,1,4,3:0:0:0:
172,300,123725,1,0,0:0:0:0:
256,192,123912,2,0,L|256:102,2,90,8|8|0,3:0|3:0|0:0,0:0:0:0:
172,300,124475,6,0,P|255:328|339:299,1,180,4|0,0:0|0:0,0:0:0:0:
340,84,125225,2,0,P|256:55|172:84,1,180,8|0,0:0|0:0,0:0:0:0:
72,120,125787,2,0,L|108:208,1,90,8|0,0:0|0:0,0:0:0:0:
132,308,126162,2,0,P|176:288|200:252,1,90,0|0,0:0|0:0,0:0:0:0:
256,160,126537,1,0,0:0:0:0:
312,254,126725,2,0,P|339:290|380:308,1,90,0|0,0:0|0:0,0:0:0:0:
405,203,127100,2,0,L|440:120,1,90,8|0,0:0|0:0,0:0:0:0:
340,84,127475,6,0,P|256:55|172:84,1,180,4|0,0:0|0:0,0:0:0:0:
112,176,128037,1,0,0:0:0:0:
172,264,128225,2,0,P|255:292|339:264,1,180,8|0,0:0|0:0,0:0:0:0:
400,176,128787,1,8,0:0:0:0:
312,116,128975,2,0,P|344:84|388:68,1,90,0|0,0:0|0:0,0:0:0:0:
200,228,129350,2,0,P|168:260|124:276,1,90,0|0,0:0|0:0,0:0:0:0:
200,116,129725,2,0,P|168:84|124:68,1,90,0|0,0:0|0:0,0:0:0:0:
312,228,130100,2,0,P|344:260|388:276,1,90,8|0,0:0|0:0,0:0:0:0:
456,192,130475,5,4,0:0:0:0:
428,87,130662,1,0,0:0:0:0:
323,58,130850,1,0,0:0:0:0:
246,136,131037,1,0,0:0:0:0:
274,240,131225,2,0,P|192:308|104:284,1,202.500007724762,8|0,0:0|0:0,0:0:0:0:
56,192,131975,1,0,0:0:0:0:
84,87,132162,1,0,0:0:0:0:
189,58,132350,1,0,0:0:0:0:
266,136,132537,1,0,0:0:0:0:
238,240,132725,2,0,P|320:308|408:284,1,202.500007724762,8|0,0:0|0:0,0:0:0:0:
384,180,133475,6,0,L|308:128,1,90,4|0,0:0|0:0,0:0:0:0:
202,129,133850,2,0,L|128:180,1,90,0|0,0:0|0:0,0:0:0:0:
168,280,134225,2,8,P|256:323|344:280,1,202.500007724762,8|8,0:0|0:0,0:0:0:0:
436,224,134975,5,0,0:0:0:0:
344,164,135162,1,0,0:0:0:0:
436,112,135350,1,0,0:0:0:0:
344,56,135537,2,0,P|256:36|168:56,1,180,4|8,3:0|3:0,0:0:0:0:
76,112,136100,1,8,3:0:0:0:
168,164,136287,1,8,3:0:0:0:
112,256,136475,6,0,P|184:304|284:292,1,180,4|0,0:0|0:0,0:0:0:0:
400,128,137225,2,0,P|328:80|228:92,1,180,8|0,0:0|0:0,0:0:0:0:
132,116,137787,2,0,L|42:142,1,90,8|0,0:0|0:0,0:0:0:0:
124,220,138162,2,0,L|210:194,1,90,0|0,0:0|0:0,0:0:0:0:
284,272,138537,2,0,L|197:297,2,90,0|0|0,0:0|0:0|0:0,0:0:0:0:
388,240,139100,1,8,0:0:0:0:
256,68,139475,6,0,P|156:56|88:104,1,180,4|0,0:0|0:0,0:0:0:0:
40,192,140037,1,0,0:0:0:0:
93,286,140225,2,0,P|169:331|256:316,1,180,8|0,0:0|0:0,0:0:0:0:
348,256,140787,1,8,0:0:0:0:
388,156,140975,2,0,P|373:111|339:83,1,90,0|0,0:0|0:0,0:0:0:0:
280,172,141350,2,0,P|248:206|241:250,1,90,0|0,0:0|0:0,0:0:0:0:
348,256,141725,2,0,P|393:265|436:252,1,90,0|0,0:0|0:0,0:0:0:0:
388,156,142100,1,8,0:0:0:0:
216,40,142475,6,0,P|156:104|156:192,1,180,12|0,0:0|0:0,0:0:0:0:
296,344,143225,2,0,P|356:280|356:192,1,180,12|0,0:0|0:0,0:0:0:0:
156,191,143975,2,0,P|155:279|216:344,1,180,12|0,0:0|0:0,0:0:0:0:
355,192,144725,2,0,P|356:104|296:40,1,180,12|0,0:0|0:0,0:0:0:0:
116,52,145475,5,12,0:0:0:0:
44,216,145850,1,4,0:0:0:0:
184,328,146225,1,12,0:0:0:0:
344,248,146600,1,4,0:0:0:0:
164,248,146975,5,12,0:0:0:0:
328,328,147350,1,4,0:0:0:0:
468,216,147725,1,12,0:0:0:0:
396,52,148100,1,4,0:0:0:0:
316,200,148475,6,0,B|256:232|256:232|196:200,1,135.000005149842,4|8,0:0|0:0,0:0:0:0:
196,120,149037,2,0,B|256:88|256:88|316:120,1,135.000005149842,4|8,0:0|0:0,0:0:0:0:
384,160,149600,1,4,0:0:0:0:
336,316,149975,1,2,0:0:0:0:
176,316,150350,1,2,0:0:0:0:
128,160,150725,1,10,0:0:0:0:
256,60,151100,1,2,0:0:0:0:
384,160,151475,6,0,B|360:224|360:224|296:244,1,135.000005149842,4|8,0:0|0:0,0:0:0:0:
216,244,152037,2,0,B|152:224|152:224|128:160,1,135.000005149842,4|8,0:0|0:0,0:0:0:0:
104,84,152600,1,4,0:0:0:0:
256,28,152975,1,2,0:0:0:0:
408,84,153350,1,2,0:0:0:0:
320,220,153725,2,0,P|256:240|192:220,1,135.000005149842,10|2,0:0|0:0,0:0:0:0:
92,92,154475,6,0,B|180:52|180:52|216:68,1,135.000005149842,4|8,0:0|0:0,0:0:0:0:
296,67,155037,2,0,B|332:52|332:52|420:92,1,135.000005149842,4|8,0:0|0:0,0:0:0:0:
400,172,155600,2,0,P|352:232|296:240,1,135.000005149842,4|2,0:0|0:0,0:0:0:0:
214,240,156162,2,0,P|149:226|112:172,1,135.000005149842,4|0,0:0|0:0,0:0:0:0:
164,108,156725,2,0,L|216:64,1,67.5000025749208,10|0,0:0|0:0,0:0:0:0:
296,64,157100,2,0,L|348:108,1,67.5000025749208,2|0,0:0|0:0,0:0:0:0:
352,188,157475,6,0,L|308:244,1,67.5000025749208,4|0,0:0|0:0,0:0:0:0:
256,308,157850,1,8,0:0:0:0:
201,241,158037,2,0,L|160:188,1,67.5000025749208,4|0,0:0|0:0,0:0:0:0:
256,308,158412,1,8,0:0:0:0:
256,308,158600,1,4,0:0:0:0:
256,140,158975,5,8,0:0:0:0:
88,224,159350,1,8,3:0:0:0:
160,288,159537,1,2,3:0:0:0:
256,308,159725,1,8,3:0:0:0:
352,288,159912,1,8,3:0:0:0:
424,224,160100,1,8,0:0:0:0:
456,56,160475,6,0,B|368:44|368:44|302:106,1,180,4|4,0:0|0:0,0:0:0:0:
210,106,161037,2,0,B|144:44|144:44|56:56,1,180,0|0,0:0|0:0,0:0:0:0:
36,148,161600,2,0,P|40:196|60:232,1,90,12|0,0:0|0:0,0:0:0:0:
44,320,161975,2,0,P|80:320|132:292,1,90,4|0,0:0|0:0,0:0:0:0:
212,264,162350,2,0,P|256:256|300:264,1,90,4|0,0:0|0:0,0:0:0:0:
384,296,162725,2,0,P|423:317|468:320,1,90,12|0,0:0|0:0,0:0:0:0:
452,231,163100,2,0,P|473:192|476:148,1,90,4|0,0:0|0:0,0:0:0:0:
424,76,163475,6,0,P|332:92|276:164,1,180,4|4,0:0|0:0,0:0:0:0:
233,228,164037,2,0,P|175:294|88:308,1,180,0|0,0:0|0:0,0:0:0:0:
40,232,164600,2,0,L|52:140,1,90,12|0,0:0|0:0,0:0:0:0:
68,44,164975,2,0,P|88:80|132:100,1,90,4|0,0:0|0:0,0:0:0:0:
212,136,165350,2,0,P|256:144|300:136,1,90,4|0,0:0|0:0,0:0:0:0:
381,99,165725,2,0,P|421:82|444:44,1,90,12|0,0:0|0:0,0:0:0:0:
460,142,166100,2,0,L|472:232,1,90,4|0,0:0|0:0,0:0:0:0:
408,296,166475,6,0,P|324:324|240:288,1,180,4|4,0:0|0:0,0:0:0:0:
180,224,167037,2,0,P|152:168|216:80,1,180,0|0,0:0|0:0,0:0:0:0:
298,80,167600,2,0,P|358:142|332:224,1,180,4|4,0:0|0:0,0:0:0:0:
269,290,168162,2,0,P|187:324|104:296,1,180,0|0,0:0|0:0,0:0:0:0:
52,220,168725,2,0,L|60:128,1,90,12|0,0:0|0:0,0:0:0:0:
152,52,169100,2,0,L|144:141,1,90,4|0,0:0|0:0,0:0:0:0:
180,224,169475,6,0,P|256:265|332:224,1,180,4|4,0:0|0:0,0:0:0:0:
332,128,170037,2,0,P|255:86|179:127,1,180,0|0,0:0|0:0,0:0:0:0:
256,176,170600,1,8,3:0:0:0:
428,192,170975,1,2,0:0:0:0:
256,324,171350,1,2,0:0:0:0:
84,192,171725,1,12,0:0:0:0:
256,60,172100,1,2,0:0:0:0:
428,192,172475,6,0,B|388:276|388:276|303:290,1,180,4|4,0:0|0:0,0:0:0:0:
209,290,173037,2,0,B|124:276|124:276|84:192,1,180,0|0,0:0|0:0,0:0:0:0:
48,104,173600,2,0,L|108:36,1,90,12|0,0:0|0:0,0:0:0:0:
176,76,173975,2,0,L|140:172,1,90,4|0,0:0|0:0,0:0:0:0:
256,180,174350,2,0,L|256:90,1,90,4|0,0:0|0:0,0:0:0:0:
336,75,174725,2,0,L|368:160,1,90,12|0,0:0|0:0,0:0:0:0:
464,104,175100,2,0,L|404:36,1,90,4|0,0:0|0:0,0:0:0:0:
368,160,175475,6,0,P|374:246|304:296,1,180,4|4,0:0|0:0,0:0:0:0:
208,295,176037,2,0,P|138:245|144:160,1,180,0|0,0:0|0:0,0:0:0:0:
252,80,176600,2,0,P|288:92|340:88,1,90,12|0,0:0|0:0,0:0:0:0:
231,151,176975,2,0,P|188:164|144:160,1,90,4|0,0:0|0:0,0:0:0:0:
272,216,177350,2,0,P|308:228|360:224,1,90,4|0,0:0|0:0,0:0:0:0:
252,288,177725,2,0,P|216:300|164:296,1,90,12|0,0:0|0:0,0:0:0:0:
88,252,178100,1,4,0:0:0:0:
168,76,178475,6,0,P|256:80|300:156,1,180,4|4,0:0|0:0,0:0:0:0:
299,268,179037,2,0,P|379:231|399:147,1,180,0|0,0:0|0:0,0:0:0:0:
344,76,179600,2,0,P|256:80|212:156,1,180,4|6,0:0|0:0,0:0:0:0:
211,268,180162,2,0,P|132:232|112:148,1,180,0|0,0:0|0:0,0:0:0:0:
128,64,180725,2,0,P|156:48|212:32,1,90,10|0,0:0|0:0,0:0:0:0:
300,32,181100,2,0,P|344:43|384:64,1,90,2|0,0:0|0:0,0:0:0:0:
448,128,181475,6,0,P|384:188|296:176,1,180,4|4,0:0|0:0,0:0:0:0:
216,140,182037,2,0,P|129:129|66:189,1,180,0|0,0:0|0:0,0:0:0:0:
84,276,182600,1,8,3:0:0:0:
256,328,182975,1,2,0:0:0:0:
428,276,183350,1,2,0:0:0:0:
340,120,183725,2,0,P|256:92|172:120,1,179.999995231629,2|2,3:0|0:0,0:0:0:0:
120,276,184475,6,0,P|83:274|43:297,2,67.5000025749208,0|0|2,0:0|0:0|0:0,0:0:0:0:
188,308,185037,2,0,P|223:319|266:307,2,67.5000025749208,0|8|2,0:0|0:0|0:0,0:0:0:0:
184,232,185600,2,0,P|195:196|183:153,1,67.5000025749208,0|2,0:0|0:0,0:0:0:0:
192,92,185975,2,0,P|155:99|123:132,1,67.5000025749208,2|2,0:0|0:0,0:0:0:0:
68,156,186350,2,0,P|92:183|136:194,1,67.5000025749208,2|2,0:0|0:0,0:0:0:0:
184,232,186725,1,8,0:0:0:0:
256,236,186912,1,2,0:0:0:0:
328,220,187100,1,2,0:0:0:0:
392,184,187287,1,2,0:0:0:0:
392,108,187475,6,0,P|428:109|468:86,2,67.5000025749208,0|0|2,0:0|0:0|0:0,0:0:0:0:
324,76,188037,2,0,P|288:64|245:76,2,67.5000025749208,0|8|0,0:0|0:0|0:0,0:0:0:0:
328,152,188600,2,0,P|316:187|328:230,1,67.5000025749208,0|2,0:0|0:0,0:0:0:0:
320,292,188975,2,0,P|356:284|388:252,1,67.5000025749208,0|0,0:0|0:0,0:0:0:0:
444,228,189350,2,0,P|419:200|375:189,1,67.5000025749208,2|2,0:0|0:0,0:0:0:0:
328,152,189725,1,10,0:0:0:0:
256,148,189912,1,2,0:0:0:0:
184,164,190100,1,2,0:0:0:0:
120,200,190287,1,0,0:0:0:0:
104,272,190475,6,0,P|156:312|220:300,1,135.000005149842,0|2,0:0|0:0,0:0:0:0:
284,264,191037,2,0,P|348:251|400:291,1,135.000005149842,2|2,0:0|0:0,0:0:0:0:
332,324,191600,2,0,L|360:192,1,135.000005149842,2|2,0:0|0:0,0:0:0:0:
376,120,192162,2,0,P|340:64|276:56,1,135.000005149842,2|2,0:0|0:0,0:0:0:0:
208,84,192725,2,0,P|171:89|131:69,1,67.5000025749208,8|2,0:0|0:0,0:0:0:0:
76,48,193100,2,0,P|68:84|88:128,1,67.5000025749208,2|2,0:0|0:0,0:0:0:0:
120,172,193475,6,0,P|133:236|93:288,1,135.000005149842,2|2,0:0|0:0,0:0:0:0:
60,220,194037,2,0,L|192:248,1,135.000005149842,0|0,0:0|0:0,0:0:0:0:
266,243,194600,2,0,P|256:208|227:182,1,67.5000025749208,2|2,0:0|0:0,0:0:0:0:
192,248,194975,2,0,P|202:283|231:309,1,67.5000025749208,2|2,0:0|0:0,0:0:0:0:
296,328,195350,1,2,0:0:0:0:
360,292,195537,1,2,0:0:0:0:
396,228,195725,1,8,0:0:0:0:
396,156,195912,1,2,0:0:0:0:
360,92,196100,2,0,L|296:124,1,67.5000025749208,2|2,0:0|0:0,0:0:0:0:
240,164,196475,6,0,P|222:193|224:230,2,67.5000025749208,0|2|0,0:0|0:0|0:0,0:0:0:0:
236,84,197037,2,0,P|217:54|183:39,2,67.5000025749208,0|8|0,0:0|0:0|0:0,0:0:0:0:
160,116,197600,2,0,P|125:134|108:168,1,67.5000025749208,0|2,0:0|0:0,0:0:0:0:
171,249,197975,2,0,P|165:217|177:186,1,67.5000025749208,0|2,0:0|0:0,0:0:0:0:
239,219,198350,2,0,P|257:253|291:270,1,67.5000025749208,2|2,0:0|0:0,0:0:0:0:
308,200,198725,1,8,0:0:0:0:
340,128,198912,1,2,0:0:0:0:
324,56,199100,1,2,0:0:0:0:
260,32,199287,1,2,0:0:0:0:
200,76,199475,6,0,P|186:41|196:-3,2,67.5000025749208,0|2|2,0:0|0:0|0:0,0:0:0:0:
188,148,200037,2,0,P|153:132|128:93,2,67.5000025749208,2|8|2,0:0|0:0|0:0,0:0:0:0:
255,162,200600,2,0,P|286:174|308:200,1,67.5000025749208,0|2,0:0|0:0,0:0:0:0:
240,300,200975,2,0,P|248:267|242:235,1,67.5000025749208,2|2,0:0|0:0,0:0:0:0:
176,264,201350,2,0,P|148:290|105:293,1,67.5000007867814,2|2,0:0|0:0,0:0:0:0:
116,224,201725,1,8,0:0:0:0:
92,152,201912,1,2,0:0:0:0:
112,80,202100,1,2,0:0:0:0:
180,48,202287,1,2,0:0:0:0:
252,48,202475,6,0,P|304:88|292:168,1,135.000005149842,0|2,0:0|0:0,0:0:0:0:
264,216,203037,2,0,P|263:281|316:324,1,135.000001573563,2|2,0:0|0:0,0:0:0:0:
388,300,203600,2,0,L|440:172,1,135.000005149842,0|2,0:0|0:0,0:0:0:0:
460,104,204162,2,0,P|408:144|336:144,1,135.000005149842,2|2,0:0|0:0,0:0:0:0:
272,116,204725,2,0,P|236:112|207:126,1,67.5000025749208,8|2,0:0|0:0,0:0:0:0:
148,168,205100,2,0,P|117:181|84:177,1,67.5000025749208,2|0,0:0|0:0,0:0:0:0:
148,168,205475,6,0,P|164:236|224:264,1,135.000005149842,0|2,0:0|0:0,0:0:0:0:
293,263,206037,2,0,P|351:232|364:168,1,135.000005149842,2|2,0:0|0:0,0:0:0:0:
384,96,206600,2,0,B|308:24|204:164|132:88,1,270.000010299683,2|2,0:0|0:0,0:0:0:0:
64,220,207725,2,0,P|68:260|104:292,1,67.5000025749208,10|2,0:0|0:0,0:0:0:0:
136,228,208100,2,0,P|132:188|96:156,1,67.5000025749208,2|2,0:0|0:0,0:0:0:0:
100,96,208475,6,0,P|152:56|220:40,1,135.000005149842,4|2,0:0|0:0,0:0:0:0:
293,40,209037,2,0,P|358:55|412:96,1,135.000005149842,0|2,0:0|0:0,0:0:0:0:
453,157,209600,2,0,P|455:192|442:230,1,67.5000025749208,2|0,0:0|0:0,0:0:0:0:
427,295,209975,2,0,P|399:283|375:247,1,67.5000025749208,2|0,0:0|0:0,0:0:0:0:
344,187,210350,2,0,P|328:155|296:131,1,67.5000025749208,2|0,0:0|0:0,0:0:0:0:
236,104,210725,1,8,0:0:0:0:
162,113,210912,1,0,0:0:0:0:
97,150,211100,1,2,0:0:0:0:
71,220,211287,1,0,0:0:0:0:
100,288,211475,6,0,P|152:328|220:344,1,135.000005149842,0|2,0:0|0:0,0:0:0:0:
293,343,212037,2,0,P|358:328|412:288,1,135.000005149842,0|2,0:0|0:0,0:0:0:0:
453,227,212600,2,0,P|455:192|442:154,1,67.5000025749208,0|0,0:0|0:0,0:0:0:0:
427,89,212975,2,0,P|399:101|375:137,1,67.5000025749208,2|0,0:0|0:0,0:0:0:0:
344,197,213350,2,0,P|328:229|296:253,1,67.5000025749208,2|0,0:0|0:0,0:0:0:0:
236,280,213725,1,8,0:0:0:0:
162,271,213912,1,0,0:0:0:0:
97,234,214100,1,2,0:0:0:0:
71,164,214287,1,0,0:0:0:0:
64,88,214475,6,0,P|124:112|144:180,1,135.000005149842,0|2,0:0|0:0,0:0:0:0:
132,248,215037,2,0,P|156:308|224:328,1,135.000005149842,0|0,0:0|0:0,0:0:0:0:
293,328,215600,2,0,P|355:308|380:248,1,135.000005149842,0|2,0:0|0:0,0:0:0:0:
367,174,216162,2,0,P|387:112|448:88,1,135.000005149842,0|2,0:0|0:0,0:0:0:0:
358,40,216725,2,0,P|314:36|278:44,1,67.5000025749208,8|2,0:0|0:0,0:0:0:0:
222,70,217100,2,0,P|188:74|155:69,1,67.5000025749208,2|2,0:0|0:0,0:0:0:0:
84,92,217475,6,0,P|116:152|104:216,1,135.000005149842,0|2,0:0|0:0,0:0:0:0:
76,288,218037,2,0,P|108:284|144:292,1,67.5000025749208,0|8,0:0|0:0,0:0:0:0:
208,324,218412,1,0,0:0:0:0:
280,308,218600,1,0,0:0:0:0:
420,264,218975,2,0,P|420:292|404:336,2,67.5000025749208,2|2|2,0:0|0:0|0:0,0:0:0:0:
408,192,219537,1,2,0:0:0:0:
395,119,219725,2,0,P|396:92|411:47,1,67.5000025749208,8|2,0:0|0:0,0:0:0:0:
328,80,220100,2,0,P|284:84|260:76,1,67.5000025749208,2|2,0:0|0:0,0:0:0:0:
192,52,220475,6,0,P|168:44|84:108,1,135.000005149842,0|2,0:0|0:0,0:0:0:0:
156,116,221037,2,0,P|156:180|208:224,1,135.000005149842,0|0,0:0|0:0,0:0:0:0:
280,236,221600,2,0,P|316:236|352:220,1,67.5000025749208,0|0,0:0|0:0,0:0:0:0:
404,180,221975,2,0,L|436:120,1,67.5000025749208,2|0,0:0|0:0,0:0:0:0:
380,72,222350,2,0,L|348:132,1,67.5000025749208,2|0,0:0|0:0,0:0:0:0:
292,84,222725,2,0,L|324:24,2,67.5000025749208,8|2|2,0:0|0:0|0:0,0:0:0:0:
244,140,223287,1,2,0:0:0:0:
183,181,223475,6,0,P|118:176|83:121,1,135.000005149842,0|2,0:0|0:0,0:0:0:0:
144,80,224037,2,0,P|208:84|243:139,1,135.000005149842,0|2,0:0|0:0,0:0:0:0:
264,212,224600,2,0,P|288:244|328:256,1,67.5000025749208,2|0,0:0|0:0,0:0:0:0:
396,178,224975,2,0,P|364:189|332:184,1,67.5000025749208,2|0,0:0|0:0,0:0:0:0:
360,116,225350,2,0,P|392:92|404:52,1,67.5000025749208,2|0,0:0|0:0,0:0:0:0:
332,52,225725,2,0,P|292:56|261:85,1,67.5000025749208,8|0,0:0|0:0,0:0:0:0:
220,128,226100,2,0,P|192:146|158:148,1,67.5000025749208,2|0,0:0|0:0,0:0:0:0:
84,144,226475,6,0,P|52:204|52:272,1,135.000005149842,0|2,0:0|0:0,0:0:0:0:
108,320,227037,2,0,P|172:328|220:280,1,135.000005149842,0|2,0:0|0:0,0:0:0:0:
292,281,227600,2,0,P|339:327|404:320,1,135.000005149842,0|2,0:0|0:0,0:0:0:0:
460,269,228162,2,0,P|459:202|428:144,1,135.000005149842,0|2,0:0|0:0,0:0:0:0:
359,114,228725,2,0,L|292:97,1,67.5000025749208,8|0,0:0|0:0,0:0:0:0:
218,97,229100,2,0,L|152:113,1,67.5000025749208,2|0,0:0|0:0,0:0:0:0:
172,184,229475,2,0,P|256:232|340:184,1,202.500007724762,0|0,0:0|0:0,0:0:0:0:
256,48,230600,1,2,0:0:0:0:
256,192,230787,12,0,233975,0:0:0:0:
