osu file format v14

[General]
AudioFilename: SOADAERIALS.mp3
AudioLeadIn: 0
PreviewTime: 34475
Countdown: 0
SampleSet: Normal
StackLeniency: 0.7
Mode: 0
LetterboxInBreaks: 0
WidescreenStoryboard: 0

[Editor]
Bookmarks: 79800,87535,148982,158614
DistanceSpacing: 1.1
BeatDivisor: 2
GridSize: 4
TimelineZoom: 1

[Metadata]
Title:Aerials
TitleUnicode:Aerials
Artist:System Of A Down
ArtistUnicode:System Of A Down
Creator:Alarido
Version:Easy
Source:
Tags:SOAD Alternative Metal Toxicity VEVO Daron Malakian Serj Tankian Shavo Odadjian John Dolmayan Danizudo Killuminati
BeatmapID:350647
BeatmapSetID:136425

[Difficulty]
HPDrainRate:2
CircleSize:3
OverallDifficulty:1
ApproachRate:3
SliderMultiplier:1.6
SliderTickRate:2

[Events]
//Background and Video events
0,0,"soadaerials.png",0,0
Video,-6805,"soadaerials.avi"
//Break Periods
2,80975,87035
2,148675,159035
//Storyboard Layer 0 (Background)
//Storyboard Layer 1 (Fail)
//Storyboard Layer 2 (Pass)
//Storyboard Layer 3 (Foreground)
//Storyboard Sound Samples

[TimingPoints]
31475,750,4,2,1,45,1,0
32600,-100,4,3,2,50,0,0
32975,-100,4,3,2,60,0,0
33350,-100,4,3,2,70,0,0
33725,-100,4,3,2,80,0,0
34100,-100,4,3,2,90,0,0
34475,-100,4,1,1,90,0,0
88475,-100,4,2,1,60,0,0
98975,-100,4,1,1,70,0,0
100475,-100,4,1,1,90,0,0
160475,-100,4,1,1,90,0,1
184475,-100,4,2,1,70,0,0
233975,-100,4,2,0,10,0,0

[Colours]
Combo1 : 184,201,182
Combo2 : 189,176,164
Combo3 : 181,190,193
Combo4 : 132,130,147
Combo5 : 49,83,111
Combo6 : 206,184,179

[HitObjects]
144,248,31475,6,0,P|256:284|368:248,1,240,2|0,0:0|3:0,0:0:0:0:
352,160,32975,2,0,L|300:100,1,80,0|8,0:0|0:0,0:0:0:0:
212,100,33725,2,0,L|160:160,1,80,10|14,0:0|0:0,0:0:0:0:
108,224,34475,5,4,0:0:0:0:
256,308,35225,1,8,0:0:0:0:
412,224,35975,2,0,P|435:282|423:352,2,120,0|0|8,0:0|0:0|0:0,0:0:0:0:
356,156,37475,6,0,P|308:112|216:100,1,160,4|8,0:0|0:0,0:0:0:0:
76,200,38975,2,0,P|52:156|48:84,2,120,0|4|8,0:0|3:0|3:0,0:0:0:0:
160,232,40475,6,0,P|144:260|100:288,2,80,4|0|8,0:0|0:0|0:0,0:0:0:0:
256,84,41975,2,0,P|224:64|176:56,2,80,0|0|8,0:0|0:0|0:0,0:0:0:0:
352,232,43475,6,0,P|367:260|412:286,2,80,0|0|8,0:0|0:0|0:0,0:0:0:0:
256,84,44975,2,0,P|288:64|384:60,2,120,8|4|8,3:0|3:0|3:0,0:0:0:0:
204,152,46475,5,4,0:0:0:0:
104,296,47225,2,0,P|64:264|36:188,2,120,8|8|0,0:0|0:0|0:0,0:0:0:0:
188,324,48725,2,0,P|232:324|268:304,1,80,0|8,0:0|0:0,0:0:0:0:
308,232,49475,5,0,0:0:0:0:
408,88,50225,2,0,P|448:120|476:196,2,120,8|8|0,0:0|0:0|0:0,0:0:0:0:
324,60,51725,2,0,P|280:60|244:80,1,80,0|8,0:0|3:0,0:0:0:0:
180,132,52475,6,0,P|161:97|164:52,2,80,4|0|8,0:0|0:0|0:0,0:0:0:0:
352,104,53975,1,0,0:0:0:0:
352,280,54725,1,8,0:0:0:0:
180,252,55475,6,0,P|161:286|164:332,2,80,0|0|8,0:0|0:0|0:0,0:0:0:0:
332,160,56975,2,0,P|300:112|236:84,2,120,2|4|8,3:0|3:0|3:0,0:0:0:0:
332,248,58475,5,4,0:0:0:0:
176,328,59225,2,0,P|112:336|60:312,2,120,8|8|0,0:0|0:0|0:0,0:0:0:0:
244,272,60725,2,0,P|256:240|232:188,1,80,0|8,0:0|0:0,0:0:0:0:
180,136,61475,5,0,0:0:0:0:
336,56,62225,2,0,P|400:48|452:72,2,120,8|8|0,0:0|0:0|0:0,0:0:0:0:
268,112,63725,2,0,P|256:144|280:196,1,80,0|8,0:0|3:0,0:0:0:0:
328,252,64475,6,0,P|364:272|404:272,2,80,4|0|8,0:0|0:0|0:0,0:0:0:0:
164,192,65975,2,0,L|80:192,2,80,0|0|8,0:0|0:0|0:0,0:0:0:0:
328,132,67475,6,0,P|364:112|404:112,2,80,4|0|8,0:0|0:0|0:0,0:0:0:0:
204,256,68975,2,0,P|152:280|84:256,2,120,8|4|8,3:0|3:0|3:0,0:0:0:0:
144,192,70475,6,0,P|200:140|288:132,1,160,4|8,0:0|0:0,0:0:0:0:
371,280,71975,2,0,P|318:306|260:304,2,120,0|0|8,0:0|0:0|0:0,0:0:0:0:
368,192,73475,6,0,P|312:140|224:132,1,160,0|8,0:0|0:0,0:0:0:0:
140,280,74975,2,0,P|193:306|252:304,2,120,0|4|8,0:0|3:0|0:0,0:0:0:0:
256,192,76475,12,0,79475,0:0:0:0:
192,84,88475,6,0,P|120:72|68:88,2,120,0|2|0,0:0|0:0|0:0,0:0:0:0:
268,128,89975,1,0,0:0:0:0:
148,256,90725,1,8,0:0:0:0:
320,300,91475,6,0,P|392:312|444:296,2,120,0|0|0,0:0|0:0|0:0,0:0:0:0:
244,256,92975,1,2,0:0:0:0:
364,128,93725,1,8,0:0:0:0:
192,88,94475,6,0,P|134:123|109:174,1,120,0|0,0:0|0:0,0:0:0:0:
196,268,95600,2,0,P|156:292|80:296,2,120,0|0|8,0:0|0:0|0:0,0:0:0:0:
256,204,97100,1,2,0:0:0:0:
316,268,97475,2,0,P|356:292|432:296,2,120,0|0|0,0:0|0:0|0:0,0:0:0:0:
256,204,98975,5,8,0:0:0:0:
412,124,99725,1,0,0:0:0:0:
248,60,100475,6,0,P|169:83|125:145,1,160,4|8,0:0|0:0,0:0:0:0:
164,316,101975,2,0,P|124:324|68:308,2,80
236,265,103100,1,8,0:0:0:0:
256,179,103475,6,0,P|323:140|401:150,1,160,0|8,0:0|0:0,0:0:0:0:
476,196,104600,2,0,P|452:224|392:236,1,80,0|0,0:0|0:0,0:0:0:0:
360,308,105350,2,0,P|334:279|323:236,1,80,0|0,0:0|0:0,0:0:0:0:
314,152,106100,1,8,3:0:0:0:
248,92,106475,6,0,P|172:112|128:188,1,160,4|8,0:0|0:0,0:0:0:0:
264,292,107975,2,0,P|340:272|384:196,1,160,4|8,0:0|0:0,0:0:0:0:
248,92,109475,6,0,P|278:57|316:42,2,80,4|0|8,0:0|0:0|0:0,0:0:0:0:
184,256,110975,2,0,P|256:286|328:256,1,160,8|0,0:0|0:0,0:0:0:0:
388,192,112100,1,8,3:0:0:0:
328,128,112475,6,0,P|256:97|184:128,1,160,4|8,0:0|0:0,0:0:0:0:
40,224,113975,2,0,P|16:192|8:148,2,80,0|0|0,0:0|0:0|0:0,0:0:0:0:
124,252,115100,1,8,0:0:0:0:
200,296,115475,6,0,P|272:332|352:312,1,160,4|8,0:0|0:0,0:0:0:0:
416,260,116600,2,0,P|432:292|432:340,2,80,0|0|0,0:0|0:0|0:0,0:0:0:0:
340,215,117725,2,0,P|304:200|281:158,1,80,0|8,0:0|3:0,0:0:0:0:
316,84,118475,6,0,P|352:68|408:76,2,80,4|0|8,0:0|0:0|0:0,0:0:0:0:
256,248,119975,2,0,L|256:328,2,80,0|0|8,0:0|0:0|0:0,0:0:0:0:
196,84,121475,6,0,P|160:68|104:76,2,80,4|0|8,0:0|0:0|0:0,0:0:0:0:
312,216,122975,2,0,P|256:235|200:216,2,120,0|4|8,0:0|3:0|3:0,0:0:0:0:
256,148,124475,5,4,0:0:0:0:
88,196,125225,2,0,L|68:316,2,120,8|8|0,0:0|0:0|0:0,0:0:0:0:
116,112,126725,2,0,P|144:92|188:92,1,80,0|8,0:0|0:0,0:0:0:0:
256,148,127475,5,0,0:0:0:0:
424,188,128225,2,0,L|444:68,2,120,8|8|0,0:0|0:0|0:0,0:0:0:0:
396,272,129725,2,0,P|368:292|324:288,1,80,0|0,0:0|0:0,0:0:0:0:
256,232,130475,5,4,0:0:0:0:
104,144,131225,1,8,0:0:0:0:
256,56,131975,1,0,0:0:0:0:
408,144,132725,1,8,0:0:0:0:
294,277,133475,6,0,P|256:288|218:277,2,80,4|0|8,0:0|0:0|0:0,0:0:0:0:
312,100,134975,2,0,P|256:82|200:100,2,120,8|4|8,3:0|3:0|3:0,0:0:0:0:
388,144,136475,6,0,P|400:102|393:66,2,80,4|0|8,0:0|0:0|0:0,0:0:0:0:
344,316,137975,1,0,0:0:0:0:
168,316,138725,1,0,0:0:0:0:
124,144,139475,6,0,P|111:102|118:66,2,80,4|0|8,0:0|0:0|0:0,0:0:0:0:
256,260,140975,2,0,L|256:348,2,80,0|0|0,0:0|0:0|0:0,0:0:0:0:
256,84,142475,5,12,0:0:0:0:
116,192,143225,1,12,0:0:0:0:
256,296,143975,1,12,0:0:0:0:
396,192,144725,1,12,0:0:0:0:
256,84,145475,6,0,P|208:84|172:108,1,80,12|4,0:0|0:0,0:0:0:0:
156,184,146225,2,0,P|156:232|180:268,1,80,12|4,0:0|0:0,0:0:0:0:
256,284,146975,2,0,P|304:284|340:260,1,80,12|4,0:0|0:0,0:0:0:0:
356,184,147725,2,0,P|356:136|332:100,1,80,12|4,0:0|0:0,0:0:0:0:
256,84,148475,5,4,0:0:0:0:
184,120,160475,6,0,P|148:104|104:112,2,80,4|4|12,0:0|0:0|0:0,0:0:0:0:
136,192,161600,2,0,P|176:292|296:288,1,240,4|12,0:0|0:0,0:0:0:0:
328,120,163475,6,0,P|364:104|408:112,2,80,4|4|12,0:0|0:0|0:0,0:0:0:0:
376,192,164600,2,0,P|336:292|216:288,1,240,4|12,0:0|0:0,0:0:0:0:
104,156,166475,6,0,P|134:109|196:80,1,120,4|0,0:0|0:0,0:0:0:0:
321,80,167600,2,0,P|374:106|408:156,1,120,4|0,0:0|0:0,0:0:0:0:
344,272,168725,1,12,0:0:0:0:
256,280,169100,1,4,0:0:0:0:
180,324,169475,6,0,P|116:328|60:296,2,120,4|0|8,0:0|0:0|3:0,0:0:0:0:
256,280,170975,1,4,0:0:0:0:
256,104,171725,1,12,0:0:0:0:
372,240,172475,6,0,P|408:256|452:248,2,80,4|4|12,0:0|0:0|0:0,0:0:0:0:
256,104,173975,2,0,P|229:75|192:56,1,80,4|4,0:0|0:0,0:0:0:0:
105,68,174725,2,0,P|89:104|83:143,1,80,12|4,0:0|0:0,0:0:0:0:
124,224,175475,6,0,P|85:234|32:216,2,80,4|4|12,0:0|0:0|0:0,0:0:0:0:
256,103,176975,2,0,P|283:75|318:56,1,80,4|4,0:0|0:0,0:0:0:0:
406,68,177725,2,0,P|422:104|428:143,1,80,12|4,0:0|0:0,0:0:0:0:
432,232,178475,6,0,P|376:248|316:228,1,120,4|0,0:0|0:0,0:0:0:0:
200,172,179600,2,0,P|143:153|86:169,2,120,4|0|12,0:0|0:0|0:0,0:0:0:0:
256,240,181100,5,4,0:0:0:0:
312,172,181475,2,0,P|368:153|425:169,2,120,4|0|4,0:0|0:0|0:0,0:0:0:0:
256,240,182975,1,4,0:0:0:0:
256,76,183725,1,2,0:3:0:0:
92,172,184475,6,0,P|68:116|76:40,2,120,0|0|0,0:0|0:0|0:0,0:0:0:0:
160,228,185975,1,2,0:0:0:0:
283,103,186725,1,8,0:0:0:0:
420,212,187475,6,0,P|444:268|436:344,2,120,0|0|0,0:0|0:0|0:0,0:0:0:0:
352,156,188975,1,0,0:0:0:0:
229,281,189725,1,8,0:0:0:0:
120,140,190475,6,0,P|152:72|192:56,1,120,0|0,0:0|0:0,0:0:0:0:
321,56,191600,2,0,P|376:88|392:140,1,120,0|0,0:0|0:0,0:0:0:0:
294,228,192725,2,0,P|256:240|218:228,1,80,8|2,0:0|0:0,0:0:0:0:
200,144,193475,6,0,P|256:126|312:144,2,120,0|0|0,0:0|0:0|0:0,0:0:0:0:
128,192,194975,1,2,0:0:0:0:
268,300,195725,1,8,0:0:0:0:
420,212,196475,6,0,P|444:268|436:344,2,120,0|0|0,0:0|0:0|0:0,0:0:0:0:
352,156,197975,1,2,0:0:0:0:
229,281,198725,1,8,0:0:0:0:
92,172,199475,6,0,P|68:116|76:40,1,120,0|0,0:0|0:0,0:0:0:0:
196,92,200600,2,0,B|296:128|328:36|432:72,1,240,0|8,0:0|0:0,0:0:0:0:
392,244,202475,6,0,P|360:312|320:328,1,120,0|0,0:0|0:0,0:0:0:0:
190,327,203600,2,0,P|138:299|120:244,1,120,0|0,0:0|0:0,0:0:0:0:
218,156,204725,2,0,P|256:144|294:156,1,80,8|2,0:0|0:0,0:0:0:0:
312,240,205475,6,0,P|256:258|200:240,2,120,0|0|0,0:0|0:0|0:0,0:0:0:0:
384,192,206975,1,2,0:0:0:0:
256,72,207725,1,8,0:0:0:0:
172,216,208475,6,0,P|116:229|56:188,2,120,4|0|0,0:0|0:0|0:0,0:0:0:0:
128,140,209975,2,0,P|180:80|256:72,1,160,2|8,0:0|0:0,0:0:0:0:
340,216,211475,6,0,P|395:229|456:188,2,120,0|0|0,0:0|0:0|0:0,0:0:0:0:
384,140,212975,2,0,P|332:80|256:72,1,160,2|8,0:0|0:0,0:0:0:0:
88,124,214475,6,0,L|44:236,1,120,0|0,0:0|0:0,0:0:0:0:
140,324,215600,2,0,L|184:212,1,120,0|0,0:0|0:0,0:0:0:0:
196,80,216725,6,0,P|228:104|272:104,1,80,8|2,0:0|0:0,0:0:0:0:
352,84,217475,2,0,P|408:76|468:104,2,120,0|0|0,0:0|0:0|0:0,0:0:0:0:
267,106,218975,1,2,0:0:0:0:
256,284,219725,1,8,0:0:0:0:
160,136,220475,6,0,P|104:132|48:176,2,120,0|0|0,0:0|0:0|0:0,0:0:0:0:
128,216,221975,2,0,P|180:276|256:284,1,160,2|8,0:0|0:0,0:0:0:0:
352,136,223475,6,0,P|408:132|464:184,2,120,0|0|0,0:0|0:0|0:0,0:0:0:0:
384,216,224975,2,0,P|332:276|256:284,1,160,2|8,0:0|0:0,0:0:0:0:
112,180,226475,6,0,L|188:88,1,120,0|0,0:0|0:0,0:0:0:0:
324,88,227600,2,0,L|400:180,1,120,0|0,0:0|0:0,0:0:0:0:
294,260,228725,2,0,P|256:271|218:259,1,80,8|2,0:0|0:0,0:0:0:0:
256,180,229475,2,0,L|256:60,1,120,0|0,0:0|0:0,0:0:0:0:
256,192,230600,12,0,233975,0:0:0:0:
