osu file format v12

[General]
AudioFilename: -Syrufit-- comouflage-white clear-.mp3
AudioLeadIn: 0
PreviewTime: 134004
Countdown: 0
SampleSet: Normal
StackLeniency: 0.7
Mode: 3
LetterboxInBreaks: 0
SpecialStyle: 0
WidescreenStoryboard: 1

[Editor]
DistanceSpacing: 1
BeatDivisor: 4
GridSize: 8
TimelineZoom: 0.6

[Metadata]
Title:Camouflage
TitleUnicode:Camouflage
Artist:Syrufit ft. Mei Ayakura
ArtistUnicode:Syrufit ft. Mei Ayakura
Creator:MoonLightz
Version:Vocals
Source:Touhou
Tags:White clear MoonLightz World game remix
BeatmapID:387532
BeatmapSetID:158456

[Difficulty]
HPDrainRate:5
CircleSize:4
OverallDifficulty:8
ApproachRate:5
SliderMultiplier:1.4
SliderTickRate:1

[Events]
//Background and Video events
0,0,"thepicture.jpg",0,0
//Break Periods
2,164204,192804
//Storyboard Layer 0 (Background)
//Storyboard Layer 1 (Fail)
//Storyboard Layer 2 (Pass)
//Storyboard Layer 3 (Foreground)
//Storyboard Sound Samples
//Background Colour Transformations
3,100,163,162,255

[TimingPoints]
29004.8365116018,468.75,4,1,0,100,1,0

[HitObjects]
32,192,74004,5,0,0:0:0:0:
96,192,74473,1,0,0:0:0:0:
160,192,74707,1,0,0:0:0:0:
96,192,74825,1,0,0:0:0:0:
160,192,75176,1,0,0:0:0:0:
96,192,75411,1,0,0:0:0:0:
160,192,75645,1,0,0:0:0:0:
96,192,75762,1,0,0:0:0:0:
160,192,76114,1,0,0:0:0:0:
96,192,76348,1,0,0:0:0:0:
160,192,76582,1,0,0:0:0:0:
96,192,76700,1,0,0:0:0:0:
224,192,77051,1,0,0:0:0:0:
160,192,77286,1,0,0:0:0:0:
416,192,77754,1,0,0:0:0:0:
352,192,78223,1,0,0:0:0:0:
448,192,78340,1,0,0:0:0:0:
352,192,78575,1,0,0:0:0:0:
416,192,78926,1,0,0:0:0:0:
352,192,79161,1,0,0:0:0:0:
416,192,79395,1,0,0:0:0:0:
352,192,79512,1,0,0:0:0:0:
416,192,79864,1,0,0:0:0:0:
352,192,80098,1,0,0:0:0:0:
416,192,80332,1,0,0:0:0:0:
352,192,80450,1,0,0:0:0:0:
480,192,80801,1,0,0:0:0:0:
416,192,81036,1,0,0:0:0:0:
32,192,81504,1,0,0:0:0:0:
96,192,81973,1,0,0:0:0:0:
160,192,82207,1,0,0:0:0:0:
96,192,82325,1,0,0:0:0:0:
160,192,82676,1,0,0:0:0:0:
96,192,82911,1,0,0:0:0:0:
160,192,83145,1,0,0:0:0:0:
96,192,83262,1,0,0:0:0:0:
160,192,83614,1,0,0:0:0:0:
96,192,83848,1,0,0:0:0:0:
160,192,84082,1,0,0:0:0:0:
96,192,84200,1,0,0:0:0:0:
224,192,84551,1,0,0:0:0:0:
160,192,84786,1,0,0:0:0:0:
416,192,85254,1,0,0:0:0:0:
352,192,85723,1,0,0:0:0:0:
448,192,85840,1,0,0:0:0:0:
352,192,86075,1,0,0:0:0:0:
416,192,86426,1,0,0:0:0:0:
352,192,86661,1,0,0:0:0:0:
416,192,86895,1,0,0:0:0:0:
352,192,87012,1,0,0:0:0:0:
416,192,87364,1,0,0:0:0:0:
352,192,87598,1,0,0:0:0:0:
416,192,87832,1,0,0:0:0:0:
352,192,87950,1,0,0:0:0:0:
480,192,88301,1,0,0:0:0:0:
416,192,88536,1,0,0:0:0:0:
32,192,89004,1,0,0:0:0:0:
96,192,89473,1,0,0:0:0:0:
160,192,89707,1,0,0:0:0:0:
96,192,89825,1,0,0:0:0:0:
160,192,90176,1,0,0:0:0:0:
96,192,90411,1,0,0:0:0:0:
160,192,90645,1,0,0:0:0:0:
96,192,90762,1,0,0:0:0:0:
160,192,91114,1,0,0:0:0:0:
96,192,91348,1,0,0:0:0:0:
160,192,91582,1,0,0:0:0:0:
96,192,91700,1,0,0:0:0:0:
224,192,92051,1,0,0:0:0:0:
160,192,92286,1,0,0:0:0:0:
416,192,92754,1,0,0:0:0:0:
352,192,93223,1,0,0:0:0:0:
448,192,93340,1,0,0:0:0:0:
352,192,93575,1,0,0:0:0:0:
416,192,93926,1,0,0:0:0:0:
352,192,94161,1,0,0:0:0:0:
416,192,94395,1,0,0:0:0:0:
352,192,94512,1,0,0:0:0:0:
416,192,94864,1,0,0:0:0:0:
352,192,95098,1,0,0:0:0:0:
416,192,95332,1,0,0:0:0:0:
352,192,95450,1,0,0:0:0:0:
480,192,95801,1,0,0:0:0:0:
416,192,96036,1,0,0:0:0:0:
32,192,96504,1,0,0:0:0:0:
96,192,96973,1,0,0:0:0:0:
160,192,97207,1,0,0:0:0:0:
96,192,97325,1,0,0:0:0:0:
160,192,97676,1,0,0:0:0:0:
96,192,97911,1,0,0:0:0:0:
160,192,98145,1,0,0:0:0:0:
96,192,98262,1,0,0:0:0:0:
160,192,98614,1,0,0:0:0:0:
96,192,98848,1,0,0:0:0:0:
160,192,99082,1,0,0:0:0:0:
96,192,99200,1,0,0:0:0:0:
224,192,99551,1,0,0:0:0:0:
160,192,99786,1,0,0:0:0:0:
416,192,100254,1,0,0:0:0:0:
352,192,100723,1,0,0:0:0:0:
448,192,100840,1,0,0:0:0:0:
352,192,101075,1,0,0:0:0:0:
416,192,101426,1,0,0:0:0:0:
352,192,101661,1,0,0:0:0:0:
416,192,101895,1,0,0:0:0:0:
352,192,102012,1,0,0:0:0:0:
416,192,102364,1,0,0:0:0:0:
352,192,102598,1,0,0:0:0:0:
416,192,102832,1,0,0:0:0:0:
352,192,102950,1,0,0:0:0:0:
480,192,103301,1,0,0:0:0:0:
416,192,103536,1,0,0:0:0:0:
320,192,104004,1,0,0:0:0:0:
192,192,104473,1,0,0:0:0:0:
64,192,104707,1,0,0:0:0:0:
192,192,104942,1,0,0:0:0:0:
320,192,105176,1,0,0:0:0:0:
448,192,105411,1,0,0:0:0:0:
320,192,105528,1,0,0:0:0:0:
64,192,105762,1,0,0:0:0:0:
64,192,106114,1,0,0:0:0:0:
192,192,106348,1,0,0:0:0:0:
320,192,106348,1,0,0:0:0:0:
64,192,106582,1,0,0:0:0:0:
448,192,106582,1,0,0:0:0:0:
192,192,106817,1,0,0:0:0:0:
320,192,106817,1,0,0:0:0:0:
64,192,107286,1,0,0:0:0:0:
448,192,107286,1,0,0:0:0:0:
192,192,107520,1,0,0:0:0:0:
320,192,107520,1,0,0:0:0:0:
64,192,107754,1,0,0:0:0:0:
448,192,107754,1,0,0:0:0:0:
192,192,108223,1,0,0:0:0:0:
64,192,108457,1,0,0:0:0:0:
192,192,108692,1,0,0:0:0:0:
320,192,108926,1,0,0:0:0:0:
448,192,109161,1,0,0:0:0:0:
320,192,109278,1,0,0:0:0:0:
64,192,109512,1,0,0:0:0:0:
192,192,109864,1,0,0:0:0:0:
320,192,109864,1,0,0:0:0:0:
64,192,110098,1,0,0:0:0:0:
448,192,110098,1,0,0:0:0:0:
192,192,110332,1,0,0:0:0:0:
320,192,110332,1,0,0:0:0:0:
448,192,110567,1,0,0:0:0:0:
64,192,111036,1,0,0:0:0:0:
64,192,111504,1,0,0:0:0:0:
64,192,111973,1,0,0:0:0:0:
192,192,112207,1,0,0:0:0:0:
320,192,112442,1,0,0:0:0:0:
448,192,112676,1,0,0:0:0:0:
320,192,112911,1,0,0:0:0:0:
192,192,113028,1,0,0:0:0:0:
64,192,113262,1,0,0:0:0:0:
192,192,113614,1,0,0:0:0:0:
320,192,113614,1,0,0:0:0:0:
64,192,113848,1,0,0:0:0:0:
448,192,113848,1,0,0:0:0:0:
192,192,114082,1,0,0:0:0:0:
320,192,114082,1,0,0:0:0:0:
448,192,114317,1,0,0:0:0:0:
192,192,114786,1,0,0:0:0:0:
320,192,114786,1,0,0:0:0:0:
448,192,115020,1,0,0:0:0:0:
64,192,115020,1,0,0:0:0:0:
192,192,115254,1,0,0:0:0:0:
320,192,115254,1,0,0:0:0:0:
64,192,115723,1,0,0:0:0:0:
192,192,115957,1,0,0:0:0:0:
320,192,116192,1,0,0:0:0:0:
448,192,116426,1,0,0:0:0:0:
320,192,116661,1,0,0:0:0:0:
192,192,116778,1,0,0:0:0:0:
64,192,117012,1,0,0:0:0:0:
64,192,117364,1,0,0:0:0:0:
320,192,117364,1,0,0:0:0:0:
64,192,117598,1,0,0:0:0:0:
192,192,117598,1,0,0:0:0:0:
64,192,117832,1,0,0:0:0:0:
320,192,117832,1,0,0:0:0:0:
64,192,118067,1,0,0:0:0:0:
192,192,118067,1,0,0:0:0:0:
64,192,118536,1,0,0:0:0:0:
64,192,119004,1,0,0:0:0:0:
192,192,119473,1,0,0:0:0:0:
64,192,119707,1,0,0:0:0:0:
192,192,119942,1,0,0:0:0:0:
320,192,120176,1,0,0:0:0:0:
448,192,120411,1,0,0:0:0:0:
320,192,120528,1,0,0:0:0:0:
192,192,120762,1,0,0:0:0:0:
64,192,121114,1,0,0:0:0:0:
192,192,121348,1,0,0:0:0:0:
320,192,121348,1,0,0:0:0:0:
64,192,121582,1,0,0:0:0:0:
448,192,121582,1,0,0:0:0:0:
192,192,121817,1,0,0:0:0:0:
320,192,121817,1,0,0:0:0:0:
64,192,122286,1,0,0:0:0:0:
448,192,122286,1,0,0:0:0:0:
192,192,122520,1,0,0:0:0:0:
320,192,122520,1,0,0:0:0:0:
64,192,122754,1,0,0:0:0:0:
448,192,122754,1,0,0:0:0:0:
64,192,123223,1,0,0:0:0:0:
192,192,123457,1,0,0:0:0:0:
320,192,123692,1,0,0:0:0:0:
448,192,123926,1,0,0:0:0:0:
320,192,124161,1,0,0:0:0:0:
192,192,124278,1,0,0:0:0:0:
64,192,124512,1,0,0:0:0:0:
192,192,124864,1,0,0:0:0:0:
320,192,124864,1,0,0:0:0:0:
64,192,125098,1,0,0:0:0:0:
448,192,125098,1,0,0:0:0:0:
192,192,125332,1,0,0:0:0:0:
320,192,125332,1,0,0:0:0:0:
448,192,125567,1,0,0:0:0:0:
64,192,126036,1,0,0:0:0:0:
64,192,126504,1,0,0:0:0:0:
192,192,126973,1,0,0:0:0:0:
320,192,127207,1,0,0:0:0:0:
448,192,127442,1,0,0:0:0:0:
320,192,127676,1,0,0:0:0:0:
192,192,127911,1,0,0:0:0:0:
64,192,128028,1,0,0:0:0:0:
320,192,128262,1,0,0:0:0:0:
64,192,128614,1,0,0:0:0:0:
192,192,128848,1,0,0:0:0:0:
64,192,129082,1,0,0:0:0:0:
192,192,129317,1,0,0:0:0:0:
320,192,129786,1,0,0:0:0:0:
64,192,130020,1,0,0:0:0:0:
192,192,130254,1,0,0:0:0:0:
192,192,130723,1,0,0:0:0:0:
64,192,130957,1,0,0:0:0:0:
192,192,131192,1,0,0:0:0:0:
320,192,131426,1,0,0:0:0:0:
448,192,131661,1,0,0:0:0:0:
320,192,131778,1,0,0:0:0:0:
192,192,132012,1,0,0:0:0:0:
192,192,132364,1,0,0:0:0:0:
320,192,132364,1,0,0:0:0:0:
64,192,132598,1,0,0:0:0:0:
448,192,132598,1,0,0:0:0:0:
192,192,132832,1,0,0:0:0:0:
320,192,132832,1,0,0:0:0:0:
448,192,133067,1,0,0:0:0:0:
64,192,133536,1,0,0:0:0:0:
64,192,134004,1,0,0:0:0:0:
192,192,134239,1,0,0:0:0:0:
320,192,134473,1,0,0:0:0:0:
64,192,134707,1,0,0:0:0:0:
192,192,134825,1,0,0:0:0:0:
64,192,135176,1,0,0:0:0:0:
192,192,135411,1,0,0:0:0:0:
64,192,135645,1,0,0:0:0:0:
192,192,135879,1,0,0:0:0:0:
192,192,136114,1,0,0:0:0:0:
320,192,136348,1,0,0:0:0:0:
448,192,136582,1,0,0:0:0:0:
320,192,136700,1,0,0:0:0:0:
448,192,137051,1,0,0:0:0:0:
64,192,137286,1,0,0:0:0:0:
64,192,137754,1,0,0:0:0:0:
192,192,137989,1,0,0:0:0:0:
320,192,138223,1,0,0:0:0:0:
64,192,138457,1,0,0:0:0:0:
192,192,138575,1,0,0:0:0:0:
448,192,138926,1,0,0:0:0:0:
320,192,139161,1,0,0:0:0:0:
192,192,139395,1,0,0:0:0:0:
64,192,139629,1,0,0:0:0:0:
448,192,139629,1,0,0:0:0:0:
192,192,140098,1,0,0:0:0:0:
320,192,140098,1,0,0:0:0:0:
64,192,140332,1,0,0:0:0:0:
320,192,140332,1,0,0:0:0:0:
192,192,140567,1,0,0:0:0:0:
320,192,140567,1,0,0:0:0:0:
64,192,141036,1,0,0:0:0:0:
64,192,141504,1,0,0:0:0:0:
192,192,141739,1,0,0:0:0:0:
320,192,141973,1,0,0:0:0:0:
448,192,142207,1,0,0:0:0:0:
320,192,142325,1,0,0:0:0:0:
64,192,142676,1,0,0:0:0:0:
192,192,142911,1,0,0:0:0:0:
64,192,143145,1,0,0:0:0:0:
192,192,143379,1,0,0:0:0:0:
64,192,143614,1,0,0:0:0:0:
192,192,143848,1,0,0:0:0:0:
320,192,144082,1,0,0:0:0:0:
448,192,144200,1,0,0:0:0:0:
320,192,144551,1,0,0:0:0:0:
64,192,144786,1,0,0:0:0:0:
64,192,145254,1,0,0:0:0:0:
192,192,145489,1,0,0:0:0:0:
64,192,145723,1,0,0:0:0:0:
192,192,145957,1,0,0:0:0:0:
320,192,146075,1,0,0:0:0:0:
64,192,147129,1,0,0:0:0:0:
192,192,147364,1,0,0:0:0:0:
64,192,147598,1,0,0:0:0:0:
64,192,147832,1,0,0:0:0:0:
192,192,147950,1,0,0:0:0:0:
192,192,148301,1,0,0:0:0:0:
320,192,148301,1,0,0:0:0:0:
64,192,148536,1,0,0:0:0:0:
448,192,148536,1,0,0:0:0:0:
64,192,149004,1,0,0:0:0:0:
192,192,149239,1,0,0:0:0:0:
64,192,149473,1,0,0:0:0:0:
64,192,149707,1,0,0:0:0:0:
192,192,149825,1,0,0:0:0:0:
64,192,150176,1,0,0:0:0:0:
192,192,150411,1,0,0:0:0:0:
320,192,150645,1,0,0:0:0:0:
448,192,150879,1,0,0:0:0:0:
320,192,151114,1,0,0:0:0:0:
192,192,151348,1,0,0:0:0:0:
192,192,151582,1,0,0:0:0:0:
64,192,151700,1,0,0:0:0:0:
64,192,152051,1,0,0:0:0:0:
64,192,152286,1,0,0:0:0:0:
64,192,152754,1,0,0:0:0:0:
192,192,152989,1,0,0:0:0:0:
320,192,153223,1,0,0:0:0:0:
448,192,153457,1,0,0:0:0:0:
64,192,153575,1,0,0:0:0:0:
64,192,153926,1,0,0:0:0:0:
192,192,154161,1,0,0:0:0:0:
320,192,154395,1,0,0:0:0:0:
448,192,154629,1,0,0:0:0:0:
64,192,155098,1,0,0:0:0:0:
448,192,155098,1,0,0:0:0:0:
192,192,155332,1,0,0:0:0:0:
320,192,155332,1,0,0:0:0:0:
64,192,155567,1,0,0:0:0:0:
448,192,155567,1,0,0:0:0:0:
64,192,156036,1,0,0:0:0:0:
320,192,156504,1,0,0:0:0:0:
64,192,156739,1,0,0:0:0:0:
192,192,156973,1,0,0:0:0:0:
64,192,157207,1,0,0:0:0:0:
192,192,157325,1,0,0:0:0:0:
64,192,157676,1,0,0:0:0:0:
64,192,157911,1,0,0:0:0:0:
64,192,158379,1,0,0:0:0:0:
192,192,158614,1,0,0:0:0:0:
320,192,158848,1,0,0:0:0:0:
192,192,159082,1,0,0:0:0:0:
64,192,159200,1,0,0:0:0:0:
192,192,159551,1,0,0:0:0:0:
64,192,159786,1,0,0:0:0:0:
320,192,160254,1,0,0:0:0:0:
64,192,160489,1,0,0:0:0:0:
320,192,160723,1,0,0:0:0:0:
192,192,160957,1,0,0:0:0:0:
64,192,161075,1,0,0:0:0:0:
64,192,162129,1,0,0:0:0:0:
192,192,162364,1,0,0:0:0:0:
64,192,162598,1,0,0:0:0:0:
320,192,162832,1,0,0:0:0:0:
448,192,162950,1,0,0:0:0:0:
192,192,163301,1,0,0:0:0:0:
320,192,163301,1,0,0:0:0:0:
64,192,163536,1,0,0:0:0:0:
448,192,163536,1,0,0:0:0:0:
192,192,163770,1,0,0:0:0:0:
320,192,163770,1,0,0:0:0:0:
64,192,164004,1,0,0:0:0:0:
320,192,164004,1,0,0:0:0:0:
448,192,194004,5,0,0:0:0:0:
448,192,194473,1,0,0:0:0:0:
320,192,194707,1,0,0:0:0:0:
448,192,194825,1,0,0:0:0:0:
320,192,195176,1,0,0:0:0:0:
448,192,195411,1,0,0:0:0:0:
320,192,195645,1,0,0:0:0:0:
448,192,195762,1,0,0:0:0:0:
320,192,196114,1,0,0:0:0:0:
448,192,196348,1,0,0:0:0:0:
320,192,196582,1,0,0:0:0:0:
448,192,196700,1,0,0:0:0:0:
320,192,197051,1,0,0:0:0:0:
320,192,197286,1,0,0:0:0:0:
64,192,197754,1,0,0:0:0:0:
192,192,198223,1,0,0:0:0:0:
64,192,198340,1,0,0:0:0:0:
192,192,198575,1,0,0:0:0:0:
64,192,198926,1,0,0:0:0:0:
192,192,199161,1,0,0:0:0:0:
64,192,199395,1,0,0:0:0:0:
192,192,199512,1,0,0:0:0:0:
64,192,199864,1,0,0:0:0:0:
192,192,200098,1,0,0:0:0:0:
64,192,200332,1,0,0:0:0:0:
192,192,200450,1,0,0:0:0:0:
64,192,200801,1,0,0:0:0:0:
64,192,201036,1,0,0:0:0:0:
448,192,201504,1,0,0:0:0:0:
448,192,201973,1,0,0:0:0:0:
320,192,202207,1,0,0:0:0:0:
448,192,202325,1,0,0:0:0:0:
320,192,202676,1,0,0:0:0:0:
448,192,202911,1,0,0:0:0:0:
320,192,203145,1,0,0:0:0:0:
448,192,203262,1,0,0:0:0:0:
320,192,203614,1,0,0:0:0:0:
448,192,203848,1,0,0:0:0:0:
320,192,204082,1,0,0:0:0:0:
448,192,204200,1,0,0:0:0:0:
320,192,204551,1,0,0:0:0:0:
320,192,204786,1,0,0:0:0:0:
64,192,205254,1,0,0:0:0:0:
192,192,205723,1,0,0:0:0:0:
64,192,205840,1,0,0:0:0:0:
192,192,206075,1,0,0:0:0:0:
64,192,206426,1,0,0:0:0:0:
192,192,206661,1,0,0:0:0:0:
64,192,206895,1,0,0:0:0:0:
192,192,207012,1,0,0:0:0:0:
64,192,207364,1,0,0:0:0:0:
192,192,207598,1,0,0:0:0:0:
64,192,207832,1,0,0:0:0:0:
192,192,207950,1,0,0:0:0:0:
64,192,208301,1,0,0:0:0:0:
64,192,208536,1,0,0:0:0:0:
448,192,209004,1,0,0:0:0:0:
448,192,209473,1,0,0:0:0:0:
320,192,209707,1,0,0:0:0:0:
448,192,209825,1,0,0:0:0:0:
320,192,210176,1,0,0:0:0:0:
448,192,210411,1,0,0:0:0:0:
320,192,210645,1,0,0:0:0:0:
448,192,210762,1,0,0:0:0:0:
320,192,211114,1,0,0:0:0:0:
448,192,211348,1,0,0:0:0:0:
320,192,211582,1,0,0:0:0:0:
448,192,211700,1,0,0:0:0:0:
320,192,212051,1,0,0:0:0:0:
320,192,212286,1,0,0:0:0:0:
64,192,212754,1,0,0:0:0:0:
192,192,213223,1,0,0:0:0:0:
64,192,213340,1,0,0:0:0:0:
192,192,213575,1,0,0:0:0:0:
64,192,213926,1,0,0:0:0:0:
192,192,214161,1,0,0:0:0:0:
64,192,214395,1,0,0:0:0:0:
192,192,214512,1,0,0:0:0:0:
64,192,214864,1,0,0:0:0:0:
192,192,215098,1,0,0:0:0:0:
64,192,215332,1,0,0:0:0:0:
192,192,215450,1,0,0:0:0:0:
64,192,215801,1,0,0:0:0:0:
64,192,216036,1,0,0:0:0:0:
448,192,216504,1,0,0:0:0:0:
448,192,216973,1,0,0:0:0:0:
320,192,217207,1,0,0:0:0:0:
448,192,217325,1,0,0:0:0:0:
320,192,217676,1,0,0:0:0:0:
448,192,217911,1,0,0:0:0:0:
320,192,218145,1,0,0:0:0:0:
448,192,218262,1,0,0:0:0:0:
320,192,218614,1,0,0:0:0:0:
448,192,218848,1,0,0:0:0:0:
320,192,219082,1,0,0:0:0:0:
448,192,219200,1,0,0:0:0:0:
320,192,219551,1,0,0:0:0:0:
320,192,219786,1,0,0:0:0:0:
64,192,220254,1,0,0:0:0:0:
192,192,220723,1,0,0:0:0:0:
64,192,220840,1,0,0:0:0:0:
192,192,221075,1,0,0:0:0:0:
64,192,221426,1,0,0:0:0:0:
192,192,221661,1,0,0:0:0:0:
64,192,221895,1,0,0:0:0:0:
192,192,222012,1,0,0:0:0:0:
64,192,222364,1,0,0:0:0:0:
192,192,222598,1,0,0:0:0:0:
64,192,222832,1,0,0:0:0:0:
192,192,222950,1,0,0:0:0:0:
64,192,223301,1,0,0:0:0:0:
64,192,223536,1,0,0:0:0:0:
192,192,224004,1,0,0:0:0:0:
320,192,224473,1,0,0:0:0:0:
448,192,224707,1,0,0:0:0:0:
320,192,224942,1,0,0:0:0:0:
192,192,225176,1,0,0:0:0:0:
64,192,225411,1,0,0:0:0:0:
192,192,225528,1,0,0:0:0:0:
448,192,225762,1,0,0:0:0:0:
448,192,226114,1,0,0:0:0:0:
320,192,226348,1,0,0:0:0:0:
192,192,226348,1,0,0:0:0:0:
448,192,226582,1,0,0:0:0:0:
64,192,226582,1,0,0:0:0:0:
320,192,226817,1,0,0:0:0:0:
192,192,226817,1,0,0:0:0:0:
448,192,227286,1,0,0:0:0:0:
64,192,227286,1,0,0:0:0:0:
320,192,227520,1,0,0:0:0:0:
192,192,227520,1,0,0:0:0:0:
448,192,227754,1,0,0:0:0:0:
64,192,227754,1,0,0:0:0:0:
320,192,228223,1,0,0:0:0:0:
448,192,228457,1,0,0:0:0:0:
320,192,228692,1,0,0:0:0:0:
192,192,228926,1,0,0:0:0:0:
64,192,229161,1,0,0:0:0:0:
192,192,229278,1,0,0:0:0:0:
448,192,229512,1,0,0:0:0:0:
320,192,229864,1,0,0:0:0:0:
192,192,229864,1,0,0:0:0:0:
448,192,230098,1,0,0:0:0:0:
64,192,230098,1,0,0:0:0:0:
320,192,230332,1,0,0:0:0:0:
192,192,230332,1,0,0:0:0:0:
64,192,230567,1,0,0:0:0:0:
448,192,231036,1,0,0:0:0:0:
448,192,231504,1,0,0:0:0:0:
448,192,231973,1,0,0:0:0:0:
320,192,232207,1,0,0:0:0:0:
192,192,232442,1,0,0:0:0:0:
64,192,232676,1,0,0:0:0:0:
192,192,232911,1,0,0:0:0:0:
320,192,233028,1,0,0:0:0:0:
448,192,233262,1,0,0:0:0:0:
320,192,233614,1,0,0:0:0:0:
192,192,233614,1,0,0:0:0:0:
448,192,233848,1,0,0:0:0:0:
64,192,233848,1,0,0:0:0:0:
320,192,234082,1,0,0:0:0:0:
192,192,234082,1,0,0:0:0:0:
64,192,234317,1,0,0:0:0:0:
320,192,234786,1,0,0:0:0:0:
192,192,234786,1,0,0:0:0:0:
64,192,235020,1,0,0:0:0:0:
448,192,235020,1,0,0:0:0:0:
320,192,235254,1,0,0:0:0:0:
192,192,235254,1,0,0:0:0:0:
448,192,235723,1,0,0:0:0:0:
320,192,235957,1,0,0:0:0:0:
192,192,236192,1,0,0:0:0:0:
64,192,236426,1,0,0:0:0:0:
192,192,236661,1,0,0:0:0:0:
320,192,236778,1,0,0:0:0:0:
448,192,237012,1,0,0:0:0:0:
448,192,237364,1,0,0:0:0:0:
192,192,237364,1,0,0:0:0:0:
448,192,237598,1,0,0:0:0:0:
320,192,237598,1,0,0:0:0:0:
448,192,237832,1,0,0:0:0:0:
192,192,237832,1,0,0:0:0:0:
448,192,238067,1,0,0:0:0:0:
320,192,238067,1,0,0:0:0:0:
448,192,238536,1,0,0:0:0:0:
448,192,239004,1,0,0:0:0:0:
320,192,239473,1,0,0:0:0:0:
448,192,239707,1,0,0:0:0:0:
320,192,239942,1,0,0:0:0:0:
192,192,240176,1,0,0:0:0:0:
64,192,240411,1,0,0:0:0:0:
192,192,240528,1,0,0:0:0:0:
320,192,240762,1,0,0:0:0:0:
448,192,241114,1,0,0:0:0:0:
320,192,241348,1,0,0:0:0:0:
192,192,241348,1,0,0:0:0:0:
448,192,241582,1,0,0:0:0:0:
64,192,241582,1,0,0:0:0:0:
320,192,241817,1,0,0:0:0:0:
192,192,241817,1,0,0:0:0:0:
448,192,242286,1,0,0:0:0:0:
64,192,242286,1,0,0:0:0:0:
320,192,242520,1,0,0:0:0:0:
192,192,242520,1,0,0:0:0:0:
448,192,242754,1,0,0:0:0:0:
64,192,242754,1,0,0:0:0:0:
448,192,243223,1,0,0:0:0:0:
320,192,243457,1,0,0:0:0:0:
192,192,243692,1,0,0:0:0:0:
64,192,243926,1,0,0:0:0:0:
192,192,244161,1,0,0:0:0:0:
320,192,244278,1,0,0:0:0:0:
448,192,244512,1,0,0:0:0:0:
320,192,244864,1,0,0:0:0:0:
192,192,244864,1,0,0:0:0:0:
448,192,245098,1,0,0:0:0:0:
64,192,245098,1,0,0:0:0:0:
320,192,245332,1,0,0:0:0:0:
192,192,245332,1,0,0:0:0:0:
64,192,245567,1,0,0:0:0:0:
448,192,246036,1,0,0:0:0:0:
448,192,246504,1,0,0:0:0:0:
320,192,246973,1,0,0:0:0:0:
192,192,247207,1,0,0:0:0:0:
64,192,247442,1,0,0:0:0:0:
192,192,247676,1,0,0:0:0:0:
320,192,247911,1,0,0:0:0:0:
448,192,248028,1,0,0:0:0:0:
192,192,248262,1,0,0:0:0:0:
448,192,248614,1,0,0:0:0:0:
320,192,248848,1,0,0:0:0:0:
448,192,249082,1,0,0:0:0:0:
320,192,249317,1,0,0:0:0:0:
192,192,249786,1,0,0:0:0:0:
448,192,250020,1,0,0:0:0:0:
320,192,250254,1,0,0:0:0:0:
320,192,250723,1,0,0:0:0:0:
448,192,250957,1,0,0:0:0:0:
320,192,251192,1,0,0:0:0:0:
192,192,251426,1,0,0:0:0:0:
64,192,251661,1,0,0:0:0:0:
192,192,251778,1,0,0:0:0:0:
320,192,252012,1,0,0:0:0:0:
320,192,252364,1,0,0:0:0:0:
192,192,252364,1,0,0:0:0:0:
448,192,252598,1,0,0:0:0:0:
64,192,252598,1,0,0:0:0:0:
320,192,252832,1,0,0:0:0:0:
192,192,252832,1,0,0:0:0:0:
64,192,253067,1,0,0:0:0:0:
448,192,253536,1,0,0:0:0:0:
448,192,254004,1,0,0:0:0:0:
320,192,254239,1,0,0:0:0:0:
192,192,254473,1,0,0:0:0:0:
448,192,254707,1,0,0:0:0:0:
320,192,254825,1,0,0:0:0:0:
448,192,255176,1,0,0:0:0:0:
320,192,255411,1,0,0:0:0:0:
448,192,255645,1,0,0:0:0:0:
320,192,255879,1,0,0:0:0:0:
320,192,256114,1,0,0:0:0:0:
192,192,256348,1,0,0:0:0:0:
64,192,256582,1,0,0:0:0:0:
192,192,256700,1,0,0:0:0:0:
64,192,257051,1,0,0:0:0:0:
448,192,257286,1,0,0:0:0:0:
448,192,257754,1,0,0:0:0:0:
320,192,257989,1,0,0:0:0:0:
192,192,258223,1,0,0:0:0:0:
448,192,258457,1,0,0:0:0:0:
320,192,258575,1,0,0:0:0:0:
64,192,258926,1,0,0:0:0:0:
192,192,259161,1,0,0:0:0:0:
320,192,259395,1,0,0:0:0:0:
448,192,259629,1,0,0:0:0:0:
64,192,259629,1,0,0:0:0:0:
320,192,260098,1,0,0:0:0:0:
192,192,260098,1,0,0:0:0:0:
448,192,260332,1,0,0:0:0:0:
192,192,260332,1,0,0:0:0:0:
320,192,260567,1,0,0:0:0:0:
192,192,260567,1,0,0:0:0:0:
448,192,261036,1,0,0:0:0:0:
448,192,261504,1,0,0:0:0:0:
320,192,261739,1,0,0:0:0:0:
192,192,261973,1,0,0:0:0:0:
64,192,262207,1,0,0:0:0:0:
192,192,262325,1,0,0:0:0:0:
448,192,262676,1,0,0:0:0:0:
320,192,262911,1,0,0:0:0:0:
448,192,263145,1,0,0:0:0:0:
320,192,263379,1,0,0:0:0:0:
448,192,263614,1,0,0:0:0:0:
320,192,263848,1,0,0:0:0:0:
192,192,264082,1,0,0:0:0:0:
64,192,264200,1,0,0:0:0:0:
192,192,264551,1,0,0:0:0:0:
448,192,264786,1,0,0:0:0:0:
448,192,265254,1,0,0:0:0:0:
320,192,265489,1,0,0:0:0:0:
448,192,265723,1,0,0:0:0:0:
320,192,265957,1,0,0:0:0:0:
192,192,266075,1,0,0:0:0:0:
448,192,267129,1,0,0:0:0:0:
320,192,267364,1,0,0:0:0:0:
448,192,267598,1,0,0:0:0:0:
448,192,267832,1,0,0:0:0:0:
320,192,267950,1,0,0:0:0:0:
320,192,268301,1,0,0:0:0:0:
192,192,268301,1,0,0:0:0:0:
448,192,268536,1,0,0:0:0:0:
64,192,268536,1,0,0:0:0:0:
448,192,269004,1,0,0:0:0:0:
320,192,269239,1,0,0:0:0:0:
448,192,269473,1,0,0:0:0:0:
448,192,269707,1,0,0:0:0:0:
320,192,269825,1,0,0:0:0:0:
448,192,270176,1,0,0:0:0:0:
320,192,270411,1,0,0:0:0:0:
192,192,270645,1,0,0:0:0:0:
64,192,270879,1,0,0:0:0:0:
192,192,271114,1,0,0:0:0:0:
320,192,271348,1,0,0:0:0:0:
320,192,271582,1,0,0:0:0:0:
448,192,271700,1,0,0:0:0:0:
448,192,272051,1,0,0:0:0:0:
448,192,272286,1,0,0:0:0:0:
448,192,272754,1,0,0:0:0:0:
320,192,272989,1,0,0:0:0:0:
192,192,273223,1,0,0:0:0:0:
64,192,273457,1,0,0:0:0:0:
448,192,273575,1,0,0:0:0:0:
448,192,273926,1,0,0:0:0:0:
320,192,274161,1,0,0:0:0:0:
192,192,274395,1,0,0:0:0:0:
64,192,274629,1,0,0:0:0:0:
448,192,275098,1,0,0:0:0:0:
64,192,275098,1,0,0:0:0:0:
320,192,275332,1,0,0:0:0:0:
192,192,275332,1,0,0:0:0:0:
448,192,275567,1,0,0:0:0:0:
64,192,275567,1,0,0:0:0:0:
448,192,276036,1,0,0:0:0:0:
192,192,276504,1,0,0:0:0:0:
448,192,276739,1,0,0:0:0:0:
320,192,276973,1,0,0:0:0:0:
448,192,277207,1,0,0:0:0:0:
320,192,277325,1,0,0:0:0:0:
448,192,277676,1,0,0:0:0:0:
448,192,277911,1,0,0:0:0:0:
448,192,278379,1,0,0:0:0:0:
320,192,278614,1,0,0:0:0:0:
192,192,278848,1,0,0:0:0:0:
320,192,279082,1,0,0:0:0:0:
448,192,279200,1,0,0:0:0:0:
320,192,279551,1,0,0:0:0:0:
448,192,279786,1,0,0:0:0:0:
192,192,280254,1,0,0:0:0:0:
448,192,280489,1,0,0:0:0:0:
192,192,280723,1,0,0:0:0:0:
320,192,280957,1,0,0:0:0:0:
448,192,281075,1,0,0:0:0:0:
448,192,282129,1,0,0:0:0:0:
320,192,282364,1,0,0:0:0:0:
448,192,282598,1,0,0:0:0:0:
192,192,282832,1,0,0:0:0:0:
64,192,282950,1,0,0:0:0:0:
320,192,283301,1,0,0:0:0:0:
192,192,283301,1,0,0:0:0:0:
448,192,283536,1,0,0:0:0:0:
64,192,283536,1,0,0:0:0:0:
320,192,283770,1,0,0:0:0:0:
192,192,283770,1,0,0:0:0:0:
448,192,284004,1,0,0:0:0:0:
192,192,284004,1,0,0:0:0:0:
