osu file format v12

[General]
AudioFilename: -Syrufit-- comouflage-white clear-.mp3
AudioLeadIn: 0
PreviewTime: 134004
Countdown: 0
SampleSet: Soft
StackLeniency: 0.7
Mode: 3
LetterboxInBreaks: 0
SpecialStyle: 0
WidescreenStoryboard: 1

[Editor]
DistanceSpacing: 1
BeatDivisor: 4
GridSize: 8
TimelineZoom: 0.6

[Metadata]
Title:Camouflage
TitleUnicode:Camouflage
Artist:Syrufit ft. Mei Ayakura
ArtistUnicode:Syrufit ft. Mei Ayakura
Creator:MoonLightz
Version:Instruments + Vocals
Source:Touhou
Tags:White clear MoonLightz World game remix
BeatmapID:387529
BeatmapSetID:158456

[Difficulty]
HPDrainRate:7
CircleSize:7
OverallDifficulty:8
ApproachRate:5
SliderMultiplier:1.4
SliderTickRate:1

[Events]
//Background and Video events
0,0,"thepicture.jpg",0,0
//Break Periods
2,164204,192804
//Storyboard Layer 0 (Background)
//Storyboard Layer 1 (Fail)
//Storyboard Layer 2 (Pass)
//Storyboard Layer 3 (Foreground)
//Storyboard Sound Samples
//Background Colour Transformations
3,100,163,162,255

[TimingPoints]
29004.8365116018,468.75,4,2,0,100,1,0

[HitObjects]
64,192,6504,5,0,0:0:0:0:
192,192,6504,1,0,0:0:0:0:
64,192,8262,1,0,0:0:0:0:
192,192,8614,1,0,0:0:0:0:
64,192,10254,1,0,0:0:0:0:
192,192,10254,1,0,0:0:0:0:
64,192,12012,1,0,0:0:0:0:
192,192,12364,1,0,0:0:0:0:
64,192,12598,1,0,0:0:0:0:
192,192,13067,1,0,0:0:0:0:
320,192,13067,1,0,0:0:0:0:
64,192,13536,1,0,0:0:0:0:
192,192,13770,1,0,0:0:0:0:
64,192,14004,1,0,0:0:0:0:
448,192,14004,1,0,0:0:0:0:
64,192,15762,1,0,0:0:0:0:
192,192,16114,1,0,0:0:0:0:
192,192,17754,1,0,0:0:0:0:
64,192,17754,1,0,0:0:0:0:
64,192,19512,1,0,0:0:0:0:
192,192,19864,1,0,0:0:0:0:
448,192,20567,1,0,0:0:0:0:
64,192,21504,1,0,0:0:0:0:
192,192,21504,1,0,0:0:0:0:
64,192,23262,1,0,0:0:0:0:
192,192,23614,1,0,0:0:0:0:
64,192,25254,1,0,0:0:0:0:
192,192,25254,1,0,0:0:0:0:
64,192,27012,1,0,0:0:0:0:
109,192,27364,1,0,0:0:0:0:
64,192,27598,1,0,0:0:0:0:
109,192,27832,1,0,0:0:0:0:
64,192,28067,1,0,0:0:0:0:
64,192,28536,1,0,0:0:0:0:
109,192,28770,1,0,0:0:0:0:
64,192,29004,1,0,0:0:0:0:
192,192,29004,1,0,0:0:0:0:
448,192,29004,1,2,0:0:0:0:
64,192,29473,1,0,0:0:0:0:
448,192,29473,1,2,0:0:0:0:
109,192,29707,1,0,0:0:0:0:
64,192,29942,1,0,0:0:0:0:
448,192,29942,1,2,0:0:0:0:
109,192,30176,1,0,0:0:0:0:
64,192,30411,1,0,0:0:0:0:
448,192,30411,1,2,0:0:0:0:
109,192,30528,1,0,0:0:0:0:
64,192,30762,1,0,0:0:0:0:
448,192,30879,1,2,0:0:0:0:
64,192,31114,1,0,0:0:0:0:
109,192,31348,1,0,0:0:0:0:
448,192,31348,1,2,0:0:0:0:
109,192,31817,1,0,0:0:0:0:
448,192,31817,1,2,0:0:0:0:
64,192,32286,1,0,0:0:0:0:
448,192,32286,1,2,0:0:0:0:
109,192,32520,1,0,0:0:0:0:
64,192,32754,1,0,0:0:0:0:
192,192,32754,1,0,0:0:0:0:
448,192,32754,128,0,42129:0:0:0:0:
402,192,32754,1,2,0:0:0:0:
64,192,33223,1,0,0:0:0:0:
402,192,33223,1,2,0:0:0:0:
320,192,33457,1,0,0:0:0:0:
64,192,33692,1,0,0:0:0:0:
402,192,33692,1,2,0:0:0:0:
320,192,33926,1,0,0:0:0:0:
64,192,34161,1,0,0:0:0:0:
402,192,34161,1,2,0:0:0:0:
192,192,34278,1,0,0:0:0:0:
64,192,34512,1,0,0:0:0:0:
402,192,34629,1,2,0:0:0:0:
64,192,34864,1,0,0:0:0:0:
192,192,35098,1,0,0:0:0:0:
402,192,35098,1,2,0:0:0:0:
64,192,35567,1,0,0:0:0:0:
402,192,35567,1,2,0:0:0:0:
64,192,36036,1,0,0:0:0:0:
402,192,36036,1,2,0:0:0:0:
192,192,36270,1,0,0:0:0:0:
64,192,36504,1,0,0:0:0:0:
192,192,36504,1,0,0:0:0:0:
402,192,36504,1,2,0:0:0:0:
64,192,36973,1,0,0:0:0:0:
402,192,36973,1,2,0:0:0:0:
109,192,37207,1,0,0:0:0:0:
64,192,37442,1,0,0:0:0:0:
402,192,37442,1,2,0:0:0:0:
109,192,37676,1,0,0:0:0:0:
64,192,37911,1,0,0:0:0:0:
402,192,37911,1,2,0:0:0:0:
192,192,38028,1,0,0:0:0:0:
64,192,38262,1,0,0:0:0:0:
402,192,38379,1,2,0:0:0:0:
64,192,38614,1,0,0:0:0:0:
192,192,38848,1,0,0:0:0:0:
402,192,38848,1,2,0:0:0:0:
64,192,39317,1,0,0:0:0:0:
402,192,39317,1,2,0:0:0:0:
64,192,39786,1,0,0:0:0:0:
402,192,39786,1,2,0:0:0:0:
192,192,40020,1,0,0:0:0:0:
64,192,40254,1,0,0:0:0:0:
192,192,40254,1,0,0:0:0:0:
402,192,40254,1,2,0:0:0:0:
64,192,40723,1,0,0:0:0:0:
402,192,40723,1,2,0:0:0:0:
320,192,40957,1,0,0:0:0:0:
64,192,41192,1,0,0:0:0:0:
402,192,41192,1,2,0:0:0:0:
320,192,41426,1,0,0:0:0:0:
64,192,41661,1,0,0:0:0:0:
402,192,41661,1,2,0:0:0:0:
192,192,41778,1,0,0:0:0:0:
64,192,42012,1,0,0:0:0:0:
402,192,42129,1,2,0:0:0:0:
64,192,42364,1,0,0:0:0:0:
192,192,42598,1,0,0:0:0:0:
448,192,42598,1,2,0:0:0:0:
64,192,43067,1,0,0:0:0:0:
448,192,43067,1,2,0:0:0:0:
64,192,43536,1,0,0:0:0:0:
448,192,43536,1,2,0:0:0:0:
64,192,44004,1,0,0:0:0:0:
192,192,44004,1,0,0:0:0:0:
448,192,44004,1,2,0:0:0:0:
192,192,44473,1,0,0:0:0:0:
448,192,44473,1,2,0:0:0:0:
320,192,44707,1,0,0:0:0:0:
64,192,44707,1,0,0:0:0:0:
448,192,44942,1,2,0:0:0:0:
64,192,44942,1,0,0:0:0:0:
320,192,45176,1,0,0:0:0:0:
64,192,45411,1,0,0:0:0:0:
448,192,45411,1,2,0:0:0:0:
320,192,45528,1,0,0:0:0:0:
64,192,45762,1,0,0:0:0:0:
448,192,45879,1,2,0:0:0:0:
64,192,46114,1,0,0:0:0:0:
192,192,46348,1,0,0:0:0:0:
475,192,46348,1,2,0:0:0:0:
64,192,46817,1,0,0:0:0:0:
448,192,46817,1,2,0:0:0:0:
64,192,47286,1,0,0:0:0:0:
475,192,47286,1,2,0:0:0:0:
192,192,47520,1,0,0:0:0:0:
64,192,47754,1,0,0:0:0:0:
192,192,47754,1,0,0:0:0:0:
448,192,47754,1,2,0:0:0:0:
320,192,48223,1,0,0:0:0:0:
448,192,48223,1,2,0:0:0:0:
64,192,48457,1,0,0:0:0:0:
320,192,48692,1,0,0:0:0:0:
448,192,48692,1,2,0:0:0:0:
64,192,48926,1,0,0:0:0:0:
64,192,49161,1,0,0:0:0:0:
475,192,49161,1,2,0:0:0:0:
192,192,49278,1,0,0:0:0:0:
64,192,49512,1,0,0:0:0:0:
448,192,49629,1,2,0:0:0:0:
64,192,49864,1,0,0:0:0:0:
192,192,50098,1,0,0:0:0:0:
475,192,50098,1,2,0:0:0:0:
64,192,50567,1,0,0:0:0:0:
448,192,50567,1,2,0:0:0:0:
64,192,51036,1,0,0:0:0:0:
475,192,51036,1,2,0:0:0:0:
192,192,51270,1,0,0:0:0:0:
64,192,51504,1,0,0:0:0:0:
192,192,51504,1,0,0:0:0:0:
448,192,51504,1,2,0:0:0:0:
475,192,51973,1,2,0:0:0:0:
64,192,52207,1,0,0:0:0:0:
320,192,52442,1,0,0:0:0:0:
448,192,52442,1,2,0:0:0:0:
64,192,52676,1,0,0:0:0:0:
64,192,52911,1,0,0:0:0:0:
475,192,52911,1,2,0:0:0:0:
192,192,53028,1,0,0:0:0:0:
64,192,53262,1,0,0:0:0:0:
448,192,53379,1,2,0:0:0:0:
64,192,53614,1,0,0:0:0:0:
192,192,53848,1,0,0:0:0:0:
475,192,53848,1,2,0:0:0:0:
64,192,54317,1,0,0:0:0:0:
448,192,54317,1,2,0:0:0:0:
192,192,54786,1,0,0:0:0:0:
475,192,54786,1,2,0:0:0:0:
64,192,55020,1,0,0:0:0:0:
64,192,55254,1,0,0:0:0:0:
448,192,55254,1,2,0:0:0:0:
475,192,55723,1,2,0:0:0:0:
64,192,55957,1,0,0:0:0:0:
320,192,56192,1,0,0:0:0:0:
448,192,56192,1,2,0:0:0:0:
64,192,56426,1,0,0:0:0:0:
64,192,56661,1,0,0:0:0:0:
475,192,56661,1,2,0:0:0:0:
192,192,56778,1,0,0:0:0:0:
64,192,57012,1,0,0:0:0:0:
448,192,57129,1,2,0:0:0:0:
64,192,57364,1,0,0:0:0:0:
192,192,57598,1,0,0:0:0:0:
475,192,57598,1,2,0:0:0:0:
64,192,58067,1,0,0:0:0:0:
448,192,58067,1,2,0:0:0:0:
192,192,58536,1,0,0:0:0:0:
475,192,58536,1,2,0:0:0:0:
64,192,58770,1,0,0:0:0:0:
64,192,59004,1,0,0:0:0:0:
192,192,59004,1,0,0:0:0:0:
448,192,59004,1,2,0:0:0:0:
475,192,59473,1,2,0:0:0:0:
64,192,59707,1,0,0:0:0:0:
320,192,59942,1,0,0:0:0:0:
475,192,59942,1,2,0:0:0:0:
64,192,60176,1,0,0:0:0:0:
64,192,60411,1,0,0:0:0:0:
475,192,60411,1,2,0:0:0:0:
192,192,60528,1,0,0:0:0:0:
64,192,60762,1,0,0:0:0:0:
448,192,60879,1,2,0:0:0:0:
64,192,61114,1,0,0:0:0:0:
192,192,61348,1,0,0:0:0:0:
475,192,61348,1,2,0:0:0:0:
64,192,61817,1,0,0:0:0:0:
448,192,61817,1,2,0:0:0:0:
192,192,62286,1,0,0:0:0:0:
475,192,62286,1,2,0:0:0:0:
64,192,62520,1,0,0:0:0:0:
64,192,62754,1,0,0:0:0:0:
192,192,62754,1,0,0:0:0:0:
448,192,62754,128,0,73418:0:0:0:0:
402,192,62754,1,2,0:0:0:0:
320,192,63223,1,0,0:0:0:0:
402,192,63223,1,2,0:0:0:0:
64,192,63457,1,0,0:0:0:0:
320,192,63692,1,0,0:0:0:0:
402,192,63692,1,2,0:0:0:0:
64,192,63926,1,0,0:0:0:0:
64,192,64161,1,0,0:0:0:0:
402,192,64161,1,2,0:0:0:0:
192,192,64278,1,0,0:0:0:0:
64,192,64512,1,0,0:0:0:0:
402,192,64629,1,2,0:0:0:0:
64,192,64864,1,0,0:0:0:0:
192,192,65098,1,0,0:0:0:0:
402,192,65098,1,2,0:0:0:0:
64,192,65567,1,0,0:0:0:0:
402,192,65567,1,2,0:0:0:0:
192,192,66036,1,0,0:0:0:0:
402,192,66036,1,2,0:0:0:0:
64,192,66270,1,0,0:0:0:0:
64,192,66504,1,0,0:0:0:0:
192,192,66504,1,0,0:0:0:0:
402,192,66504,1,2,0:0:0:0:
320,192,66973,1,0,0:0:0:0:
402,192,66973,1,2,0:0:0:0:
64,192,67207,1,0,0:0:0:0:
320,192,67442,1,0,0:0:0:0:
402,192,67442,1,2,0:0:0:0:
64,192,67676,1,0,0:0:0:0:
64,192,67911,1,0,0:0:0:0:
402,192,67911,1,2,0:0:0:0:
192,192,68028,1,0,0:0:0:0:
64,192,68262,1,0,0:0:0:0:
402,192,68379,1,2,0:0:0:0:
64,192,68614,1,0,0:0:0:0:
192,192,68848,1,0,0:0:0:0:
402,192,68848,1,2,0:0:0:0:
64,192,69317,1,0,0:0:0:0:
402,192,69317,1,2,0:0:0:0:
64,192,69786,1,0,0:0:0:0:
402,192,69786,1,2,0:0:0:0:
192,192,70020,1,0,0:0:0:0:
64,192,70254,1,0,0:0:0:0:
192,192,70254,1,0,0:0:0:0:
402,192,70254,1,2,0:0:0:0:
320,192,70723,1,0,0:0:0:0:
402,192,70723,1,2,0:0:0:0:
64,192,70957,1,0,0:0:0:0:
320,192,71192,1,0,0:0:0:0:
402,192,71192,1,2,0:0:0:0:
64,192,71426,1,0,0:0:0:0:
64,192,71661,1,0,0:0:0:0:
402,192,71661,1,2,0:0:0:0:
192,192,71778,1,0,0:0:0:0:
64,192,72012,1,0,0:0:0:0:
402,192,72129,1,2,0:0:0:0:
64,192,72364,1,0,0:0:0:0:
192,192,72598,1,0,0:0:0:0:
402,192,72598,1,2,0:0:0:0:
64,192,73067,1,0,0:0:0:0:
402,192,73067,1,2,0:0:0:0:
64,192,73536,1,0,0:0:0:0:
402,192,73536,1,2,0:0:0:0:
192,192,73770,1,0,0:0:0:0:
64,192,74004,1,0,0:0:0:0:
192,192,74004,1,0,0:0:0:0:
448,192,74004,1,2,0:0:0:0:
109,192,74004,1,8,0:0:0:0:
329,192,74239,1,0,0:0:0:0:
448,192,74473,1,2,0:0:0:0:
109,192,74473,1,8,0:0:0:0:
256,192,74590,1,0,0:0:0:0:
329,192,74590,1,0,0:0:0:0:
36,192,74707,1,8,0:0:0:0:
109,192,74825,1,8,0:0:0:0:
320,192,74942,1,0,0:0:0:0:
448,192,74942,1,2,0:0:0:0:
36,192,75176,1,8,0:0:0:0:
329,192,75176,1,0,0:0:0:0:
448,192,75411,1,2,0:0:0:0:
109,192,75411,1,8,0:0:0:0:
256,192,75528,1,0,0:0:0:0:
329,192,75528,1,0,0:0:0:0:
36,192,75645,1,8,0:0:0:0:
109,192,75762,1,8,0:0:0:0:
320,192,75879,1,0,0:0:0:0:
448,192,75879,1,2,0:0:0:0:
36,192,76114,1,8,0:0:0:0:
329,192,76114,1,0,0:0:0:0:
448,192,76348,1,2,0:0:0:0:
109,192,76348,1,8,0:0:0:0:
256,192,76465,1,0,0:0:0:0:
329,192,76465,1,0,0:0:0:0:
36,192,76582,1,8,0:0:0:0:
109,192,76700,1,8,0:0:0:0:
320,192,76817,1,0,0:0:0:0:
448,192,76817,1,2,0:0:0:0:
320,192,77051,1,0,0:0:0:0:
182,192,77051,1,8,0:0:0:0:
448,192,77286,1,2,0:0:0:0:
182,192,77286,1,8,0:0:0:0:
64,192,77403,1,0,0:0:0:0:
192,192,77754,1,0,0:0:0:0:
448,192,77754,1,2,0:0:0:0:
109,192,77754,1,8,0:0:0:0:
182,192,77989,1,0,0:0:0:0:
448,192,78223,1,2,0:0:0:0:
109,192,78223,1,8,0:0:0:0:
320,192,78340,1,0,0:0:0:0:
36,192,78340,1,8,0:0:0:0:
182,192,78340,1,0,0:0:0:0:
109,192,78575,1,8,0:0:0:0:
192,192,78692,1,0,0:0:0:0:
448,192,78692,1,2,0:0:0:0:
36,192,78926,1,8,0:0:0:0:
182,192,78926,1,0,0:0:0:0:
448,192,79161,1,2,0:0:0:0:
109,192,79161,1,8,0:0:0:0:
320,192,79278,1,0,0:0:0:0:
182,192,79278,1,0,0:0:0:0:
36,192,79395,1,8,0:0:0:0:
109,192,79512,1,8,0:0:0:0:
192,192,79629,1,0,0:0:0:0:
448,192,79629,1,2,0:0:0:0:
192,192,79864,1,0,0:0:0:0:
36,192,79864,1,8,0:0:0:0:
448,192,80098,1,2,0:0:0:0:
109,192,80098,1,8,0:0:0:0:
182,192,80215,1,0,0:0:0:0:
36,192,80332,1,8,0:0:0:0:
109,192,80450,1,8,0:0:0:0:
320,192,80567,1,0,0:0:0:0:
448,192,80567,1,2,0:0:0:0:
182,192,80567,1,0,0:0:0:0:
192,192,80801,1,0,0:0:0:0:
36,192,80801,1,8,0:0:0:0:
448,192,81036,1,2,0:0:0:0:
109,192,81036,1,8,0:0:0:0:
320,192,81153,1,0,0:0:0:0:
192,192,81504,1,0,0:0:0:0:
448,192,81504,1,2,0:0:0:0:
109,192,81504,1,8,0:0:0:0:
182,192,81739,1,0,0:0:0:0:
448,192,81973,1,2,0:0:0:0:
109,192,81973,1,8,0:0:0:0:
320,192,82090,1,0,0:0:0:0:
182,192,82090,1,0,0:0:0:0:
36,192,82207,1,8,0:0:0:0:
109,192,82325,1,8,0:0:0:0:
192,192,82442,1,0,0:0:0:0:
448,192,82442,1,2,0:0:0:0:
36,192,82676,1,8,0:0:0:0:
182,192,82676,1,0,0:0:0:0:
448,192,82911,1,2,0:0:0:0:
109,192,82911,1,8,0:0:0:0:
320,192,83028,1,0,0:0:0:0:
182,192,83028,1,0,0:0:0:0:
36,192,83145,1,8,0:0:0:0:
109,192,83262,1,8,0:0:0:0:
192,192,83379,1,0,0:0:0:0:
448,192,83379,1,2,0:0:0:0:
36,192,83614,1,8,0:0:0:0:
182,192,83614,1,0,0:0:0:0:
448,192,83848,1,2,0:0:0:0:
109,192,83848,1,8,0:0:0:0:
320,192,83965,1,0,0:0:0:0:
182,192,83965,1,0,0:0:0:0:
36,192,84082,1,8,0:0:0:0:
109,192,84200,1,8,0:0:0:0:
192,192,84317,1,0,0:0:0:0:
448,192,84317,1,2,0:0:0:0:
109,192,84551,1,8,0:0:0:0:
182,192,84551,1,0,0:0:0:0:
448,192,84786,1,2,0:0:0:0:
109,192,84786,1,8,0:0:0:0:
320,192,84903,1,0,0:0:0:0:
182,192,84903,1,0,0:0:0:0:
192,192,85254,1,0,0:0:0:0:
448,192,85254,1,2,0:0:0:0:
109,192,85254,1,8,0:0:0:0:
182,192,85489,1,0,0:0:0:0:
448,192,85723,1,2,0:0:0:0:
109,192,85723,1,8,0:0:0:0:
320,192,85840,1,0,0:0:0:0:
36,192,85840,1,8,0:0:0:0:
182,192,85840,1,0,0:0:0:0:
109,192,86075,1,8,0:0:0:0:
192,192,86192,1,0,0:0:0:0:
448,192,86192,1,2,0:0:0:0:
36,192,86426,1,8,0:0:0:0:
182,192,86426,1,0,0:0:0:0:
448,192,86661,1,2,0:0:0:0:
109,192,86661,1,8,0:0:0:0:
320,192,86778,1,0,0:0:0:0:
182,192,86778,1,0,0:0:0:0:
36,192,86895,1,8,0:0:0:0:
109,192,87012,1,8,0:0:0:0:
320,192,87129,1,0,0:0:0:0:
448,192,87129,1,2,0:0:0:0:
36,192,87364,1,8,0:0:0:0:
329,192,87364,1,0,0:0:0:0:
448,192,87598,1,2,0:0:0:0:
109,192,87598,1,8,0:0:0:0:
192,192,87715,1,0,0:0:0:0:
329,192,87715,1,0,0:0:0:0:
36,192,87832,1,8,0:0:0:0:
109,192,87950,1,8,0:0:0:0:
448,192,88067,1,2,0:0:0:0:
448,192,88301,1,0,0:0:0:0:
36,192,88301,1,8,0:0:0:0:
448,192,88536,1,2,0:0:0:0:
109,192,88536,1,8,0:0:0:0:
182,192,88653,1,0,0:0:0:0:
320,192,89004,1,0,0:0:0:0:
448,192,89004,1,2,0:0:0:0:
109,192,89004,1,8,0:0:0:0:
182,192,89004,1,0,0:0:0:0:
192,192,89239,1,0,0:0:0:0:
448,192,89473,1,2,0:0:0:0:
109,192,89473,1,8,0:0:0:0:
182,192,89590,1,0,0:0:0:0:
36,192,89707,1,8,0:0:0:0:
109,192,89825,1,8,0:0:0:0:
320,192,89942,1,0,0:0:0:0:
448,192,89942,1,2,0:0:0:0:
182,192,89942,1,0,0:0:0:0:
36,192,90176,1,8,0:0:0:0:
182,192,90176,1,0,0:0:0:0:
448,192,90411,1,2,0:0:0:0:
109,192,90411,1,8,0:0:0:0:
320,192,90528,1,0,0:0:0:0:
182,192,90528,1,0,0:0:0:0:
36,192,90645,1,8,0:0:0:0:
109,192,90762,1,8,0:0:0:0:
192,192,90879,1,0,0:0:0:0:
448,192,90879,1,2,0:0:0:0:
36,192,91114,1,8,0:0:0:0:
182,192,91114,1,0,0:0:0:0:
448,192,91348,1,2,0:0:0:0:
109,192,91348,1,8,0:0:0:0:
320,192,91465,1,0,0:0:0:0:
182,192,91465,1,0,0:0:0:0:
36,192,91582,1,8,0:0:0:0:
109,192,91700,1,8,0:0:0:0:
192,192,91817,1,0,0:0:0:0:
448,192,91817,1,2,0:0:0:0:
329,192,92051,1,0,0:0:0:0:
182,192,92051,1,8,0:0:0:0:
475,192,92286,1,2,0:0:0:0:
182,192,92286,1,8,0:0:0:0:
36,192,92403,1,0,0:0:0:0:
192,192,92754,1,0,0:0:0:0:
448,192,92754,1,2,0:0:0:0:
109,192,92754,1,8,0:0:0:0:
182,192,92989,1,0,0:0:0:0:
448,192,93223,1,2,0:0:0:0:
109,192,93223,1,8,0:0:0:0:
320,192,93340,1,0,0:0:0:0:
36,192,93340,1,8,0:0:0:0:
182,192,93340,1,0,0:0:0:0:
109,192,93575,1,8,0:0:0:0:
192,192,93692,1,0,0:0:0:0:
448,192,93692,1,2,0:0:0:0:
36,192,93926,1,8,0:0:0:0:
182,192,93926,1,0,0:0:0:0:
448,192,94161,1,2,0:0:0:0:
109,192,94161,1,8,0:0:0:0:
320,192,94278,1,0,0:0:0:0:
182,192,94278,1,0,0:0:0:0:
36,192,94395,1,8,0:0:0:0:
109,192,94512,1,8,0:0:0:0:
192,192,94629,1,0,0:0:0:0:
448,192,94629,1,2,0:0:0:0:
36,192,94864,1,8,0:0:0:0:
182,192,94864,1,0,0:0:0:0:
448,192,95098,1,2,0:0:0:0:
109,192,95098,1,8,0:0:0:0:
320,192,95215,1,0,0:0:0:0:
182,192,95215,1,0,0:0:0:0:
36,192,95332,1,8,0:0:0:0:
109,192,95450,1,8,0:0:0:0:
448,192,95567,1,2,0:0:0:0:
182,192,95567,1,0,0:0:0:0:
192,192,95801,1,0,0:0:0:0:
36,192,95801,1,8,0:0:0:0:
448,192,96036,1,2,0:0:0:0:
109,192,96036,1,8,0:0:0:0:
320,192,96153,1,0,0:0:0:0:
192,192,96504,1,0,0:0:0:0:
448,192,96504,1,2,0:0:0:0:
109,192,96504,1,8,0:0:0:0:
182,192,96739,1,0,0:0:0:0:
448,192,96973,1,2,0:0:0:0:
109,192,96973,1,8,0:0:0:0:
320,192,97090,1,0,0:0:0:0:
182,192,97090,1,0,0:0:0:0:
36,192,97207,1,8,0:0:0:0:
109,192,97325,1,8,0:0:0:0:
192,192,97442,1,0,0:0:0:0:
448,192,97442,1,2,0:0:0:0:
36,192,97676,1,8,0:0:0:0:
182,192,97676,1,0,0:0:0:0:
448,192,97911,1,2,0:0:0:0:
109,192,97911,1,8,0:0:0:0:
320,192,98028,1,0,0:0:0:0:
182,192,98028,1,0,0:0:0:0:
36,192,98145,1,8,0:0:0:0:
109,192,98262,1,8,0:0:0:0:
192,192,98379,1,0,0:0:0:0:
448,192,98379,1,2,0:0:0:0:
36,192,98614,1,8,0:0:0:0:
182,192,98614,1,0,0:0:0:0:
448,192,98848,1,2,0:0:0:0:
109,192,98848,1,8,0:0:0:0:
320,192,98965,1,0,0:0:0:0:
182,192,98965,1,0,0:0:0:0:
36,192,99082,1,8,0:0:0:0:
109,192,99200,1,8,0:0:0:0:
192,192,99317,1,0,0:0:0:0:
448,192,99317,1,2,0:0:0:0:
36,192,99551,1,8,0:0:0:0:
182,192,99551,1,0,0:0:0:0:
448,192,99786,1,2,0:0:0:0:
109,192,99786,1,8,0:0:0:0:
320,192,99903,1,0,0:0:0:0:
182,192,99903,1,0,0:0:0:0:
192,192,100254,1,0,0:0:0:0:
448,192,100254,1,2,0:0:0:0:
109,192,100254,1,8,0:0:0:0:
182,192,100489,1,0,0:0:0:0:
448,192,100723,1,2,0:0:0:0:
109,192,100723,1,8,0:0:0:0:
320,192,100840,1,0,0:0:0:0:
36,192,100840,1,8,0:0:0:0:
182,192,100840,1,0,0:0:0:0:
109,192,101075,1,8,0:0:0:0:
192,192,101192,1,0,0:0:0:0:
448,192,101192,1,2,0:0:0:0:
36,192,101426,1,8,0:0:0:0:
182,192,101426,1,0,0:0:0:0:
448,192,101661,1,2,0:0:0:0:
109,192,101661,1,8,0:0:0:0:
320,192,101778,1,0,0:0:0:0:
182,192,101778,1,0,0:0:0:0:
36,192,101895,1,8,0:0:0:0:
109,192,102012,1,8,0:0:0:0:
320,192,102129,1,0,0:0:0:0:
448,192,102129,1,2,0:0:0:0:
36,192,102364,1,8,0:0:0:0:
329,192,102364,1,0,0:0:0:0:
192,192,102598,1,2,0:0:0:0:
109,192,102598,1,8,0:0:0:0:
448,192,102715,1,0,0:0:0:0:
329,192,102715,1,0,0:0:0:0:
36,192,102832,1,8,0:0:0:0:
109,192,102950,1,8,0:0:0:0:
448,192,103067,1,2,0:0:0:0:
448,192,103301,1,0,0:0:0:0:
109,192,103301,1,8,0:0:0:0:
448,192,103536,1,2,0:0:0:0:
36,192,103536,1,8,0:0:0:0:
192,192,103653,1,0,0:0:0:0:
256,192,104004,1,0,0:0:0:0:
448,192,104004,1,2,0:0:0:0:
109,192,104004,1,8,0:0:0:0:
402,192,104239,1,0,0:0:0:0:
320,192,104473,1,0,0:0:0:0:
448,192,104473,1,2,0:0:0:0:
109,192,104473,1,8,0:0:0:0:
402,192,104707,1,0,0:0:0:0:
36,192,104707,1,8,0:0:0:0:
256,192,104942,1,0,0:0:0:0:
448,192,104942,1,2,0:0:0:0:
109,192,104942,1,8,0:0:0:0:
402,192,105176,1,0,0:0:0:0:
182,192,105176,1,8,0:0:0:0:
320,192,105411,1,0,0:0:0:0:
448,192,105411,1,2,0:0:0:0:
109,192,105411,1,8,0:0:0:0:
402,192,105528,1,0,0:0:0:0:
36,192,105528,1,8,0:0:0:0:
256,192,105762,1,0,0:0:0:0:
109,192,105762,1,8,0:0:0:0:
448,192,105879,1,2,0:0:0:0:
402,192,106114,1,0,0:0:0:0:
109,192,106114,1,8,0:0:0:0:
256,192,106348,1,0,0:0:0:0:
448,192,106348,1,2,0:0:0:0:
36,192,106348,1,8,0:0:0:0:
320,192,106582,1,0,0:0:0:0:
109,192,106582,1,8,0:0:0:0:
256,192,106817,1,0,0:0:0:0:
448,192,106817,1,2,0:0:0:0:
36,192,106817,1,8,0:0:0:0:
320,192,107051,1,0,0:0:0:0:
182,192,107286,1,8,0:0:0:0:
256,192,107286,1,0,0:0:0:0:
448,192,107286,1,2,0:0:0:0:
320,192,107520,1,0,0:0:0:0:
256,192,107754,1,0,0:0:0:0:
448,192,107754,1,2,0:0:0:0:
329,192,107754,1,2,0:0:0:0:
109,192,107754,1,8,0:0:0:0:
448,192,107989,1,0,0:0:0:0:
320,192,108223,1,0,0:0:0:0:
182,192,108223,1,2,0:0:0:0:
36,192,108223,1,8,0:0:0:0:
448,192,108457,1,0,0:0:0:0:
109,192,108457,1,8,0:0:0:0:
320,192,108692,1,0,0:0:0:0:
256,192,108692,1,2,0:0:0:0:
36,192,108692,1,8,0:0:0:0:
448,192,108926,1,0,0:0:0:0:
109,192,108926,1,8,0:0:0:0:
402,192,109161,1,0,0:0:0:0:
256,192,109161,1,2,0:0:0:0:
109,192,109161,1,8,0:0:0:0:
448,192,109278,1,0,0:0:0:0:
36,192,109278,1,8,0:0:0:0:
320,192,109512,1,0,0:0:0:0:
109,192,109512,1,8,0:0:0:0:
256,192,109629,1,2,0:0:0:0:
256,192,109864,1,0,0:0:0:0:
182,192,109864,1,8,0:0:0:0:
329,192,110098,1,0,0:0:0:0:
448,192,110098,1,2,0:0:0:0:
36,192,110098,1,8,0:0:0:0:
256,192,110332,1,0,0:0:0:0:
109,192,110332,1,8,0:0:0:0:
448,192,110567,1,0,0:0:0:0:
402,192,110567,1,2,0:0:0:0:
36,192,110567,1,8,0:0:0:0:
320,192,110801,1,0,0:0:0:0:
109,192,111036,1,8,0:0:0:0:
448,192,111036,1,0,0:0:0:0:
256,192,111036,1,2,0:0:0:0:
402,192,111270,1,0,0:0:0:0:
448,192,111504,1,0,0:0:0:0:
329,192,111504,1,2,0:0:0:0:
109,192,111504,1,8,0:0:0:0:
256,192,111739,1,0,0:0:0:0:
256,192,111973,1,0,0:0:0:0:
448,192,111973,1,2,0:0:0:0:
36,192,111973,1,8,0:0:0:0:
402,192,112207,1,0,0:0:0:0:
109,192,112207,1,8,0:0:0:0:
320,192,112442,1,0,0:0:0:0:
448,192,112442,1,2,0:0:0:0:
36,192,112442,1,8,0:0:0:0:
256,192,112676,1,0,0:0:0:0:
109,192,112676,1,8,0:0:0:0:
256,192,112911,1,0,0:0:0:0:
448,192,112911,1,2,0:0:0:0:
109,192,112911,1,8,0:0:0:0:
402,192,113028,1,0,0:0:0:0:
36,192,113028,1,8,0:0:0:0:
320,192,113262,1,0,0:0:0:0:
109,192,113262,1,8,0:0:0:0:
448,192,113379,1,0,0:0:0:0:
256,192,113379,1,2,0:0:0:0:
402,192,113614,1,0,0:0:0:0:
182,192,113614,1,8,0:0:0:0:
320,192,113848,1,0,0:0:0:0:
448,192,113848,1,2,0:0:0:0:
36,192,113848,1,8,0:0:0:0:
256,192,114082,1,0,0:0:0:0:
109,192,114082,1,8,0:0:0:0:
320,192,114317,1,0,0:0:0:0:
448,192,114317,1,2,0:0:0:0:
36,192,114317,1,8,0:0:0:0:
256,192,114551,1,0,0:0:0:0:
320,192,114786,1,0,0:0:0:0:
448,192,114786,1,2,0:0:0:0:
109,192,114786,1,8,0:0:0:0:
256,192,115020,1,0,0:0:0:0:
448,192,115254,1,2,0:0:0:0:
256,192,115254,1,0,0:0:0:0:
329,192,115254,1,0,0:0:0:0:
109,192,115254,1,8,0:0:0:0:
256,192,115723,1,0,0:0:0:0:
448,192,115723,1,2,0:0:0:0:
329,192,115723,1,0,0:0:0:0:
36,192,115723,1,8,0:0:0:0:
402,192,115957,1,0,0:0:0:0:
109,192,115957,1,8,0:0:0:0:
256,192,116192,1,0,0:0:0:0:
448,192,116192,1,2,0:0:0:0:
36,192,116192,1,8,0:0:0:0:
329,192,116426,1,0,0:0:0:0:
182,192,116426,1,8,0:0:0:0:
320,192,116661,1,0,0:0:0:0:
448,192,116661,1,2,0:0:0:0:
109,192,116661,1,8,0:0:0:0:
402,192,116778,1,0,0:0:0:0:
36,192,116778,1,8,0:0:0:0:
256,192,117012,1,0,0:0:0:0:
109,192,117012,1,8,0:0:0:0:
448,192,117129,1,2,0:0:0:0:
256,192,117364,1,0,0:0:0:0:
182,192,117364,1,8,0:0:0:0:
320,192,117598,1,0,0:0:0:0:
448,192,117598,1,2,0:0:0:0:
36,192,117598,1,8,0:0:0:0:
448,192,117832,1,0,0:0:0:0:
109,192,117832,1,8,0:0:0:0:
256,192,118067,1,0,0:0:0:0:
402,192,118067,1,2,0:0:0:0:
36,192,118067,1,8,0:0:0:0:
448,192,118301,1,0,0:0:0:0:
320,192,118536,1,0,0:0:0:0:
402,192,118536,1,2,0:0:0:0:
109,192,118536,1,8,0:0:0:0:
256,192,118770,1,0,0:0:0:0:
320,192,119004,1,0,0:0:0:0:
256,192,119004,1,0,0:0:0:0:
448,192,119004,1,2,0:0:0:0:
109,192,119004,1,8,0:0:0:0:
256,192,119473,1,0,0:0:0:0:
36,192,119473,1,8,0:0:0:0:
320,192,119707,1,0,0:0:0:0:
109,192,119707,1,8,0:0:0:0:
256,192,119942,1,0,0:0:0:0:
36,192,119942,1,8,0:0:0:0:
320,192,120176,1,0,0:0:0:0:
109,192,120176,1,8,0:0:0:0:
256,192,120411,1,0,0:0:0:0:
109,192,120411,1,8,0:0:0:0:
320,192,120528,1,0,0:0:0:0:
36,192,120528,1,8,0:0:0:0:
448,192,120762,128,0,121348:0:0:0:0:
320,192,120762,1,0,0:0:0:0:
109,192,120762,1,8,0:0:0:0:
182,192,121114,1,8,0:0:0:0:
320,192,121348,128,0,121817:0:0:0:0:
36,192,121348,1,8,0:0:0:0:
109,192,121582,1,8,0:0:0:0:
448,192,121817,128,0,122286:0:0:0:0:
36,192,121817,1,8,0:0:0:0:
320,192,122286,128,0,122754:0:0:0:0:
109,192,122286,1,8,0:0:0:0:
256,192,122754,128,0,123223:0:0:0:0:
109,192,122754,1,8,0:0:0:0:
320,192,123223,128,0,123692:0:0:0:0:
36,192,123223,1,8,0:0:0:0:
109,192,123457,1,8,0:0:0:0:
256,192,123692,128,0,124161:0:0:0:0:
36,192,123692,1,8,0:0:0:0:
109,192,123926,1,8,0:0:0:0:
320,192,124161,128,0,124629:0:0:0:0:
109,192,124161,1,8,0:0:0:0:
36,192,124278,1,8,0:0:0:0:
109,192,124512,1,8,0:0:0:0:
256,192,124629,128,0,125098:0:0:0:0:
182,192,124864,1,8,0:0:0:0:
320,192,125098,128,0,125567:0:0:0:0:
36,192,125098,1,8,0:0:0:0:
109,192,125332,1,8,0:0:0:0:
448,192,125567,128,0,126036:0:0:0:0:
36,192,125567,1,8,0:0:0:0:
320,192,126036,128,0,126504:0:0:0:0:
109,192,126036,1,8,0:0:0:0:
448,192,126504,128,0,126973:0:0:0:0:
109,192,126504,1,8,0:0:0:0:
256,192,126973,128,0,127442:0:0:0:0:
36,192,126973,1,8,0:0:0:0:
109,192,127207,1,8,0:0:0:0:
320,192,127442,128,0,127911:0:0:0:0:
36,192,127442,1,8,0:0:0:0:
109,192,127676,1,8,0:0:0:0:
256,192,127911,128,0,128379:0:0:0:0:
109,192,127911,1,8,0:0:0:0:
36,192,128028,1,8,0:0:0:0:
109,192,128262,1,8,0:0:0:0:
329,192,128379,128,0,128848:0:0:0:0:
182,192,128614,1,8,0:0:0:0:
256,192,128848,128,0,129317:0:0:0:0:
36,192,128848,1,8,0:0:0:0:
109,192,129082,1,8,0:0:0:0:
329,192,129317,128,0,129786:0:0:0:0:
36,192,129317,1,8,0:0:0:0:
256,192,129786,128,0,130254:0:0:0:0:
109,192,129786,1,8,0:0:0:0:
320,192,130254,128,0,130723:0:0:0:0:
109,192,130254,1,8,0:0:0:0:
402,192,130723,128,0,131192:0:0:0:0:
36,192,130723,1,8,0:0:0:0:
109,192,130957,1,8,0:0:0:0:
320,192,131192,128,0,131661:0:0:0:0:
36,192,131192,1,8,0:0:0:0:
109,192,131426,1,8,0:0:0:0:
256,192,131661,128,0,132129:0:0:0:0:
109,192,131661,1,8,0:0:0:0:
36,192,131778,1,8,0:0:0:0:
109,192,132012,1,8,0:0:0:0:
320,192,132129,128,0,132598:0:0:0:0:
182,192,132364,1,8,0:0:0:0:
475,192,132598,128,0,133067:0:0:0:0:
36,192,132598,1,8,0:0:0:0:
109,192,132832,1,8,0:0:0:0:
320,192,133067,128,0,133536:0:0:0:0:
36,192,133067,1,8,0:0:0:0:
448,192,133536,128,0,134004:0:0:0:0:
109,192,133536,1,8,0:0:0:0:
109,192,134004,1,8,0:0:0:0:
256,192,134239,1,0,0:0:0:0:
36,192,134239,1,8,0:0:0:0:
256,192,134473,1,0,0:0:0:0:
448,192,134473,1,2,0:0:0:0:
109,192,134473,1,8,0:0:0:0:
329,192,134590,1,0,0:0:0:0:
402,192,134707,1,0,0:0:0:0:
182,192,134707,1,8,0:0:0:0:
109,192,134825,1,8,0:0:0:0:
329,192,134942,1,0,0:0:0:0:
448,192,134942,1,2,0:0:0:0:
36,192,135176,1,8,0:0:0:0:
402,192,135176,1,0,0:0:0:0:
256,192,135411,1,0,0:0:0:0:
448,192,135411,1,2,0:0:0:0:
109,192,135411,1,8,0:0:0:0:
329,192,135528,1,0,0:0:0:0:
402,192,135645,1,0,0:0:0:0:
182,192,135645,1,8,0:0:0:0:
402,192,135879,1,0,0:0:0:0:
448,192,135879,1,2,0:0:0:0:
109,192,135879,1,8,0:0:0:0:
36,192,136114,1,8,0:0:0:0:
402,192,136114,1,0,0:0:0:0:
256,192,136348,1,0,0:0:0:0:
448,192,136348,1,2,0:0:0:0:
109,192,136348,1,8,0:0:0:0:
329,192,136465,1,0,0:0:0:0:
182,192,136582,1,8,0:0:0:0:
402,192,136582,1,0,0:0:0:0:
109,192,136700,1,8,0:0:0:0:
329,192,136817,1,0,0:0:0:0:
448,192,136817,1,2,0:0:0:0:
402,192,137051,1,0,0:0:0:0:
36,192,137051,1,8,0:0:0:0:
256,192,137286,1,0,0:0:0:0:
448,192,137286,1,2,0:0:0:0:
109,192,137286,1,8,0:0:0:0:
329,192,137403,1,0,0:0:0:0:
402,192,137520,1,0,0:0:0:0:
329,192,137754,1,0,0:0:0:0:
448,192,137754,1,2,0:0:0:0:
36,192,137754,1,8,0:0:0:0:
402,192,137989,1,0,0:0:0:0:
109,192,137989,1,8,0:0:0:0:
329,192,138223,1,0,0:0:0:0:
256,192,138223,1,2,0:0:0:0:
36,192,138223,1,8,0:0:0:0:
402,192,138340,1,0,0:0:0:0:
448,192,138457,1,0,0:0:0:0:
109,192,138457,1,8,0:0:0:0:
182,192,138575,1,8,0:0:0:0:
329,192,138692,1,0,0:0:0:0:
256,192,138692,1,2,0:0:0:0:
109,192,138926,1,8,0:0:0:0:
402,192,138926,1,0,0:0:0:0:
329,192,139161,1,0,0:0:0:0:
256,192,139161,1,2,0:0:0:0:
36,192,139161,1,8,0:0:0:0:
402,192,139278,1,0,0:0:0:0:
448,192,139395,1,0,0:0:0:0:
109,192,139395,1,8,0:0:0:0:
329,192,139629,1,0,0:0:0:0:
256,192,139629,1,2,0:0:0:0:
182,192,139629,1,8,0:0:0:0:
402,192,139864,1,0,0:0:0:0:
329,192,140098,1,0,0:0:0:0:
256,192,140098,1,2,0:0:0:0:
36,192,140098,1,8,0:0:0:0:
402,192,140215,1,0,0:0:0:0:
448,192,140332,1,0,0:0:0:0:
402,192,140567,1,0,0:0:0:0:
329,192,140567,1,2,0:0:0:0:
182,192,140567,1,8,0:0:0:0:
320,192,140801,1,0,0:0:0:0:
329,192,141036,1,0,0:0:0:0:
256,192,141036,1,2,0:0:0:0:
36,192,141036,1,8,0:0:0:0:
402,192,141153,1,0,0:0:0:0:
448,192,141270,1,0,0:0:0:0:
256,192,141504,1,0,0:0:0:0:
448,192,141504,1,2,0:0:0:0:
109,192,141504,1,8,0:0:0:0:
329,192,141739,1,0,0:0:0:0:
36,192,141739,1,8,0:0:0:0:
256,192,141973,1,0,0:0:0:0:
448,192,141973,1,2,0:0:0:0:
109,192,141973,1,8,0:0:0:0:
329,192,142090,1,0,0:0:0:0:
402,192,142207,1,0,0:0:0:0:
182,192,142207,1,8,0:0:0:0:
109,192,142325,1,8,0:0:0:0:
256,192,142442,1,0,0:0:0:0:
448,192,142442,1,2,0:0:0:0:
402,192,142676,1,0,0:0:0:0:
36,192,142676,1,8,0:0:0:0:
256,192,142911,1,0,0:0:0:0:
448,192,142911,1,2,0:0:0:0:
109,192,142911,1,8,0:0:0:0:
329,192,143028,1,0,0:0:0:0:
402,192,143145,1,0,0:0:0:0:
182,192,143145,1,8,0:0:0:0:
256,192,143379,1,0,0:0:0:0:
448,192,143379,1,2,0:0:0:0:
109,192,143379,1,8,0:0:0:0:
402,192,143614,1,0,0:0:0:0:
36,192,143614,1,8,0:0:0:0:
256,192,143848,1,0,0:0:0:0:
448,192,143848,1,2,0:0:0:0:
109,192,143848,1,8,0:0:0:0:
329,192,143965,1,0,0:0:0:0:
402,192,144082,1,0,0:0:0:0:
182,192,144082,1,8,0:0:0:0:
109,192,144200,1,8,0:0:0:0:
256,192,144317,1,0,0:0:0:0:
448,192,144317,1,2,0:0:0:0:
402,192,144551,1,0,0:0:0:0:
36,192,144551,1,8,0:0:0:0:
256,192,144786,1,0,0:0:0:0:
448,192,144786,1,2,0:0:0:0:
109,192,144786,1,8,0:0:0:0:
329,192,144903,1,0,0:0:0:0:
402,192,145020,1,0,0:0:0:0:
329,192,145254,1,0,0:0:0:0:
448,192,145254,1,2,0:0:0:0:
36,192,145254,1,8,0:0:0:0:
402,192,145489,1,0,0:0:0:0:
109,192,145489,1,8,0:0:0:0:
329,192,145723,1,0,0:0:0:0:
256,192,145723,1,2,0:0:0:0:
182,192,145723,1,8,0:0:0:0:
402,192,145840,1,0,0:0:0:0:
109,192,145957,1,8,0:0:0:0:
448,192,145957,1,0,0:0:0:0:
36,192,146075,1,8,0:0:0:0:
329,192,146192,1,0,0:0:0:0:
256,192,146192,1,2,0:0:0:0:
402,192,146426,1,0,0:0:0:0:
329,192,146661,1,0,0:0:0:0:
256,192,146661,1,2,0:0:0:0:
402,192,146778,1,0,0:0:0:0:
448,192,146895,1,0,0:0:0:0:
402,192,147129,1,0,0:0:0:0:
256,192,147129,1,2,0:0:0:0:
36,192,147129,1,8,0:0:0:0:
320,192,147364,1,0,0:0:0:0:
329,192,147598,1,0,0:0:0:0:
256,192,147598,1,2,0:0:0:0:
182,192,147598,1,8,0:0:0:0:
402,192,147715,1,0,0:0:0:0:
109,192,147832,1,8,0:0:0:0:
448,192,147832,1,0,0:0:0:0:
36,192,147950,1,8,0:0:0:0:
402,192,148067,1,0,0:0:0:0:
256,192,148067,1,2,0:0:0:0:
109,192,148301,1,8,0:0:0:0:
320,192,148301,1,0,0:0:0:0:
402,192,148536,1,0,0:0:0:0:
256,192,148536,1,2,0:0:0:0:
182,192,148536,1,8,0:0:0:0:
320,192,148653,1,0,0:0:0:0:
448,192,148770,1,0,0:0:0:0:
256,192,149004,1,0,0:0:0:0:
448,192,149004,1,2,0:0:0:0:
109,192,149004,1,8,0:0:0:0:
329,192,149239,1,0,0:0:0:0:
36,192,149239,1,8,0:0:0:0:
256,192,149473,1,0,0:0:0:0:
448,192,149473,1,2,0:0:0:0:
109,192,149473,1,8,0:0:0:0:
402,192,149590,1,0,0:0:0:0:
320,192,149707,1,0,0:0:0:0:
182,192,149707,1,8,0:0:0:0:
109,192,149825,1,8,0:0:0:0:
256,192,149942,1,0,0:0:0:0:
448,192,149942,1,2,0:0:0:0:
329,192,150176,1,0,0:0:0:0:
36,192,150176,1,8,0:0:0:0:
256,192,150411,1,0,0:0:0:0:
448,192,150411,1,2,0:0:0:0:
109,192,150411,1,8,0:0:0:0:
329,192,150528,1,0,0:0:0:0:
402,192,150645,1,0,0:0:0:0:
182,192,150645,1,8,0:0:0:0:
256,192,150879,1,0,0:0:0:0:
448,192,150879,1,2,0:0:0:0:
109,192,150879,1,8,0:0:0:0:
402,192,151114,1,0,0:0:0:0:
36,192,151114,1,8,0:0:0:0:
256,192,151348,1,0,0:0:0:0:
448,192,151348,1,2,0:0:0:0:
109,192,151348,1,8,0:0:0:0:
329,192,151465,1,0,0:0:0:0:
402,192,151582,1,0,0:0:0:0:
182,192,151582,1,8,0:0:0:0:
109,192,151700,1,8,0:0:0:0:
256,192,151817,1,0,0:0:0:0:
448,192,151817,1,2,0:0:0:0:
402,192,152051,1,0,0:0:0:0:
36,192,152051,1,8,0:0:0:0:
256,192,152286,1,0,0:0:0:0:
448,192,152286,1,2,0:0:0:0:
109,192,152286,1,8,0:0:0:0:
329,192,152403,1,0,0:0:0:0:
402,192,152520,1,0,0:0:0:0:
256,192,152754,1,0,0:0:0:0:
448,192,152754,1,2,0:0:0:0:
36,192,152754,1,8,0:0:0:0:
402,192,152989,1,0,0:0:0:0:
109,192,152989,1,8,0:0:0:0:
329,192,153223,1,0,0:0:0:0:
256,192,153223,1,2,0:0:0:0:
36,192,153223,1,8,0:0:0:0:
402,192,153340,1,0,0:0:0:0:
448,192,153457,1,0,0:0:0:0:
109,192,153457,1,8,0:0:0:0:
182,192,153575,1,8,0:0:0:0:
329,192,153692,1,0,0:0:0:0:
256,192,153692,1,2,0:0:0:0:
402,192,153926,1,0,0:0:0:0:
109,192,153926,1,8,0:0:0:0:
329,192,154161,1,0,0:0:0:0:
256,192,154161,1,2,0:0:0:0:
36,192,154161,1,8,0:0:0:0:
402,192,154278,1,0,0:0:0:0:
448,192,154395,1,0,0:0:0:0:
109,192,154395,1,8,0:0:0:0:
402,192,154629,1,0,0:0:0:0:
256,192,154629,1,2,0:0:0:0:
182,192,154629,1,8,0:0:0:0:
320,192,154864,1,0,0:0:0:0:
402,192,155098,1,0,0:0:0:0:
256,192,155098,1,2,0:0:0:0:
36,192,155098,1,8,0:0:0:0:
320,192,155215,1,0,0:0:0:0:
448,192,155332,1,0,0:0:0:0:
402,192,155567,1,0,0:0:0:0:
256,192,155567,1,2,0:0:0:0:
182,192,155567,1,8,0:0:0:0:
320,192,155801,1,0,0:0:0:0:
329,192,156036,1,0,0:0:0:0:
256,192,156036,1,2,0:0:0:0:
36,192,156036,1,8,0:0:0:0:
402,192,156153,1,0,0:0:0:0:
448,192,156270,1,0,0:0:0:0:
256,192,156504,1,0,0:0:0:0:
448,192,156504,1,2,0:0:0:0:
109,192,156504,1,8,0:0:0:0:
329,192,156739,1,0,0:0:0:0:
36,192,156739,1,8,0:0:0:0:
256,192,156973,1,0,0:0:0:0:
448,192,156973,1,2,0:0:0:0:
109,192,156973,1,8,0:0:0:0:
329,192,157090,1,0,0:0:0:0:
402,192,157207,1,0,0:0:0:0:
182,192,157207,1,8,0:0:0:0:
109,192,157325,1,8,0:0:0:0:
256,192,157442,1,0,0:0:0:0:
448,192,157442,1,2,0:0:0:0:
329,192,157676,1,0,0:0:0:0:
36,192,157676,1,8,0:0:0:0:
256,192,157911,1,0,0:0:0:0:
448,192,157911,1,2,0:0:0:0:
109,192,157911,1,8,0:0:0:0:
329,192,158028,1,0,0:0:0:0:
402,192,158145,1,0,0:0:0:0:
256,192,158379,1,0,0:0:0:0:
448,192,158379,1,2,0:0:0:0:
109,192,158379,1,8,0:0:0:0:
402,192,158614,1,0,0:0:0:0:
36,192,158614,1,8,0:0:0:0:
256,192,158848,1,0,0:0:0:0:
448,192,158848,1,2,0:0:0:0:
109,192,158848,1,8,0:0:0:0:
329,192,158965,1,0,0:0:0:0:
402,192,159082,1,0,0:0:0:0:
182,192,159082,1,8,0:0:0:0:
109,192,159200,1,8,0:0:0:0:
256,192,159317,1,0,0:0:0:0:
448,192,159317,1,2,0:0:0:0:
402,192,159551,1,0,0:0:0:0:
36,192,159551,1,8,0:0:0:0:
256,192,159786,1,0,0:0:0:0:
448,192,159786,1,2,0:0:0:0:
109,192,159786,1,8,0:0:0:0:
329,192,159903,1,0,0:0:0:0:
402,192,160020,1,0,0:0:0:0:
329,192,160254,1,0,0:0:0:0:
256,192,160254,1,2,0:0:0:0:
36,192,160254,1,8,0:0:0:0:
402,192,160489,1,0,0:0:0:0:
109,192,160489,1,8,0:0:0:0:
329,192,160723,1,0,0:0:0:0:
256,192,160723,1,2,0:0:0:0:
182,192,160723,1,8,0:0:0:0:
402,192,160840,1,0,0:0:0:0:
448,192,160957,1,0,0:0:0:0:
109,192,160957,1,8,0:0:0:0:
36,192,161075,1,8,0:0:0:0:
329,192,161192,1,0,0:0:0:0:
256,192,161192,1,2,0:0:0:0:
402,192,161426,1,0,0:0:0:0:
329,192,161661,1,0,0:0:0:0:
256,192,161661,1,2,0:0:0:0:
402,192,161778,1,0,0:0:0:0:
448,192,161895,1,0,0:0:0:0:
329,192,162129,1,0,0:0:0:0:
256,192,162129,1,2,0:0:0:0:
36,192,162129,1,8,0:0:0:0:
402,192,162364,1,0,0:0:0:0:
329,192,162598,1,0,0:0:0:0:
256,192,162598,1,2,0:0:0:0:
182,192,162598,1,8,0:0:0:0:
402,192,162715,1,0,0:0:0:0:
448,192,162832,1,0,0:0:0:0:
109,192,162832,1,8,0:0:0:0:
36,192,162950,1,8,0:0:0:0:
329,192,163067,1,0,0:0:0:0:
256,192,163067,1,2,0:0:0:0:
402,192,163301,1,0,0:0:0:0:
109,192,163301,1,8,0:0:0:0:
329,192,163536,1,0,0:0:0:0:
256,192,163536,1,2,0:0:0:0:
182,192,163536,1,8,0:0:0:0:
402,192,163653,1,0,0:0:0:0:
448,192,163770,1,0,0:0:0:0:
109,192,163770,1,8,0:0:0:0:
182,192,164004,1,8,0:0:0:0:
36,192,164004,1,8,0:0:0:0:
402,192,194004,5,8,0:0:0:0:
475,192,194004,1,0,0:0:0:0:
36,192,194004,1,2,0:0:0:0:
329,192,194004,1,0,0:0:0:0:
182,192,194239,1,0,0:0:0:0:
36,192,194473,1,2,0:0:0:0:
402,192,194473,1,8,0:0:0:0:
256,192,194590,1,0,0:0:0:0:
182,192,194590,1,0,0:0:0:0:
475,192,194707,1,8,0:0:0:0:
402,192,194825,1,8,0:0:0:0:
36,192,194942,1,2,0:0:0:0:
182,192,194942,1,0,0:0:0:0:
182,192,195176,1,0,0:0:0:0:
475,192,195176,1,8,0:0:0:0:
36,192,195411,1,2,0:0:0:0:
402,192,195411,1,8,0:0:0:0:
256,192,195528,1,0,0:0:0:0:
182,192,195528,1,0,0:0:0:0:
475,192,195645,1,8,0:0:0:0:
402,192,195762,1,8,0:0:0:0:
36,192,195879,1,2,0:0:0:0:
182,192,195879,1,0,0:0:0:0:
182,192,196114,1,0,0:0:0:0:
475,192,196114,1,8,0:0:0:0:
402,192,196348,1,8,0:0:0:0:
36,192,196348,1,2,0:0:0:0:
182,192,196465,1,0,0:0:0:0:
256,192,196465,1,0,0:0:0:0:
475,192,196582,1,8,0:0:0:0:
402,192,196700,1,8,0:0:0:0:
182,192,196817,1,0,0:0:0:0:
36,192,196817,1,2,0:0:0:0:
182,192,197051,1,0,0:0:0:0:
329,192,197051,1,8,0:0:0:0:
36,192,197286,1,2,0:0:0:0:
329,192,197286,1,8,0:0:0:0:
475,192,197403,1,0,0:0:0:0:
402,192,197754,1,8,0:0:0:0:
36,192,197754,1,2,0:0:0:0:
329,192,197754,1,0,0:0:0:0:
329,192,197989,1,0,0:0:0:0:
36,192,198223,1,2,0:0:0:0:
402,192,198223,1,8,0:0:0:0:
182,192,198340,1,0,0:0:0:0:
329,192,198340,1,0,0:0:0:0:
475,192,198340,1,8,0:0:0:0:
402,192,198575,1,8,0:0:0:0:
36,192,198692,1,2,0:0:0:0:
329,192,198692,1,0,0:0:0:0:
475,192,198926,1,8,0:0:0:0:
329,192,198926,1,0,0:0:0:0:
36,192,199161,1,2,0:0:0:0:
402,192,199161,1,8,0:0:0:0:
182,192,199278,1,0,0:0:0:0:
329,192,199278,1,0,0:0:0:0:
475,192,199395,1,8,0:0:0:0:
402,192,199512,1,8,0:0:0:0:
329,192,199629,1,0,0:0:0:0:
36,192,199629,1,2,0:0:0:0:
475,192,199864,1,8,0:0:0:0:
329,192,199864,1,0,0:0:0:0:
36,192,200098,1,2,0:0:0:0:
402,192,200098,1,8,0:0:0:0:
329,192,200215,1,0,0:0:0:0:
475,192,200332,1,8,0:0:0:0:
402,192,200450,1,8,0:0:0:0:
329,192,200567,1,0,0:0:0:0:
182,192,200567,1,0,0:0:0:0:
36,192,200567,1,2,0:0:0:0:
475,192,200801,1,8,0:0:0:0:
329,192,200801,1,0,0:0:0:0:
36,192,201036,1,2,0:0:0:0:
402,192,201036,1,8,0:0:0:0:
182,192,201153,1,0,0:0:0:0:
329,192,201504,1,0,0:0:0:0:
36,192,201504,1,2,0:0:0:0:
402,192,201504,1,8,0:0:0:0:
329,192,201739,1,0,0:0:0:0:
36,192,201973,1,2,0:0:0:0:
402,192,201973,1,8,0:0:0:0:
182,192,202090,1,0,0:0:0:0:
329,192,202090,1,0,0:0:0:0:
475,192,202207,1,8,0:0:0:0:
402,192,202325,1,8,0:0:0:0:
329,192,202442,1,0,0:0:0:0:
36,192,202442,1,2,0:0:0:0:
329,192,202676,1,0,0:0:0:0:
475,192,202676,1,8,0:0:0:0:
36,192,202911,1,2,0:0:0:0:
402,192,202911,1,8,0:0:0:0:
329,192,203028,1,0,0:0:0:0:
182,192,203028,1,0,0:0:0:0:
475,192,203145,1,8,0:0:0:0:
402,192,203262,1,8,0:0:0:0:
36,192,203379,1,2,0:0:0:0:
329,192,203379,1,0,0:0:0:0:
475,192,203614,1,8,0:0:0:0:
329,192,203614,1,0,0:0:0:0:
36,192,203848,1,2,0:0:0:0:
402,192,203848,1,8,0:0:0:0:
182,192,203965,1,0,0:0:0:0:
329,192,203965,1,0,0:0:0:0:
475,192,204082,1,8,0:0:0:0:
402,192,204200,1,8,0:0:0:0:
329,192,204317,1,0,0:0:0:0:
36,192,204317,1,2,0:0:0:0:
402,192,204551,1,8,0:0:0:0:
329,192,204551,1,0,0:0:0:0:
402,192,204786,1,8,0:0:0:0:
36,192,204786,1,2,0:0:0:0:
182,192,204903,1,0,0:0:0:0:
329,192,204903,1,0,0:0:0:0:
329,192,205254,1,0,0:0:0:0:
36,192,205254,1,2,0:0:0:0:
402,192,205254,1,8,0:0:0:0:
329,192,205489,1,0,0:0:0:0:
402,192,205723,1,8,0:0:0:0:
36,192,205723,1,2,0:0:0:0:
329,192,205840,1,0,0:0:0:0:
475,192,205840,1,8,0:0:0:0:
182,192,205840,1,0,0:0:0:0:
402,192,206075,1,8,0:0:0:0:
329,192,206192,1,0,0:0:0:0:
36,192,206192,1,2,0:0:0:0:
329,192,206426,1,0,0:0:0:0:
475,192,206426,1,8,0:0:0:0:
402,192,206661,1,8,0:0:0:0:
36,192,206661,1,2,0:0:0:0:
329,192,206778,1,0,0:0:0:0:
182,192,206778,1,0,0:0:0:0:
475,192,206895,1,8,0:0:0:0:
402,192,207012,1,8,0:0:0:0:
182,192,207129,1,0,0:0:0:0:
36,192,207129,1,2,0:0:0:0:
475,192,207364,1,8,0:0:0:0:
182,192,207364,1,0,0:0:0:0:
36,192,207598,1,2,0:0:0:0:
402,192,207598,1,8,0:0:0:0:
329,192,207715,1,0,0:0:0:0:
182,192,207715,1,0,0:0:0:0:
475,192,207832,1,8,0:0:0:0:
402,192,207950,1,8,0:0:0:0:
36,192,208067,1,2,0:0:0:0:
36,192,208301,1,0,0:0:0:0:
475,192,208301,1,8,0:0:0:0:
402,192,208536,1,8,0:0:0:0:
36,192,208536,1,2,0:0:0:0:
329,192,208653,1,0,0:0:0:0:
182,192,209004,1,0,0:0:0:0:
329,192,209004,1,0,0:0:0:0:
402,192,209004,1,8,0:0:0:0:
36,192,209004,1,2,0:0:0:0:
329,192,209239,1,0,0:0:0:0:
402,192,209473,1,8,0:0:0:0:
36,192,209473,1,2,0:0:0:0:
329,192,209590,1,0,0:0:0:0:
475,192,209707,1,8,0:0:0:0:
402,192,209825,1,8,0:0:0:0:
329,192,209942,1,0,0:0:0:0:
36,192,209942,1,2,0:0:0:0:
182,192,209942,1,0,0:0:0:0:
475,192,210176,1,8,0:0:0:0:
329,192,210176,1,0,0:0:0:0:
36,192,210411,1,2,0:0:0:0:
402,192,210411,1,8,0:0:0:0:
182,192,210528,1,0,0:0:0:0:
329,192,210528,1,0,0:0:0:0:
475,192,210645,1,8,0:0:0:0:
402,192,210762,1,8,0:0:0:0:
36,192,210879,1,2,0:0:0:0:
329,192,210879,1,0,0:0:0:0:
329,192,211114,1,0,0:0:0:0:
475,192,211114,1,8,0:0:0:0:
402,192,211348,1,8,0:0:0:0:
36,192,211348,1,2,0:0:0:0:
329,192,211465,1,0,0:0:0:0:
182,192,211465,1,0,0:0:0:0:
475,192,211582,1,8,0:0:0:0:
402,192,211700,1,8,0:0:0:0:
329,192,211817,1,0,0:0:0:0:
36,192,211817,1,2,0:0:0:0:
402,192,212051,1,8,0:0:0:0:
329,192,212051,1,0,0:0:0:0:
329,192,212286,1,8,0:0:0:0:
36,192,212286,1,2,0:0:0:0:
475,192,212403,1,0,0:0:0:0:
329,192,212754,1,0,0:0:0:0:
402,192,212754,1,8,0:0:0:0:
36,192,212754,1,2,0:0:0:0:
329,192,212989,1,0,0:0:0:0:
36,192,213223,1,2,0:0:0:0:
402,192,213223,1,8,0:0:0:0:
329,192,213340,1,0,0:0:0:0:
475,192,213340,1,8,0:0:0:0:
182,192,213340,1,0,0:0:0:0:
402,192,213575,1,8,0:0:0:0:
36,192,213692,1,2,0:0:0:0:
329,192,213692,1,0,0:0:0:0:
475,192,213926,1,8,0:0:0:0:
329,192,213926,1,0,0:0:0:0:
402,192,214161,1,8,0:0:0:0:
36,192,214161,1,2,0:0:0:0:
329,192,214278,1,0,0:0:0:0:
182,192,214278,1,0,0:0:0:0:
475,192,214395,1,8,0:0:0:0:
402,192,214512,1,8,0:0:0:0:
329,192,214629,1,0,0:0:0:0:
36,192,214629,1,2,0:0:0:0:
475,192,214864,1,8,0:0:0:0:
329,192,214864,1,0,0:0:0:0:
36,192,215098,1,2,0:0:0:0:
402,192,215098,1,8,0:0:0:0:
182,192,215215,1,0,0:0:0:0:
329,192,215215,1,0,0:0:0:0:
475,192,215332,1,8,0:0:0:0:
402,192,215450,1,8,0:0:0:0:
329,192,215567,1,0,0:0:0:0:
36,192,215567,1,2,0:0:0:0:
329,192,215801,1,0,0:0:0:0:
475,192,215801,1,8,0:0:0:0:
402,192,216036,1,8,0:0:0:0:
36,192,216036,1,2,0:0:0:0:
182,192,216153,1,0,0:0:0:0:
329,192,216504,1,0,0:0:0:0:
402,192,216504,1,8,0:0:0:0:
36,192,216504,1,2,0:0:0:0:
329,192,216739,1,0,0:0:0:0:
402,192,216973,1,8,0:0:0:0:
36,192,216973,1,2,0:0:0:0:
329,192,217090,1,0,0:0:0:0:
182,192,217090,1,0,0:0:0:0:
475,192,217207,1,8,0:0:0:0:
402,192,217325,1,8,0:0:0:0:
329,192,217442,1,0,0:0:0:0:
36,192,217442,1,2,0:0:0:0:
329,192,217676,1,0,0:0:0:0:
475,192,217676,1,8,0:0:0:0:
402,192,217911,1,8,0:0:0:0:
36,192,217911,1,2,0:0:0:0:
182,192,218028,1,0,0:0:0:0:
329,192,218028,1,0,0:0:0:0:
475,192,218145,1,8,0:0:0:0:
402,192,218262,1,8,0:0:0:0:
329,192,218379,1,0,0:0:0:0:
36,192,218379,1,2,0:0:0:0:
475,192,218614,1,8,0:0:0:0:
329,192,218614,1,0,0:0:0:0:
36,192,218848,1,2,0:0:0:0:
402,192,218848,1,8,0:0:0:0:
182,192,218965,1,0,0:0:0:0:
329,192,218965,1,0,0:0:0:0:
475,192,219082,1,8,0:0:0:0:
402,192,219200,1,8,0:0:0:0:
329,192,219317,1,0,0:0:0:0:
36,192,219317,1,2,0:0:0:0:
329,192,219551,1,0,0:0:0:0:
475,192,219551,1,8,0:0:0:0:
402,192,219786,1,8,0:0:0:0:
36,192,219786,1,2,0:0:0:0:
329,192,219903,1,0,0:0:0:0:
182,192,219903,1,0,0:0:0:0:
36,192,220254,1,2,0:0:0:0:
329,192,220254,1,0,0:0:0:0:
402,192,220254,1,8,0:0:0:0:
329,192,220489,1,0,0:0:0:0:
36,192,220723,1,2,0:0:0:0:
402,192,220723,1,8,0:0:0:0:
329,192,220840,1,0,0:0:0:0:
475,192,220840,1,8,0:0:0:0:
182,192,220840,1,0,0:0:0:0:
402,192,221075,1,8,0:0:0:0:
329,192,221192,1,0,0:0:0:0:
36,192,221192,1,2,0:0:0:0:
329,192,221426,1,0,0:0:0:0:
475,192,221426,1,8,0:0:0:0:
36,192,221661,1,2,0:0:0:0:
402,192,221661,1,8,0:0:0:0:
329,192,221778,1,0,0:0:0:0:
182,192,221778,1,0,0:0:0:0:
475,192,221895,1,8,0:0:0:0:
402,192,222012,1,8,0:0:0:0:
36,192,222129,1,2,0:0:0:0:
182,192,222129,1,0,0:0:0:0:
182,192,222364,1,0,0:0:0:0:
475,192,222364,1,8,0:0:0:0:
402,192,222598,1,8,0:0:0:0:
329,192,222598,1,2,0:0:0:0:
36,192,222715,1,0,0:0:0:0:
182,192,222715,1,0,0:0:0:0:
475,192,222832,1,8,0:0:0:0:
402,192,222950,1,8,0:0:0:0:
36,192,223067,1,2,0:0:0:0:
36,192,223301,1,0,0:0:0:0:
402,192,223301,1,8,0:0:0:0:
36,192,223536,1,2,0:0:0:0:
475,192,223536,1,8,0:0:0:0:
329,192,223653,1,0,0:0:0:0:
36,192,224004,1,2,0:0:0:0:
402,192,224004,1,8,0:0:0:0:
256,192,224004,1,0,0:0:0:0:
109,192,224239,1,0,0:0:0:0:
402,192,224473,1,8,0:0:0:0:
36,192,224473,1,2,0:0:0:0:
182,192,224473,1,0,0:0:0:0:
109,192,224707,1,0,0:0:0:0:
475,192,224707,1,8,0:0:0:0:
256,192,224942,1,0,0:0:0:0:
36,192,224942,1,2,0:0:0:0:
402,192,224942,1,8,0:0:0:0:
329,192,225176,1,8,0:0:0:0:
109,192,225176,1,0,0:0:0:0:
36,192,225411,1,2,0:0:0:0:
402,192,225411,1,8,0:0:0:0:
182,192,225411,1,0,0:0:0:0:
109,192,225528,1,0,0:0:0:0:
475,192,225528,1,8,0:0:0:0:
402,192,225762,1,8,0:0:0:0:
256,192,225762,1,0,0:0:0:0:
36,192,225879,1,2,0:0:0:0:
109,192,226114,1,0,0:0:0:0:
402,192,226114,1,8,0:0:0:0:
475,192,226348,1,8,0:0:0:0:
36,192,226348,1,2,0:0:0:0:
256,192,226348,1,0,0:0:0:0:
402,192,226582,1,8,0:0:0:0:
182,192,226582,1,0,0:0:0:0:
36,192,226817,1,2,0:0:0:0:
256,192,226817,1,0,0:0:0:0:
475,192,226817,1,8,0:0:0:0:
182,192,227051,1,0,0:0:0:0:
36,192,227286,1,2,0:0:0:0:
329,192,227286,1,8,0:0:0:0:
256,192,227286,1,0,0:0:0:0:
182,192,227520,1,0,0:0:0:0:
36,192,227754,1,2,0:0:0:0:
182,192,227754,1,2,0:0:0:0:
256,192,227754,1,0,0:0:0:0:
402,192,227754,1,8,0:0:0:0:
36,192,227989,1,0,0:0:0:0:
182,192,228223,1,0,0:0:0:0:
329,192,228223,1,2,0:0:0:0:
475,192,228223,1,8,0:0:0:0:
402,192,228457,1,8,0:0:0:0:
36,192,228457,1,0,0:0:0:0:
256,192,228692,1,2,0:0:0:0:
182,192,228692,1,0,0:0:0:0:
475,192,228692,1,8,0:0:0:0:
36,192,228926,1,0,0:0:0:0:
402,192,228926,1,8,0:0:0:0:
109,192,229161,1,0,0:0:0:0:
256,192,229161,1,2,0:0:0:0:
402,192,229161,1,8,0:0:0:0:
36,192,229278,1,0,0:0:0:0:
475,192,229278,1,8,0:0:0:0:
182,192,229512,1,0,0:0:0:0:
402,192,229512,1,8,0:0:0:0:
256,192,229629,1,2,0:0:0:0:
256,192,229864,1,0,0:0:0:0:
329,192,229864,1,8,0:0:0:0:
182,192,230098,1,0,0:0:0:0:
475,192,230098,1,8,0:0:0:0:
36,192,230098,1,2,0:0:0:0:
402,192,230332,1,8,0:0:0:0:
256,192,230332,1,0,0:0:0:0:
109,192,230567,1,2,0:0:0:0:
36,192,230567,1,0,0:0:0:0:
475,192,230567,1,8,0:0:0:0:
182,192,230801,1,0,0:0:0:0:
402,192,231036,1,8,0:0:0:0:
256,192,231036,1,2,0:0:0:0:
36,192,231036,1,0,0:0:0:0:
109,192,231270,1,0,0:0:0:0:
36,192,231504,1,0,0:0:0:0:
402,192,231504,1,8,0:0:0:0:
182,192,231504,1,2,0:0:0:0:
256,192,231739,1,0,0:0:0:0:
475,192,231973,1,8,0:0:0:0:
36,192,231973,1,2,0:0:0:0:
256,192,231973,1,0,0:0:0:0:
109,192,232207,1,0,0:0:0:0:
402,192,232207,1,8,0:0:0:0:
182,192,232442,1,0,0:0:0:0:
36,192,232442,1,2,0:0:0:0:
475,192,232442,1,8,0:0:0:0:
402,192,232676,1,8,0:0:0:0:
256,192,232676,1,0,0:0:0:0:
36,192,232911,1,2,0:0:0:0:
402,192,232911,1,8,0:0:0:0:
256,192,232911,1,0,0:0:0:0:
109,192,233028,1,0,0:0:0:0:
475,192,233028,1,8,0:0:0:0:
402,192,233262,1,8,0:0:0:0:
182,192,233262,1,0,0:0:0:0:
256,192,233379,1,2,0:0:0:0:
36,192,233379,1,0,0:0:0:0:
109,192,233614,1,0,0:0:0:0:
329,192,233614,1,8,0:0:0:0:
182,192,233848,1,0,0:0:0:0:
36,192,233848,1,2,0:0:0:0:
475,192,233848,1,8,0:0:0:0:
256,192,234082,1,0,0:0:0:0:
402,192,234082,1,8,0:0:0:0:
475,192,234317,1,8,0:0:0:0:
182,192,234317,1,0,0:0:0:0:
36,192,234317,1,2,0:0:0:0:
256,192,234551,1,0,0:0:0:0:
182,192,234786,1,0,0:0:0:0:
402,192,234786,1,8,0:0:0:0:
36,192,234786,1,2,0:0:0:0:
256,192,235020,1,0,0:0:0:0:
256,192,235254,1,0,0:0:0:0:
402,192,235254,1,8,0:0:0:0:
182,192,235254,1,0,0:0:0:0:
36,192,235254,1,2,0:0:0:0:
256,192,235723,1,0,0:0:0:0:
475,192,235723,1,8,0:0:0:0:
182,192,235723,1,0,0:0:0:0:
36,192,235723,1,2,0:0:0:0:
402,192,235957,1,8,0:0:0:0:
109,192,235957,1,0,0:0:0:0:
256,192,236192,1,0,0:0:0:0:
36,192,236192,1,2,0:0:0:0:
475,192,236192,1,8,0:0:0:0:
182,192,236426,1,0,0:0:0:0:
329,192,236426,1,8,0:0:0:0:
402,192,236661,1,8,0:0:0:0:
182,192,236661,1,0,0:0:0:0:
36,192,236661,1,2,0:0:0:0:
475,192,236778,1,8,0:0:0:0:
109,192,236778,1,0,0:0:0:0:
256,192,237012,1,0,0:0:0:0:
402,192,237012,1,8,0:0:0:0:
36,192,237129,1,2,0:0:0:0:
329,192,237364,1,8,0:0:0:0:
256,192,237364,1,0,0:0:0:0:
475,192,237598,1,8,0:0:0:0:
182,192,237598,1,0,0:0:0:0:
36,192,237598,1,2,0:0:0:0:
36,192,237832,1,0,0:0:0:0:
402,192,237832,1,8,0:0:0:0:
256,192,238067,1,0,0:0:0:0:
475,192,238067,1,8,0:0:0:0:
109,192,238067,1,2,0:0:0:0:
36,192,238301,1,0,0:0:0:0:
109,192,238536,1,2,0:0:0:0:
182,192,238536,1,0,0:0:0:0:
402,192,238536,1,8,0:0:0:0:
256,192,238770,1,0,0:0:0:0:
182,192,239004,1,0,0:0:0:0:
256,192,239004,1,0,0:0:0:0:
402,192,239004,1,8,0:0:0:0:
36,192,239004,1,2,0:0:0:0:
475,192,239473,1,8,0:0:0:0:
256,192,239473,1,0,0:0:0:0:
182,192,239707,1,0,0:0:0:0:
402,192,239707,1,8,0:0:0:0:
475,192,239942,1,8,0:0:0:0:
256,192,239942,1,0,0:0:0:0:
402,192,240176,1,8,0:0:0:0:
182,192,240176,1,0,0:0:0:0:
256,192,240411,1,0,0:0:0:0:
402,192,240411,1,8,0:0:0:0:
475,192,240528,1,8,0:0:0:0:
182,192,240528,1,0,0:0:0:0:
182,192,240762,1,0,0:0:0:0:
402,192,240762,1,8,0:0:0:0:
329,192,241114,1,8,0:0:0:0:
182,192,241114,1,0,0:0:0:0:
475,192,241348,1,8,0:0:0:0:
256,192,241348,1,0,0:0:0:0:
402,192,241582,1,8,0:0:0:0:
182,192,241582,1,0,0:0:0:0:
475,192,241817,1,8,0:0:0:0:
256,192,241817,1,0,0:0:0:0:
402,192,242286,1,8,0:0:0:0:
256,192,242286,1,0,0:0:0:0:
402,192,242754,1,8,0:0:0:0:
182,192,242754,1,0,0:0:0:0:
475,192,243223,1,8,0:0:0:0:
256,192,243223,1,0,0:0:0:0:
402,192,243457,1,8,0:0:0:0:
182,192,243457,1,0,0:0:0:0:
475,192,243692,1,8,0:0:0:0:
256,192,243692,1,0,0:0:0:0:
402,192,243926,1,8,0:0:0:0:
182,192,243926,1,0,0:0:0:0:
402,192,244161,1,8,0:0:0:0:
256,192,244161,1,0,0:0:0:0:
475,192,244278,1,8,0:0:0:0:
182,192,244278,1,0,0:0:0:0:
402,192,244512,1,8,0:0:0:0:
256,192,244512,1,0,0:0:0:0:
329,192,244864,1,8,0:0:0:0:
182,192,244864,1,0,0:0:0:0:
475,192,245098,1,8,0:0:0:0:
256,192,245098,1,0,0:0:0:0:
402,192,245332,1,8,0:0:0:0:
256,192,245332,1,0,0:0:0:0:
475,192,245567,1,8,0:0:0:0:
182,192,245567,1,0,0:0:0:0:
402,192,246036,1,8,0:0:0:0:
109,192,246036,1,0,0:0:0:0:
402,192,246504,1,8,0:0:0:0:
36,192,246504,1,0,0:0:0:0:
475,192,246973,1,8,0:0:0:0:
109,192,246973,1,0,0:0:0:0:
402,192,247207,1,8,0:0:0:0:
182,192,247207,1,0,0:0:0:0:
475,192,247442,1,8,0:0:0:0:
256,192,247442,1,0,0:0:0:0:
402,192,247676,1,8,0:0:0:0:
182,192,247676,1,0,0:0:0:0:
402,192,247911,1,8,0:0:0:0:
109,192,247911,1,0,0:0:0:0:
475,192,248028,1,8,0:0:0:0:
182,192,248028,1,0,0:0:0:0:
402,192,248262,1,8,0:0:0:0:
256,192,248262,1,0,0:0:0:0:
329,192,248614,1,8,0:0:0:0:
109,192,248614,1,0,0:0:0:0:
475,192,248848,1,8,0:0:0:0:
182,192,248848,1,0,0:0:0:0:
402,192,249082,1,8,0:0:0:0:
109,192,249082,1,0,0:0:0:0:
475,192,249317,1,8,0:0:0:0:
182,192,249317,1,0,0:0:0:0:
402,192,249786,1,8,0:0:0:0:
36,192,249786,1,0,0:0:0:0:
402,192,250254,1,8,0:0:0:0:
182,192,250254,1,0,0:0:0:0:
475,192,250723,1,8,0:0:0:0:
182,192,250723,1,0,0:0:0:0:
402,192,250957,1,8,0:0:0:0:
109,192,250957,1,0,0:0:0:0:
475,192,251192,1,8,0:0:0:0:
36,192,251192,1,0,0:0:0:0:
402,192,251426,1,8,0:0:0:0:
182,192,251426,1,0,0:0:0:0:
402,192,251661,1,8,0:0:0:0:
109,192,251661,1,0,0:0:0:0:
475,192,251778,1,8,0:0:0:0:
182,192,251778,1,0,0:0:0:0:
402,192,252012,1,8,0:0:0:0:
109,192,252012,1,0,0:0:0:0:
329,192,252364,1,8,0:0:0:0:
182,192,252364,1,0,0:0:0:0:
475,192,252598,1,8,0:0:0:0:
109,192,252598,1,0,0:0:0:0:
402,192,252832,1,8,0:0:0:0:
182,192,252832,1,0,0:0:0:0:
475,192,253067,1,8,0:0:0:0:
109,192,253067,1,0,0:0:0:0:
402,192,253536,1,8,0:0:0:0:
182,192,253536,1,0,0:0:0:0:
402,192,254004,1,8,0:0:0:0:
109,192,254004,1,0,0:0:0:0:
475,192,254239,1,8,0:0:0:0:
256,192,254239,1,0,0:0:0:0:
402,192,254473,1,8,0:0:0:0:
36,192,254473,1,2,0:0:0:0:
256,192,254473,1,0,0:0:0:0:
182,192,254590,1,0,0:0:0:0:
109,192,254707,1,0,0:0:0:0:
329,192,254707,1,8,0:0:0:0:
402,192,254825,1,8,0:0:0:0:
36,192,254942,1,2,0:0:0:0:
182,192,254942,1,0,0:0:0:0:
109,192,255176,1,0,0:0:0:0:
475,192,255176,1,8,0:0:0:0:
36,192,255411,1,2,0:0:0:0:
256,192,255411,1,0,0:0:0:0:
402,192,255411,1,8,0:0:0:0:
182,192,255528,1,0,0:0:0:0:
109,192,255645,1,0,0:0:0:0:
329,192,255645,1,8,0:0:0:0:
109,192,255879,1,0,0:0:0:0:
36,192,255879,1,2,0:0:0:0:
402,192,255879,1,8,0:0:0:0:
109,192,256114,1,0,0:0:0:0:
475,192,256114,1,8,0:0:0:0:
36,192,256348,1,2,0:0:0:0:
256,192,256348,1,0,0:0:0:0:
402,192,256348,1,8,0:0:0:0:
182,192,256465,1,0,0:0:0:0:
329,192,256582,1,8,0:0:0:0:
109,192,256582,1,0,0:0:0:0:
402,192,256700,1,8,0:0:0:0:
182,192,256817,1,0,0:0:0:0:
36,192,256817,1,2,0:0:0:0:
475,192,257051,1,8,0:0:0:0:
109,192,257051,1,0,0:0:0:0:
402,192,257286,1,8,0:0:0:0:
36,192,257286,1,2,0:0:0:0:
256,192,257286,1,0,0:0:0:0:
182,192,257403,1,0,0:0:0:0:
109,192,257520,1,0,0:0:0:0:
182,192,257754,1,0,0:0:0:0:
36,192,257754,1,2,0:0:0:0:
475,192,257754,1,8,0:0:0:0:
402,192,257989,1,8,0:0:0:0:
109,192,257989,1,0,0:0:0:0:
182,192,258223,1,0,0:0:0:0:
475,192,258223,1,8,0:0:0:0:
256,192,258223,1,2,0:0:0:0:
109,192,258340,1,0,0:0:0:0:
402,192,258457,1,8,0:0:0:0:
36,192,258457,1,0,0:0:0:0:
329,192,258575,1,8,0:0:0:0:
182,192,258692,1,0,0:0:0:0:
256,192,258692,1,2,0:0:0:0:
402,192,258926,1,8,0:0:0:0:
109,192,258926,1,0,0:0:0:0:
475,192,259161,1,8,0:0:0:0:
182,192,259161,1,0,0:0:0:0:
256,192,259161,1,2,0:0:0:0:
109,192,259278,1,0,0:0:0:0:
36,192,259395,1,0,0:0:0:0:
402,192,259395,1,8,0:0:0:0:
182,192,259629,1,0,0:0:0:0:
329,192,259629,1,8,0:0:0:0:
256,192,259629,1,2,0:0:0:0:
109,192,259864,1,0,0:0:0:0:
256,192,260098,1,2,0:0:0:0:
182,192,260098,1,0,0:0:0:0:
475,192,260098,1,8,0:0:0:0:
109,192,260215,1,0,0:0:0:0:
36,192,260332,1,0,0:0:0:0:
109,192,260567,1,0,0:0:0:0:
182,192,260567,1,2,0:0:0:0:
329,192,260567,1,8,0:0:0:0:
182,192,260801,1,0,0:0:0:0:
256,192,261036,1,2,0:0:0:0:
182,192,261036,1,0,0:0:0:0:
475,192,261036,1,8,0:0:0:0:
109,192,261153,1,0,0:0:0:0:
36,192,261270,1,0,0:0:0:0:
256,192,261504,1,0,0:0:0:0:
402,192,261504,1,8,0:0:0:0:
36,192,261504,1,2,0:0:0:0:
475,192,261739,1,8,0:0:0:0:
182,192,261739,1,0,0:0:0:0:
36,192,261973,1,2,0:0:0:0:
402,192,261973,1,8,0:0:0:0:
256,192,261973,1,0,0:0:0:0:
182,192,262090,1,0,0:0:0:0:
109,192,262207,1,0,0:0:0:0:
329,192,262207,1,8,0:0:0:0:
402,192,262325,1,8,0:0:0:0:
36,192,262442,1,2,0:0:0:0:
256,192,262442,1,0,0:0:0:0:
475,192,262676,1,8,0:0:0:0:
109,192,262676,1,0,0:0:0:0:
36,192,262911,1,2,0:0:0:0:
256,192,262911,1,0,0:0:0:0:
402,192,262911,1,8,0:0:0:0:
182,192,263028,1,0,0:0:0:0:
109,192,263145,1,0,0:0:0:0:
329,192,263145,1,8,0:0:0:0:
256,192,263379,1,0,0:0:0:0:
36,192,263379,1,2,0:0:0:0:
402,192,263379,1,8,0:0:0:0:
475,192,263614,1,8,0:0:0:0:
109,192,263614,1,0,0:0:0:0:
402,192,263848,1,8,0:0:0:0:
36,192,263848,1,2,0:0:0:0:
256,192,263848,1,0,0:0:0:0:
182,192,263965,1,0,0:0:0:0:
109,192,264082,1,0,0:0:0:0:
329,192,264082,1,8,0:0:0:0:
402,192,264200,1,8,0:0:0:0:
36,192,264317,1,2,0:0:0:0:
256,192,264317,1,0,0:0:0:0:
109,192,264551,1,0,0:0:0:0:
475,192,264551,1,8,0:0:0:0:
36,192,264786,1,2,0:0:0:0:
256,192,264786,1,0,0:0:0:0:
402,192,264786,1,8,0:0:0:0:
182,192,264903,1,0,0:0:0:0:
109,192,265020,1,0,0:0:0:0:
36,192,265254,1,2,0:0:0:0:
182,192,265254,1,0,0:0:0:0:
475,192,265254,1,8,0:0:0:0:
402,192,265489,1,8,0:0:0:0:
109,192,265489,1,0,0:0:0:0:
256,192,265723,1,2,0:0:0:0:
182,192,265723,1,0,0:0:0:0:
329,192,265723,1,8,0:0:0:0:
109,192,265840,1,0,0:0:0:0:
36,192,265957,1,0,0:0:0:0:
402,192,265957,1,8,0:0:0:0:
475,192,266075,1,8,0:0:0:0:
182,192,266192,1,0,0:0:0:0:
256,192,266192,1,2,0:0:0:0:
109,192,266426,1,0,0:0:0:0:
182,192,266661,1,0,0:0:0:0:
256,192,266661,1,2,0:0:0:0:
109,192,266778,1,0,0:0:0:0:
36,192,266895,1,0,0:0:0:0:
256,192,267129,1,2,0:0:0:0:
109,192,267129,1,0,0:0:0:0:
475,192,267129,1,8,0:0:0:0:
182,192,267364,1,0,0:0:0:0:
329,192,267598,1,8,0:0:0:0:
256,192,267598,1,2,0:0:0:0:
182,192,267598,1,0,0:0:0:0:
109,192,267715,1,0,0:0:0:0:
402,192,267832,1,8,0:0:0:0:
36,192,267832,1,0,0:0:0:0:
475,192,267950,1,8,0:0:0:0:
109,192,268067,1,0,0:0:0:0:
256,192,268067,1,2,0:0:0:0:
402,192,268301,1,8,0:0:0:0:
182,192,268301,1,0,0:0:0:0:
109,192,268536,1,0,0:0:0:0:
256,192,268536,1,2,0:0:0:0:
329,192,268536,1,8,0:0:0:0:
182,192,268653,1,0,0:0:0:0:
36,192,268770,1,0,0:0:0:0:
256,192,269004,1,0,0:0:0:0:
36,192,269004,1,2,0:0:0:0:
402,192,269004,1,8,0:0:0:0:
475,192,269239,1,8,0:0:0:0:
182,192,269239,1,0,0:0:0:0:
402,192,269473,1,8,0:0:0:0:
36,192,269473,1,2,0:0:0:0:
256,192,269473,1,0,0:0:0:0:
109,192,269590,1,0,0:0:0:0:
182,192,269707,1,0,0:0:0:0:
329,192,269707,1,8,0:0:0:0:
402,192,269825,1,8,0:0:0:0:
36,192,269942,1,2,0:0:0:0:
256,192,269942,1,0,0:0:0:0:
182,192,270176,1,0,0:0:0:0:
475,192,270176,1,8,0:0:0:0:
256,192,270411,1,0,0:0:0:0:
36,192,270411,1,2,0:0:0:0:
402,192,270411,1,8,0:0:0:0:
182,192,270528,1,0,0:0:0:0:
329,192,270645,1,8,0:0:0:0:
109,192,270645,1,0,0:0:0:0:
256,192,270879,1,0,0:0:0:0:
36,192,270879,1,2,0:0:0:0:
402,192,270879,1,8,0:0:0:0:
475,192,271114,1,8,0:0:0:0:
109,192,271114,1,0,0:0:0:0:
256,192,271348,1,0,0:0:0:0:
36,192,271348,1,2,0:0:0:0:
402,192,271348,1,8,0:0:0:0:
182,192,271465,1,0,0:0:0:0:
109,192,271582,1,0,0:0:0:0:
329,192,271582,1,8,0:0:0:0:
402,192,271700,1,8,0:0:0:0:
36,192,271817,1,2,0:0:0:0:
256,192,271817,1,0,0:0:0:0:
109,192,272051,1,0,0:0:0:0:
475,192,272051,1,8,0:0:0:0:
256,192,272286,1,0,0:0:0:0:
402,192,272286,1,8,0:0:0:0:
36,192,272286,1,2,0:0:0:0:
182,192,272403,1,0,0:0:0:0:
109,192,272520,1,0,0:0:0:0:
475,192,272754,1,8,0:0:0:0:
36,192,272754,1,2,0:0:0:0:
256,192,272754,1,0,0:0:0:0:
109,192,272989,1,0,0:0:0:0:
402,192,272989,1,8,0:0:0:0:
256,192,273223,1,2,0:0:0:0:
475,192,273223,1,8,0:0:0:0:
182,192,273223,1,0,0:0:0:0:
109,192,273340,1,0,0:0:0:0:
36,192,273457,1,0,0:0:0:0:
402,192,273457,1,8,0:0:0:0:
329,192,273575,1,8,0:0:0:0:
256,192,273692,1,2,0:0:0:0:
182,192,273692,1,0,0:0:0:0:
402,192,273926,1,8,0:0:0:0:
109,192,273926,1,0,0:0:0:0:
256,192,274161,1,2,0:0:0:0:
475,192,274161,1,8,0:0:0:0:
182,192,274161,1,0,0:0:0:0:
109,192,274278,1,0,0:0:0:0:
402,192,274395,1,8,0:0:0:0:
36,192,274395,1,0,0:0:0:0:
256,192,274629,1,2,0:0:0:0:
109,192,274629,1,0,0:0:0:0:
329,192,274629,1,8,0:0:0:0:
182,192,274864,1,0,0:0:0:0:
109,192,275098,1,0,0:0:0:0:
256,192,275098,1,2,0:0:0:0:
475,192,275098,1,8,0:0:0:0:
182,192,275215,1,0,0:0:0:0:
36,192,275332,1,0,0:0:0:0:
256,192,275567,1,2,0:0:0:0:
109,192,275567,1,0,0:0:0:0:
329,192,275567,1,8,0:0:0:0:
182,192,275801,1,0,0:0:0:0:
182,192,276036,1,0,0:0:0:0:
256,192,276036,1,2,0:0:0:0:
475,192,276036,1,8,0:0:0:0:
109,192,276153,1,0,0:0:0:0:
36,192,276270,1,0,0:0:0:0:
36,192,276504,1,2,0:0:0:0:
402,192,276504,1,8,0:0:0:0:
256,192,276504,1,0,0:0:0:0:
182,192,276739,1,0,0:0:0:0:
475,192,276739,1,8,0:0:0:0:
36,192,276973,1,2,0:0:0:0:
256,192,276973,1,0,0:0:0:0:
402,192,276973,1,8,0:0:0:0:
182,192,277090,1,0,0:0:0:0:
329,192,277207,1,8,0:0:0:0:
109,192,277207,1,0,0:0:0:0:
402,192,277325,1,8,0:0:0:0:
256,192,277442,1,0,0:0:0:0:
36,192,277442,1,2,0:0:0:0:
182,192,277676,1,0,0:0:0:0:
475,192,277676,1,8,0:0:0:0:
256,192,277911,1,0,0:0:0:0:
36,192,277911,1,2,0:0:0:0:
402,192,277911,1,8,0:0:0:0:
182,192,278028,1,0,0:0:0:0:
109,192,278145,1,0,0:0:0:0:
256,192,278379,1,0,0:0:0:0:
36,192,278379,1,2,0:0:0:0:
402,192,278379,1,8,0:0:0:0:
475,192,278614,1,8,0:0:0:0:
109,192,278614,1,0,0:0:0:0:
402,192,278848,1,8,0:0:0:0:
36,192,278848,1,2,0:0:0:0:
256,192,278848,1,0,0:0:0:0:
182,192,278965,1,0,0:0:0:0:
109,192,279082,1,0,0:0:0:0:
329,192,279082,1,8,0:0:0:0:
402,192,279200,1,8,0:0:0:0:
36,192,279317,1,2,0:0:0:0:
256,192,279317,1,0,0:0:0:0:
109,192,279551,1,0,0:0:0:0:
475,192,279551,1,8,0:0:0:0:
256,192,279786,1,0,0:0:0:0:
36,192,279786,1,2,0:0:0:0:
402,192,279786,1,8,0:0:0:0:
182,192,279903,1,0,0:0:0:0:
109,192,280020,1,0,0:0:0:0:
256,192,280254,1,2,0:0:0:0:
182,192,280254,1,0,0:0:0:0:
475,192,280254,1,8,0:0:0:0:
109,192,280489,1,0,0:0:0:0:
402,192,280489,1,8,0:0:0:0:
182,192,280723,1,0,0:0:0:0:
256,192,280723,1,2,0:0:0:0:
329,192,280723,1,8,0:0:0:0:
109,192,280840,1,0,0:0:0:0:
402,192,280957,1,8,0:0:0:0:
36,192,280957,1,0,0:0:0:0:
475,192,281075,1,8,0:0:0:0:
256,192,281192,1,2,0:0:0:0:
182,192,281192,1,0,0:0:0:0:
109,192,281426,1,0,0:0:0:0:
256,192,281661,1,2,0:0:0:0:
182,192,281661,1,0,0:0:0:0:
109,192,281778,1,0,0:0:0:0:
36,192,281895,1,0,0:0:0:0:
475,192,282129,1,8,0:0:0:0:
256,192,282129,1,2,0:0:0:0:
182,192,282129,1,0,0:0:0:0:
109,192,282364,1,0,0:0:0:0:
182,192,282598,1,0,0:0:0:0:
329,192,282598,1,8,0:0:0:0:
256,192,282598,1,2,0:0:0:0:
109,192,282715,1,0,0:0:0:0:
402,192,282832,1,8,0:0:0:0:
36,192,282832,1,0,0:0:0:0:
475,192,282950,1,8,0:0:0:0:
182,192,283067,1,0,0:0:0:0:
256,192,283067,1,2,0:0:0:0:
109,192,283301,1,0,0:0:0:0:
402,192,283301,1,8,0:0:0:0:
182,192,283536,1,0,0:0:0:0:
329,192,283536,1,8,0:0:0:0:
256,192,283536,1,2,0:0:0:0:
109,192,283653,1,0,0:0:0:0:
402,192,283770,1,8,0:0:0:0:
36,192,283770,1,0,0:0:0:0:
329,192,284004,1,12,0:0:0:0:
475,192,284004,1,12,0:0:0:0:
182,192,284004,1,4,0:0:0:0:
36,192,284004,1,4,0:0:0:0:
